<?xml version="1.0" standalone="no"?>
<!DOCTYPE svg PUBLIC "-//W3C//DTD SVG 1.1//EN" "http://www.w3.org/Graphics/SVG/1.1/DTD/svg11.dtd" >
<svg>
<metadata>
Created by FontForge 20120731 at Wed Oct 16 16:06:35 2019
 By www-data
https://creativemarket.com/AttypeStudio
</metadata>
<defs>
<font id="HallowebRegular" horiz-adv-x="40" >
  <font-face 
    font-family="Halloweb"
    font-weight="400"
    font-stretch="normal"
    units-per-em="1000"
    panose-1="0 0 0 0 0 0 0 0 0 0"
    ascent="800"
    descent="-200"
    x-height="398"
    cap-height="617"
    bbox="-114 -183 832 737"
    underline-thickness="0"
    underline-position="0"
    unicode-range="U+000A-F000"
  />
<missing-glyph horiz-adv-x="527" 
d="M50 700h427v-700h-427v700zM78 680l185 -309l186 309h-371zM251 350l-180 300v-601zM264 329l-185 -308h370zM276 350l181 -303v605z" />
    <glyph glyph-name="ll.liga" unicode="ll" horiz-adv-x="355" 
d="M95 602l1 -2c32 -31 79 9 79 -21c0 0 -27 -143 -27 -213c0 -51 9 -97 9 -97s-28 -83 -28 -218c0 -31 2 -65 2 -65c0 -10 -4 -13 -13 -8c-15 9 -34 6 -45 -8c-3 -4 -4 -9 -10 -7c-13 5 3 13 -3 123c-3 49 3 100 -11 146c-3 10 -4 19 -4 28c0 0 43 205 43 313
c0 16 -3 39 7 29zM285 294l1 -2c0 -51 9 -97 9 -97s-28 -83 -28 -218c0 -31 2 -65 2 -65c0 -10 -4 -13 -13 -8c-15 9 -34 6 -45 -8c-3 -4 -4 -9 -10 -7c-13 5 3 13 -3 123c-3 49 3 100 -11 146c-3 10 -4 19 -4 28c0 0 43 205 43 313c0 16 -3 39 7 29c32 -31 79 9 79 -21
c0 0 -27 -143 -27 -213z" />
    <glyph glyph-name=".notdef" horiz-adv-x="527" 
d="M50 700h427v-700h-427v700zM78 680l185 -309l186 309h-371zM251 350l-180 300v-601zM264 329l-185 -308h370zM276 350l181 -303v605z" />
    <glyph glyph-name=".null" 
 />
    <glyph glyph-name=".null" 
 />
    <glyph glyph-name="LF" unicode="&#xa;" 
 />
    <glyph glyph-name="controlCR" unicode="&#xd;" 
 />
    <glyph glyph-name="space" unicode=" " horiz-adv-x="284" 
 />
    <glyph glyph-name="exclam" unicode="!" horiz-adv-x="305" 
d="M232 238l2 1c0 -38 7 -119 44 -130c-5 -3 -9 -4 -13 -4s-8 1 -11 2c-18 7 -36 10 -54 10c-23 0 -46 -6 -69 -17c-11 -5 -14 -7 -17 -7h-6c20 24 28 111 28 139c0 63 -14 56 -14 86c0 33 20 63 20 141c0 86 -25 157 -25 157c0 3 2 6 4 6s4 -1 6 -2c25 -9 45 -27 85 -27
c19 0 38 5 57 13c3 1 6 3 11 3h3c0 -2 -4 -5 -4 -8c0 -2 1 -3 5 -4v0s-53 -76 -53 -192c0 -59 10 -57 10 -79c0 -23 -9 -30 -9 -88zM215 88l-1 1c0 -30 16 -71 53 -90c-21 -12 -67 -34 -73 -57c-1 -4 1 -9 -6 -9c-14 0 -32 57 -76 57h-5c-4 0 -8 2 -8 6c0 2 1 4 3 7
c12 18 24 36 26 58c0 3 2 4 4 4c5 0 5 -7 13 -7c2 0 4 1 6 2c17 10 37 15 49 32c2 3 5 4 8 4c6 0 7 -2 7 -5v-3z" />
    <glyph glyph-name="numbersign" unicode="#" horiz-adv-x="661" 
d="M639 466l-3 -1c4 -6 -2 -8 -4 -12c-6 -13 -14 -26 -14 -40c0 -15 7 -19 7 -27c0 -4 -2 -8 -5 -8s-6 2 -9 3l-69 21c-3 0 -3 -2 -4 -6c-7 -41 -17 -51 -2 -101c2 -7 2 -12 -2 -19c-12 -20 -27 -74 -27 -77c0 -4 6 -3 10 -3c58 -6 66 -3 56 -17c-14 -19 -20 -36 -5 -55
c2 -3 2 -7 -1 -9s-4 -3 -8 0c-17 16 -59 24 -62 24c-6 0 -7 -6 -7 -10c-3 -27 -10 -53 -10 -80c0 -14 2 -26 2 -26c0 -5 -10 -12 -16 -6c-18 20 -40 12 -61 10c-17 -2 -32 -15 -51 -10c17 39 30 122 30 125c0 21 -50 7 -107 17h-3c-19 0 -31 -114 -33 -140
c-1 -10 -7 -10 -15 -4c-14 11 -32 21 -50 21c-29 0 -58 -17 -75 -13c36 53 51 123 51 129c0 4 -2 6 -8 6c-36 0 -50 0 -66 -7c-5 -2 -8 6 -6 9c6 8 8 16 8 24c0 24 -27 59 -16 59c0 0 70 -20 100 -20c2 0 3 1 4 4c10 52 -4 56 6 75c14 27 34 94 34 97c0 6 -3 3 -74 -10
c-2 0 -4 -2 -6 -2s-3 3 -3 5s1 4 3 6c15 14 17 58 4 73c-3 3 -4 10 -11 5c-1 -1 -5 4 -5 10c0 8 5 6 13 6c12 0 24 1 35 -1c19 -3 38 1 57 -4h3c6 0 5 5 5 36c0 42 0 41 1 45c7 39 7 15 63 15c15 0 30 1 45 2c2 0 4 2 6 2c5 -1 11 1 16 1c7 0 10 -5 10 -8
c0 -6 -7 -10 -10 -15c-18 -33 -29 -68 -29 -74c0 -8 9 -6 19 -6c24 0 48 -4 72 -4c33 0 31 1 33 22c6 69 3 86 3 85c0 6 7 9 15 2c21 -19 44 -21 67 -21c15 0 30 -2 45 2c9 3 15 -6 9 -14c-16 -24 -22 -52 -31 -80c26 -2 33 -7 67 -7c4 0 7 -1 9 -4zM390 287h-1
c0 28 31 56 43 125h-60c-67 0 -62 7 -62 -32c0 -19 -11 -52 5 -94c5 -12 4 -22 -6 -32c-7 -8 -10 -20 -16 -29c-5 -8 -2 -13 8 -14c18 -2 81 -7 82 -7c9 0 8 7 8 16v36c0 14 -1 31 -1 31z" />
    <glyph glyph-name="dollar" unicode="$" horiz-adv-x="510" 
d="M364 597v-1c85 -39 126 -107 126 -138c0 -13 -5 -35 -11 -35c-2 0 -4 1 -6 3c-17 18 -25 28 -47 28c-19 0 -39 -10 -45 -26c-1 -3 -2 -8 -7 -8c-7 0 -7 6 -7 11c-3 35 -28 60 -29 38c-2 -94 -18 -125 -4 -126c92 -32 137 -100 137 -153c0 -51 -7 -144 -106 -166
c-9 -2 -12 -5 -12 -10c0 -6 16 -57 16 -65c0 -5 -2 -7 -7 -7c-26 0 -54 43 -116 3c-13 -8 -19 -4 -19 2c0 3 6 69 6 69c0 5 -2 7 -10 10c-52 18 -137 71 -135 137c0 10 1 20 1 20c0 2 -1 5 -1 7c0 4 4 6 7 6c5 0 7 -5 10 -8c9 -9 22 -14 36 -14c36 0 41 23 56 23
c17 0 9 -20 15 -30c8 -12 17 -22 33 -28v109c0 8 -5 9 -12 10c-42 9 -82 22 -111 56c-83 96 2 253 66 272c72 21 38 12 44 94c8 1 13 -6 19 -8c69 -24 98 13 93 -23c-1 -5 -4 -2 -4 -28c0 -25 11 -18 24 -24zM239 361v150c-63 -60 -77 -114 0 -150zM319 129
c58 29 70 95 0 125c2 -59 4 -67 0 -125z" />
    <glyph glyph-name="percent" unicode="%" horiz-adv-x="557" 
d="M457 598l1 -2c8 0 11 -9 11 -13c0 -8 -13 -11 -19 -16c-49 -42 -208 -309 -254 -559c-61 53 -111 15 -123 15c-6 0 -10 5 -10 9c0 0 289 468 289 551v13c0 8 4 10 9 6c23 -17 49 -9 74 -9c7 0 15 5 22 5zM449 184l-2 2c15 -9 15 -12 1 -23c-20 -15 -37 -32 -45 -56
c-2 -6 2 -18 -11 -14c-10 -2 -5 5 -40 43c-8 8 -15 16 -28 16c-8 0 -12 2 -12 7c0 12 40 55 40 70v3c0 4 4 7 9 8c36 9 32 32 47 32c26 0 -9 -56 41 -88zM165 461c-5 5 -17 1 -17 10c0 7 9 13 12 20c6 14 19 26 19 43c0 5 -1 10 -1 10c0 2 5 7 7 7s3 -2 4 -3
c37 -33 60 -6 71 -6c4 0 10 -3 10 -7c0 -3 -18 -37 -1 -70c-64 -7 -65 -64 -83 -33c-9 15 -6 16 -21 29z" />
    <glyph glyph-name="asterisk" unicode="*" horiz-adv-x="336" 
d="M312 437h-7c7 -6 4 -8 -4 -10c-23 -4 -44 -14 -66 -25c16 -9 30 -19 46 -21c10 -2 13 -8 18 -14c3 -3 3 -5 -1 -8c-20 -15 -23 -38 -28 -61c-19 11 -33 28 -51 45c-1 -23 2 -43 9 -62c-13 -5 -19 2 -46 2c-18 0 -35 -2 -52 -7c-15 -4 -20 3 -20 7c0 0 18 40 22 59
c-12 -4 -21 -10 -26 -18c-12 -19 -12 5 -31 31c-7 9 -20 5 -25 16c32 6 60 21 90 36c-26 26 -70 33 -70 53c0 7 10 6 17 8c16 6 31 13 41 26c6 8 10 8 15 -1c7 -13 17 -23 27 -36c12 43 12 51 22 51c6 0 9 -3 18 -3c16 0 25 10 39 10c9 0 9 -5 5 -12c-7 -12 -10 -26 -15 -42
c59 23 55 22 58 22c5 0 9 -5 9 -11s-7 -22 6 -35z" />
    <glyph glyph-name="zero" unicode="0" horiz-adv-x="604" 
d="M580 299h-1c2 -4 3 -7 3 -10c0 -13 -24 -21 -40 -41c-5 -6 -87 -239 -278 -239h-6c-210 14 -195 217 -233 258c-4 5 -6 9 -6 13c0 5 3 10 8 16c16 18 28 40 35 64c39 140 149 263 291 263c124 0 208 -118 208 -231c0 -13 -1 -16 -1 -26c0 -24 8 -46 20 -67zM357 107h-1
c284 376 -143 580 -207 119c181 33 208 -119 208 -119z" />
    <glyph glyph-name="one" unicode="1" horiz-adv-x="302" 
d="M240 277h1c0 -128 23 -237 24 -240c1 -2 4 -4 4 -6c0 -3 -6 -5 -9 -5c-2 0 -90 18 -110 18h-22c-21 -1 -15 -25 -30 -25c-4 0 -10 2 -10 6c0 0 80 225 80 454c0 14 -1 28 -4 43c-23 -29 -49 -53 -53 -91c-1 -5 -3 -7 -8 -7c-6 0 -10 1 -12 7c-9 35 -36 64 -77 64h-6
c-4 0 -8 1 -12 6c66 27 124 66 173 118c7 7 12 10 18 10c5 0 11 -3 19 -8c52 -32 74 -14 74 -31c0 0 -40 -44 -40 -313z" />
    <glyph glyph-name="two" unicode="2" horiz-adv-x="520" 
d="M544 71l-3 -3c7 0 11 -4 11 -7c0 -4 -5 -7 -8 -9c-13 -7 -39 -49 -99 -49c-72 0 -190 88 -264 88c-53 0 -118 -8 -137 -58c-1 -4 -3 -8 -7 -8c-5 0 -8 4 -8 8c0 1 0 2 1 3c4 6 5 12 5 18c0 8 -2 16 -2 24c0 126 261 248 261 374c0 26 -14 50 -40 50
c-46 0 -97 -81 -97 -115c0 -3 3 -6 3 -9s-5 -5 -8 -5c-5 0 -7 7 -10 11c-13 15 -30 44 -69 44c-12 0 -24 -3 -36 -7c-3 -1 -6 -6 -10 -6c-3 0 -8 4 -8 10c0 19 49 198 235 198c77 0 139 -55 139 -141c0 -84 -87 -259 -198 -303c45 -28 132 -43 183 -43c24 0 33 1 40 4
c5 2 9 3 13 3c12 0 19 -10 26 -19c14 -18 52 -54 75 -54c3 0 6 0 9 1h3z" />
    <glyph glyph-name="three" unicode="3" horiz-adv-x="465" 
d="M348 352l2 3c67 -31 96 -87 96 -161c0 -126 -120 -178 -245 -178c-62 0 -118 14 -156 62c-21 26 -22 46 -22 89c0 13 1 26 4 39c1 6 -1 9 9 9c13 0 22 -25 39 -25c9 0 29 11 40 22c2 2 4 3 6 3c3 0 6 -2 6 -4s-2 -4 -2 -6v-3c0 -17 5 -105 91 -105c45 0 131 38 131 116
c0 59 -80 79 -115 79c-10 0 -20 -2 -30 -5c-4 -1 -8 -3 -11 -3c-5 0 -8 4 -8 7c0 0 25 21 25 49c0 17 -26 30 -31 38c6 3 11 4 15 4c7 0 12 -2 18 -2c33 0 97 20 97 69c0 47 -37 85 -90 85c-46 0 -87 -50 -105 -73c-3 -4 -5 -6 -7 -6s-3 2 -4 8c-2 9 -9 16 -18 18
c-8 2 -13 3 -17 3c-14 0 -22 -17 -33 -17c-12 0 -12 10 -12 19c0 45 67 149 224 149c108 0 178 -73 178 -147c0 -56 -20 -113 -75 -136z" />
    <glyph glyph-name="four" unicode="4" horiz-adv-x="520" 
d="M427 280l-4 1c-3 0 -4 -1 -4 -5c0 -160 31 -259 31 -259c0 -1 -1 -2 -4 -3c-4 -1 -7 -3 -10 -3s-6 1 -9 4c-20 22 -58 35 -87 35c-18 0 -36 -4 -54 -11c-5 -2 -10 -4 -16 -4c-2 0 -4 0 -7 1c38 119 51 250 51 255c0 11 -5 12 -24 13c-29 1 -58 4 -87 4
c-119 0 -181 -27 -181 -27c-2 0 -3 1 -3 2c-1 2 -1 3 -1 4c0 2 1 4 3 6c69 68 124 146 165 233c23 49 29 70 41 70c3 0 5 -2 7 -8c7 -23 21 -33 43 -33c12 0 25 3 25 3c4 0 7 -5 7 -8s-4 -5 -6 -7c-49 -54 -81 -98 -104 -161c37 -5 73 -7 109 -7h3c13 0 19 0 20 14
c0 0 21 216 22 224c1 7 3 11 9 11c2 0 5 -1 8 -2c8 -3 16 -4 23 -4c15 0 29 6 42 17c4 3 8 6 12 6c3 0 8 -2 8 -5s-4 -6 -4 -9c-15 -145 -25 -213 -25 -236c0 -5 1 -8 5 -8c2 0 4 0 7 1c7 2 15 1 23 2h3c7 0 7 -8 7 -14v0c0 -25 15 -82 29 -107z" />
    <glyph glyph-name="five" unicode="5" horiz-adv-x="440" 
d="M242 368h-7c95 0 177 -65 177 -178c0 -112 -123 -159 -213 -159c-66 0 -127 25 -156 87c42 10 69 37 85 76c2 4 5 6 10 6s5 -4 7 -7c13 -25 46 -43 75 -43c40 0 58 39 58 63c0 16 -13 70 -54 70c-27 0 -39 -23 -56 -23c-8 0 -13 7 -22 16c-22 21 -48 27 -75 27
c-7 0 -14 0 -21 -1s-15 -5 -22 -5c-6 0 -11 4 -11 9c0 0 45 76 58 305c0 4 2 5 4 5c0 0 104 -8 126 -8c45 0 167 14 170 14h2c3 0 6 1 9 1s6 -1 8 -6v-3c0 -5 -7 -2 -9 -6c-11 -24 -24 -47 -28 -73c-2 -12 -2 -17 -6 -17c0 0 -44 23 -111 23c-24 0 -71 -6 -71 -30
c0 0 1 -18 1 -41v-39c0 -21 6 -41 7 -62c0 -5 2 -9 8 -9c2 0 4 0 6 1c17 5 34 7 51 7z" />
    <glyph glyph-name="six" unicode="6" horiz-adv-x="446" 
d="M412 243l-4 -3c9 -15 13 -30 13 -44c0 -62 -62 -177 -240 -177c-101 0 -164 82 -164 170c0 78 70 318 299 411c6 2 15 1 17 12c1 3 3 4 6 4s7 -1 10 -2c-4 -6 -6 -13 -6 -20c0 -18 9 -37 21 -51c7 -8 13 -10 13 -15c0 0 -254 -120 -254 -328c0 -50 45 -85 88 -85
c72 0 122 50 122 96s-44 62 -71 62c-17 0 -27 -11 -41 -11c-3 0 -7 0 -12 1c0 10 10 9 14 15c12 16 14 19 14 27v16c0 8 -2 15 -12 17c-2 1 -3 3 -3 5c0 4 3 4 6 5c14 5 28 8 42 8c10 0 20 -2 30 -6c104 -38 109 -102 112 -107z" />
    <glyph glyph-name="seven" unicode="7" horiz-adv-x="396" 
d="M457 618l-2 1c3 0 7 -4 7 -7c0 0 -205 -321 -309 -591c-25 25 -43 36 -78 36c-22 0 -50 -4 -90 -11c126 141 212 303 292 470h-39c-118 0 -192 -22 -192 -22c-5 0 -7 5 -7 8s1 5 3 7c6 5 29 35 29 59c0 11 -3 22 -10 33c-3 4 -4 7 -4 9c0 4 3 6 9 6c0 0 99 -13 186 -13
c99 0 196 12 202 15h3z" />
    <glyph glyph-name="eight" unicode="8" horiz-adv-x="465" 
d="M437 212c4 -5 7 -10 7 -15s-2 -10 -7 -16c-54 -68 -87 -154 -215 -154c-139 0 -143 110 -197 145c-4 3 -6 6 -6 9s1 6 4 9c51 61 33 129 134 178c6 3 10 5 10 8c0 2 -2 5 -7 9c-33 24 -49 61 -49 98c0 81 70 142 147 142c71 0 133 -50 133 -127c0 -54 -31 -101 -73 -123
c97 -46 91 -125 119 -163zM270 420v-1c117 156 -75 209 -86 50c64 -2 86 -49 86 -49zM259 99h-1c160 212 -101 284 -116 67c87 -2 117 -67 117 -67z" />
    <glyph glyph-name="nine" unicode="9" horiz-adv-x="446" 
d="M260 618l4 3c101 0 164 -82 164 -170c0 -78 -70 -318 -299 -411c-6 -2 -15 -1 -17 -12c-1 -3 -3 -4 -6 -4s-7 1 -10 2c4 6 6 13 6 20c0 18 -9 37 -21 51c-7 8 -13 10 -13 15c0 0 254 120 254 328c0 50 -45 85 -88 85c-72 0 -122 -50 -122 -96s44 -62 71 -62
c17 0 27 11 41 11c3 0 7 0 12 -1c0 -10 -10 -9 -14 -15c-12 -16 -14 -19 -14 -27v-16c0 -8 2 -15 12 -17c2 -1 3 -3 3 -5c0 -4 -3 -4 -6 -5c-14 -5 -28 -8 -42 -8c-10 0 -20 2 -30 6c-104 38 -109 102 -112 107c-9 15 -13 30 -13 44c0 62 62 177 240 177z" />
    <glyph glyph-name="question" unicode="?" horiz-adv-x="503" 
d="M315 615v1c79 0 166 -64 166 -163c0 -135 -134 -106 -134 -282c0 -42 8 -43 -1 -47c-5 -3 -11 -2 -15 2c-38 40 -69 21 -87 21c-10 0 -17 5 -17 14c0 203 130 170 130 278c0 36 -20 56 -51 56c-55 0 -91 -55 -91 -92c0 -21 -3 -43 12 -62c5 -7 -7 -12 -14 -7
c-13 10 -27 15 -41 15c-47 0 -49 -43 -71 -38c-6 1 -9 7 -9 13c0 3 -2 5 -2 8c-1 14 -6 28 -4 43c14 190 155 240 229 240zM366 58v-2c3 0 9 -3 9 -7c0 -3 -4 -5 -7 -7c-26 -19 -46 -42 -51 -75c-1 -4 -2 -6 -9 -6c-6 0 -10 4 -12 10c-22 49 -73 52 -85 60
c10 12 39 34 47 66c1 5 4 8 8 8c6 0 9 -6 19 -6c9 0 14 6 24 6c24 0 16 -42 57 -47z" />
    <glyph glyph-name="A" unicode="A" horiz-adv-x="537" 
d="M530 1l-1 1c25 -44 29 -40 64 -66v-3c-33 7 -60 16 -100 16c-69 0 -142 -31 -142 -31c-3 0 -5 3 -5 5c0 3 2 6 5 8c14 8 21 22 32 32c29 27 32 57 32 89c0 48 -19 190 -45 190c-12 0 -61 -5 -138 -44c-9 -5 -67 -22 -67 -128c0 -17 3 -35 13 -53c-21 10 -40 14 -58 14
c-32 0 -73 -13 -101 -34c37 85 160 441 160 538c0 26 -4 29 -4 47c0 24 2 30 9 30c2 0 4 0 7 -1c32 -14 78 -21 113 -21h10c16 0 22 -5 37 -5c27 0 99 26 112 26c6 0 8 -3 8 -10c0 0 -11 -69 -11 -150c0 -165 51 -417 70 -450zM240 278h-1c62 11 120 44 120 61
c0 3 -30 179 -47 228c-80 -118 -106 -243 -106 -283c0 -8 4 -12 11 -12s12 4 23 6z" />
    <glyph glyph-name="A" unicode="&#xc5;" horiz-adv-x="537" 
d="M530 1l-1 1c25 -44 29 -40 64 -66v-3c-33 7 -60 16 -100 16c-69 0 -142 -31 -142 -31c-3 0 -5 3 -5 5c0 3 2 6 5 8c14 8 21 22 32 32c29 27 32 57 32 89c0 48 -19 190 -45 190c-12 0 -61 -5 -138 -44c-9 -5 -67 -22 -67 -128c0 -17 3 -35 13 -53c-21 10 -40 14 -58 14
c-32 0 -73 -13 -101 -34c37 85 160 441 160 538c0 26 -4 29 -4 47c0 24 2 30 9 30c2 0 4 0 7 -1c32 -14 78 -21 113 -21h10c16 0 22 -5 37 -5c27 0 99 26 112 26c6 0 8 -3 8 -10c0 0 -11 -69 -11 -150c0 -165 51 -417 70 -450zM240 278h-1c62 11 120 44 120 61
c0 3 -30 179 -47 228c-80 -118 -106 -243 -106 -283c0 -8 4 -12 11 -12s12 4 23 6z" />
    <glyph glyph-name="A" unicode="&#xc4;" horiz-adv-x="537" 
d="M530 1l-1 1c25 -44 29 -40 64 -66v-3c-33 7 -60 16 -100 16c-69 0 -142 -31 -142 -31c-3 0 -5 3 -5 5c0 3 2 6 5 8c14 8 21 22 32 32c29 27 32 57 32 89c0 48 -19 190 -45 190c-12 0 -61 -5 -138 -44c-9 -5 -67 -22 -67 -128c0 -17 3 -35 13 -53c-21 10 -40 14 -58 14
c-32 0 -73 -13 -101 -34c37 85 160 441 160 538c0 26 -4 29 -4 47c0 24 2 30 9 30c2 0 4 0 7 -1c32 -14 78 -21 113 -21h10c16 0 22 -5 37 -5c27 0 99 26 112 26c6 0 8 -3 8 -10c0 0 -11 -69 -11 -150c0 -165 51 -417 70 -450zM240 278h-1c62 11 120 44 120 61
c0 3 -30 179 -47 228c-80 -118 -106 -243 -106 -283c0 -8 4 -12 11 -12s12 4 23 6z" />
    <glyph glyph-name="A" unicode="&#xc3;" horiz-adv-x="537" 
d="M530 1l-1 1c25 -44 29 -40 64 -66v-3c-33 7 -60 16 -100 16c-69 0 -142 -31 -142 -31c-3 0 -5 3 -5 5c0 3 2 6 5 8c14 8 21 22 32 32c29 27 32 57 32 89c0 48 -19 190 -45 190c-12 0 -61 -5 -138 -44c-9 -5 -67 -22 -67 -128c0 -17 3 -35 13 -53c-21 10 -40 14 -58 14
c-32 0 -73 -13 -101 -34c37 85 160 441 160 538c0 26 -4 29 -4 47c0 24 2 30 9 30c2 0 4 0 7 -1c32 -14 78 -21 113 -21h10c16 0 22 -5 37 -5c27 0 99 26 112 26c6 0 8 -3 8 -10c0 0 -11 -69 -11 -150c0 -165 51 -417 70 -450zM240 278h-1c62 11 120 44 120 61
c0 3 -30 179 -47 228c-80 -118 -106 -243 -106 -283c0 -8 4 -12 11 -12s12 4 23 6z" />
    <glyph glyph-name="A" unicode="&#xc2;" horiz-adv-x="537" 
d="M530 1l-1 1c25 -44 29 -40 64 -66v-3c-33 7 -60 16 -100 16c-69 0 -142 -31 -142 -31c-3 0 -5 3 -5 5c0 3 2 6 5 8c14 8 21 22 32 32c29 27 32 57 32 89c0 48 -19 190 -45 190c-12 0 -61 -5 -138 -44c-9 -5 -67 -22 -67 -128c0 -17 3 -35 13 -53c-21 10 -40 14 -58 14
c-32 0 -73 -13 -101 -34c37 85 160 441 160 538c0 26 -4 29 -4 47c0 24 2 30 9 30c2 0 4 0 7 -1c32 -14 78 -21 113 -21h10c16 0 22 -5 37 -5c27 0 99 26 112 26c6 0 8 -3 8 -10c0 0 -11 -69 -11 -150c0 -165 51 -417 70 -450zM240 278h-1c62 11 120 44 120 61
c0 3 -30 179 -47 228c-80 -118 -106 -243 -106 -283c0 -8 4 -12 11 -12s12 4 23 6z" />
    <glyph glyph-name="A" unicode="&#xc1;" horiz-adv-x="537" 
d="M530 1l-1 1c25 -44 29 -40 64 -66v-3c-33 7 -60 16 -100 16c-69 0 -142 -31 -142 -31c-3 0 -5 3 -5 5c0 3 2 6 5 8c14 8 21 22 32 32c29 27 32 57 32 89c0 48 -19 190 -45 190c-12 0 -61 -5 -138 -44c-9 -5 -67 -22 -67 -128c0 -17 3 -35 13 -53c-21 10 -40 14 -58 14
c-32 0 -73 -13 -101 -34c37 85 160 441 160 538c0 26 -4 29 -4 47c0 24 2 30 9 30c2 0 4 0 7 -1c32 -14 78 -21 113 -21h10c16 0 22 -5 37 -5c27 0 99 26 112 26c6 0 8 -3 8 -10c0 0 -11 -69 -11 -150c0 -165 51 -417 70 -450zM240 278h-1c62 11 120 44 120 61
c0 3 -30 179 -47 228c-80 -118 -106 -243 -106 -283c0 -8 4 -12 11 -12s12 4 23 6z" />
    <glyph glyph-name="A" unicode="&#xc0;" horiz-adv-x="537" 
d="M530 1l-1 1c25 -44 29 -40 64 -66v-3c-33 7 -60 16 -100 16c-69 0 -142 -31 -142 -31c-3 0 -5 3 -5 5c0 3 2 6 5 8c14 8 21 22 32 32c29 27 32 57 32 89c0 48 -19 190 -45 190c-12 0 -61 -5 -138 -44c-9 -5 -67 -22 -67 -128c0 -17 3 -35 13 -53c-21 10 -40 14 -58 14
c-32 0 -73 -13 -101 -34c37 85 160 441 160 538c0 26 -4 29 -4 47c0 24 2 30 9 30c2 0 4 0 7 -1c32 -14 78 -21 113 -21h10c16 0 22 -5 37 -5c27 0 99 26 112 26c6 0 8 -3 8 -10c0 0 -11 -69 -11 -150c0 -165 51 -417 70 -450zM240 278h-1c62 11 120 44 120 61
c0 3 -30 179 -47 228c-80 -118 -106 -243 -106 -283c0 -8 4 -12 11 -12s12 4 23 6z" />
    <glyph glyph-name="B" unicode="B" horiz-adv-x="552" 
d="M423 310l5 -2c60 -37 109 -88 109 -160c0 -102 -112 -146 -211 -146c-22 0 -44 2 -64 6c-27 5 -61 31 -61 31c-2 0 -4 -1 -4 -3s1 -4 2 -6c2 -6 9 -13 9 -19c0 -3 -3 -6 -7 -6c-5 0 -11 5 -16 6c-14 3 -28 4 -41 4c-30 0 -54 -6 -59 -6c-6 0 -12 -7 -17 -7
c-4 0 -7 5 -7 10c0 3 16 58 16 66c0 7 -5 9 -12 9c-10 0 -19 4 -31 4h-3c17 14 23 30 23 47c0 13 -4 27 -9 42c19 -5 31 -9 38 -9c6 0 9 3 10 11c10 80 12 189 12 192c0 18 -2 36 -3 54c0 6 -2 9 -5 9c-1 0 -2 0 -3 -1c-7 -3 -16 -2 -21 -9c-1 -1 -2 -2 -4 -2
c-1 0 -2 0 -3 1c-2 1 -4 2 -4 4v3c4 9 5 18 5 26c0 43 -42 66 -43 74c11 -3 22 -4 33 -4c29 0 35 4 35 12c0 5 -7 36 -14 57c-1 2 -1 4 -1 5c0 3 1 4 3 4c1 0 2 0 3 -1c17 -6 34 -7 52 -7c66 0 84 2 101 6c-5 -8 -7 -11 -7 -19c0 -4 0 -9 1 -16c26 11 51 16 76 16
c64 0 192 -42 192 -159c0 -47 -24 -92 -75 -117zM292 111c57 0 122 23 122 77c0 36 -32 73 -99 73c-43 0 -59 -17 -59 -17c-2 0 -6 4 -6 7c0 4 4 7 6 10c6 13 9 22 9 30c0 9 -4 17 -13 29c-2 2 -3 5 -3 8s3 6 6 6c0 0 26 -7 53 -7c18 0 36 4 53 14c18 11 38 46 38 63
c0 16 -25 66 -96 66c-28 0 -81 -16 -81 -52v-3v-9c0 -38 -16 -150 -16 -223v0c1 -12 2 -20 2 -28c0 -28 38 -44 84 -44z" />
    <glyph glyph-name="C" unicode="C" horiz-adv-x="509" 
d="M359 421l5 -1c-3 1 -4 3 -4 5c0 0 1 6 1 12c0 39 -30 65 -48 65c-30 0 -110 -59 -110 -219c0 -81 32 -143 64 -143c14 0 82 13 96 82c1 6 3 8 6 8s6 -2 9 -4c13 -11 26 -15 40 -15c19 0 55 13 66 28c2 3 4 4 7 4c10 0 9 -11 9 -22c0 -93 -67 -184 -262 -185h-9
c-55 0 -101 28 -137 75c-42 55 -8 121 -65 153c-3 2 -4 4 -4 6c0 4 5 8 7 10c43 49 50 78 88 165c36 83 147 179 246 179c57 0 101 -35 124 -92c10 -24 7 -50 13 -75v-5c0 -5 -4 -7 -9 -7c-3 0 -6 1 -8 3c-9 13 -21 17 -35 17c-22 0 -42 -8 -60 -21c-20 -14 -21 -23 -27 -23
h-3z" />
    <glyph glyph-name="C" unicode="&#xc7;" horiz-adv-x="509" 
d="M359 421l5 -1c-3 1 -4 3 -4 5c0 0 1 6 1 12c0 39 -30 65 -48 65c-30 0 -110 -59 -110 -219c0 -81 32 -143 64 -143c14 0 82 13 96 82c1 6 3 8 6 8s6 -2 9 -4c13 -11 26 -15 40 -15c19 0 55 13 66 28c2 3 4 4 7 4c10 0 9 -11 9 -22c0 -93 -67 -184 -262 -185h-9
c-55 0 -101 28 -137 75c-42 55 -8 121 -65 153c-3 2 -4 4 -4 6c0 4 5 8 7 10c43 49 50 78 88 165c36 83 147 179 246 179c57 0 101 -35 124 -92c10 -24 7 -50 13 -75v-5c0 -5 -4 -7 -9 -7c-3 0 -6 1 -8 3c-9 13 -21 17 -35 17c-22 0 -42 -8 -60 -21c-20 -14 -21 -23 -27 -23
h-3z" />
    <glyph glyph-name="D" unicode="D" horiz-adv-x="506" 
d="M266 561l2 -4c161 -15 252 -124 252 -237s-122 -177 -226 -221c-33 -14 -43 -14 -43 -23c0 -2 0 -4 1 -6c6 -15 1 -33 14 -45v-2s-1 -2 -2 -3c-1 -2 -2 -3 -3 -3s-2 1 -4 2c-20 8 -41 7 -65 7c-37 0 -57 -16 -106 -45c9 43 10 46 10 49c0 4 -2 6 -4 6c0 0 -7 -3 -48 -17
v9c0 14 4 25 4 44c0 21 -5 41 -19 58c-2 3 -6 6 -6 10c0 2 2 5 5 5s6 -4 9 -4c8 -1 16 -1 24 -1c17 0 34 2 51 4c4 1 4 5 4 9c1 10 9 77 9 134v21c0 34 4 68 4 103c0 9 0 18 -1 27c-22 -7 -44 -14 -68 -21c12 26 21 52 21 76c0 28 -11 54 -42 78c13 -4 26 -6 39 -6
c15 0 30 2 45 5c-2 15 -3 31 -8 46c-1 2 -1 4 -1 5c0 3 2 5 5 5c1 0 3 0 5 -1c16 -7 33 -14 51 -14c36 0 58 0 78 12c2 1 4 2 6 2s3 -1 4 -3s3 -4 3 -7c0 -1 0 -2 -1 -3c-6 -9 -14 -40 -14 -43c0 -6 4 -7 15 -8zM245 186v-2c107 46 149 118 149 173c0 74 -56 97 -129 97
c-25 0 -27 0 -27 -21v-15v-84c0 -49 1 -98 7 -148z" />
    <glyph glyph-name="E" unicode="E" horiz-adv-x="520" 
d="M491 64l1 9c0 -10 2 -20 7 -30c1 -2 3 -4 3 -6s-2 -4 -4 -4s-4 2 -6 3c-49 21 -230 42 -243 42h-3c-6 0 -12 0 -18 2h-3c-5 0 -5 -7 -5 -11c0 -8 1 -16 6 -23c1 -2 3 -4 3 -6c0 -3 -5 -7 -8 -7c-1 0 -2 0 -3 1c-3 1 -7 2 -9 4c-10 15 -15 17 -30 17c-29 0 -49 -3 -73 -20
c-6 -4 -12 -8 -18 -8c-5 0 -12 3 -12 11c0 4 2 9 4 13v3c0 2 -1 4 -2 7c-45 -19 -48 -20 -48 -20c-4 0 -8 6 -8 11s7 16 10 19c23 26 28 71 28 78c0 21 -11 31 -15 68c15 -12 31 -20 50 -23c0 3 23 205 23 249c0 4 -1 7 -4 7c-2 0 -5 -1 -9 -3c-9 -4 -19 -6 -28 -11
c-3 -2 -6 -3 -9 -3c-4 0 -7 4 -7 6c0 3 5 4 6 7c4 14 10 27 10 41c0 15 -6 30 -19 40c-3 2 -9 3 -9 7c0 3 3 10 14 11c14 1 27 4 41 5c8 1 12 4 12 12c0 11 -1 27 -5 37c-1 2 -2 4 -2 6c0 4 3 7 5 7c3 0 5 -5 8 -6c16 -8 32 -12 49 -12c5 0 50 3 73 21c2 1 3 2 4 2
c4 0 7 -6 7 -11v-6c0 -14 -4 -17 -4 -24c0 -6 4 -9 11 -9c3 0 130 15 178 26c15 3 25 7 31 7c7 0 13 -4 13 -10c0 -2 0 -4 -1 -6c-10 -22 -12 -45 -12 -69v-21c-15 5 -2 5 -38 5c-57 0 -123 -5 -179 -16c-6 -1 -9 -1 -10 -8c-4 -41 -12 -105 -12 -105c0 -4 2 -5 7 -6
c20 -3 50 -4 70 -4s89 4 98 7h3c3 0 5 -2 5 -6c0 0 -2 -14 -2 -26c0 -21 5 -41 16 -60c1 -2 2 -5 2 -7s-1 -4 -6 -4c0 0 -15 2 -38 2h-15h-19c-38 0 -84 -10 -122 -17c-17 -3 -7 -50 -14 -78v-3c0 -4 3 -6 7 -7c67 -8 123 -31 232 -31c27 0 50 6 50 6c4 0 5 -2 5 -5
c0 -11 -20 -42 -20 -67z" />
    <glyph glyph-name="E" unicode="&#xcb;" horiz-adv-x="520" 
d="M491 64l1 9c0 -10 2 -20 7 -30c1 -2 3 -4 3 -6s-2 -4 -4 -4s-4 2 -6 3c-49 21 -230 42 -243 42h-3c-6 0 -12 0 -18 2h-3c-5 0 -5 -7 -5 -11c0 -8 1 -16 6 -23c1 -2 3 -4 3 -6c0 -3 -5 -7 -8 -7c-1 0 -2 0 -3 1c-3 1 -7 2 -9 4c-10 15 -15 17 -30 17c-29 0 -49 -3 -73 -20
c-6 -4 -12 -8 -18 -8c-5 0 -12 3 -12 11c0 4 2 9 4 13v3c0 2 -1 4 -2 7c-45 -19 -48 -20 -48 -20c-4 0 -8 6 -8 11s7 16 10 19c23 26 28 71 28 78c0 21 -11 31 -15 68c15 -12 31 -20 50 -23c0 3 23 205 23 249c0 4 -1 7 -4 7c-2 0 -5 -1 -9 -3c-9 -4 -19 -6 -28 -11
c-3 -2 -6 -3 -9 -3c-4 0 -7 4 -7 6c0 3 5 4 6 7c4 14 10 27 10 41c0 15 -6 30 -19 40c-3 2 -9 3 -9 7c0 3 3 10 14 11c14 1 27 4 41 5c8 1 12 4 12 12c0 11 -1 27 -5 37c-1 2 -2 4 -2 6c0 4 3 7 5 7c3 0 5 -5 8 -6c16 -8 32 -12 49 -12c5 0 50 3 73 21c2 1 3 2 4 2
c4 0 7 -6 7 -11v-6c0 -14 -4 -17 -4 -24c0 -6 4 -9 11 -9c3 0 130 15 178 26c15 3 25 7 31 7c7 0 13 -4 13 -10c0 -2 0 -4 -1 -6c-10 -22 -12 -45 -12 -69v-21c-15 5 -2 5 -38 5c-57 0 -123 -5 -179 -16c-6 -1 -9 -1 -10 -8c-4 -41 -12 -105 -12 -105c0 -4 2 -5 7 -6
c20 -3 50 -4 70 -4s89 4 98 7h3c3 0 5 -2 5 -6c0 0 -2 -14 -2 -26c0 -21 5 -41 16 -60c1 -2 2 -5 2 -7s-1 -4 -6 -4c0 0 -15 2 -38 2h-15h-19c-38 0 -84 -10 -122 -17c-17 -3 -7 -50 -14 -78v-3c0 -4 3 -6 7 -7c67 -8 123 -31 232 -31c27 0 50 6 50 6c4 0 5 -2 5 -5
c0 -11 -20 -42 -20 -67z" />
    <glyph glyph-name="E" unicode="&#xca;" horiz-adv-x="520" 
d="M491 64l1 9c0 -10 2 -20 7 -30c1 -2 3 -4 3 -6s-2 -4 -4 -4s-4 2 -6 3c-49 21 -230 42 -243 42h-3c-6 0 -12 0 -18 2h-3c-5 0 -5 -7 -5 -11c0 -8 1 -16 6 -23c1 -2 3 -4 3 -6c0 -3 -5 -7 -8 -7c-1 0 -2 0 -3 1c-3 1 -7 2 -9 4c-10 15 -15 17 -30 17c-29 0 -49 -3 -73 -20
c-6 -4 -12 -8 -18 -8c-5 0 -12 3 -12 11c0 4 2 9 4 13v3c0 2 -1 4 -2 7c-45 -19 -48 -20 -48 -20c-4 0 -8 6 -8 11s7 16 10 19c23 26 28 71 28 78c0 21 -11 31 -15 68c15 -12 31 -20 50 -23c0 3 23 205 23 249c0 4 -1 7 -4 7c-2 0 -5 -1 -9 -3c-9 -4 -19 -6 -28 -11
c-3 -2 -6 -3 -9 -3c-4 0 -7 4 -7 6c0 3 5 4 6 7c4 14 10 27 10 41c0 15 -6 30 -19 40c-3 2 -9 3 -9 7c0 3 3 10 14 11c14 1 27 4 41 5c8 1 12 4 12 12c0 11 -1 27 -5 37c-1 2 -2 4 -2 6c0 4 3 7 5 7c3 0 5 -5 8 -6c16 -8 32 -12 49 -12c5 0 50 3 73 21c2 1 3 2 4 2
c4 0 7 -6 7 -11v-6c0 -14 -4 -17 -4 -24c0 -6 4 -9 11 -9c3 0 130 15 178 26c15 3 25 7 31 7c7 0 13 -4 13 -10c0 -2 0 -4 -1 -6c-10 -22 -12 -45 -12 -69v-21c-15 5 -2 5 -38 5c-57 0 -123 -5 -179 -16c-6 -1 -9 -1 -10 -8c-4 -41 -12 -105 -12 -105c0 -4 2 -5 7 -6
c20 -3 50 -4 70 -4s89 4 98 7h3c3 0 5 -2 5 -6c0 0 -2 -14 -2 -26c0 -21 5 -41 16 -60c1 -2 2 -5 2 -7s-1 -4 -6 -4c0 0 -15 2 -38 2h-15h-19c-38 0 -84 -10 -122 -17c-17 -3 -7 -50 -14 -78v-3c0 -4 3 -6 7 -7c67 -8 123 -31 232 -31c27 0 50 6 50 6c4 0 5 -2 5 -5
c0 -11 -20 -42 -20 -67z" />
    <glyph glyph-name="E" unicode="&#xc9;" horiz-adv-x="520" 
d="M491 64l1 9c0 -10 2 -20 7 -30c1 -2 3 -4 3 -6s-2 -4 -4 -4s-4 2 -6 3c-49 21 -230 42 -243 42h-3c-6 0 -12 0 -18 2h-3c-5 0 -5 -7 -5 -11c0 -8 1 -16 6 -23c1 -2 3 -4 3 -6c0 -3 -5 -7 -8 -7c-1 0 -2 0 -3 1c-3 1 -7 2 -9 4c-10 15 -15 17 -30 17c-29 0 -49 -3 -73 -20
c-6 -4 -12 -8 -18 -8c-5 0 -12 3 -12 11c0 4 2 9 4 13v3c0 2 -1 4 -2 7c-45 -19 -48 -20 -48 -20c-4 0 -8 6 -8 11s7 16 10 19c23 26 28 71 28 78c0 21 -11 31 -15 68c15 -12 31 -20 50 -23c0 3 23 205 23 249c0 4 -1 7 -4 7c-2 0 -5 -1 -9 -3c-9 -4 -19 -6 -28 -11
c-3 -2 -6 -3 -9 -3c-4 0 -7 4 -7 6c0 3 5 4 6 7c4 14 10 27 10 41c0 15 -6 30 -19 40c-3 2 -9 3 -9 7c0 3 3 10 14 11c14 1 27 4 41 5c8 1 12 4 12 12c0 11 -1 27 -5 37c-1 2 -2 4 -2 6c0 4 3 7 5 7c3 0 5 -5 8 -6c16 -8 32 -12 49 -12c5 0 50 3 73 21c2 1 3 2 4 2
c4 0 7 -6 7 -11v-6c0 -14 -4 -17 -4 -24c0 -6 4 -9 11 -9c3 0 130 15 178 26c15 3 25 7 31 7c7 0 13 -4 13 -10c0 -2 0 -4 -1 -6c-10 -22 -12 -45 -12 -69v-21c-15 5 -2 5 -38 5c-57 0 -123 -5 -179 -16c-6 -1 -9 -1 -10 -8c-4 -41 -12 -105 -12 -105c0 -4 2 -5 7 -6
c20 -3 50 -4 70 -4s89 4 98 7h3c3 0 5 -2 5 -6c0 0 -2 -14 -2 -26c0 -21 5 -41 16 -60c1 -2 2 -5 2 -7s-1 -4 -6 -4c0 0 -15 2 -38 2h-15h-19c-38 0 -84 -10 -122 -17c-17 -3 -7 -50 -14 -78v-3c0 -4 3 -6 7 -7c67 -8 123 -31 232 -31c27 0 50 6 50 6c4 0 5 -2 5 -5
c0 -11 -20 -42 -20 -67z" />
    <glyph glyph-name="E" unicode="&#xc8;" horiz-adv-x="520" 
d="M491 64l1 9c0 -10 2 -20 7 -30c1 -2 3 -4 3 -6s-2 -4 -4 -4s-4 2 -6 3c-49 21 -230 42 -243 42h-3c-6 0 -12 0 -18 2h-3c-5 0 -5 -7 -5 -11c0 -8 1 -16 6 -23c1 -2 3 -4 3 -6c0 -3 -5 -7 -8 -7c-1 0 -2 0 -3 1c-3 1 -7 2 -9 4c-10 15 -15 17 -30 17c-29 0 -49 -3 -73 -20
c-6 -4 -12 -8 -18 -8c-5 0 -12 3 -12 11c0 4 2 9 4 13v3c0 2 -1 4 -2 7c-45 -19 -48 -20 -48 -20c-4 0 -8 6 -8 11s7 16 10 19c23 26 28 71 28 78c0 21 -11 31 -15 68c15 -12 31 -20 50 -23c0 3 23 205 23 249c0 4 -1 7 -4 7c-2 0 -5 -1 -9 -3c-9 -4 -19 -6 -28 -11
c-3 -2 -6 -3 -9 -3c-4 0 -7 4 -7 6c0 3 5 4 6 7c4 14 10 27 10 41c0 15 -6 30 -19 40c-3 2 -9 3 -9 7c0 3 3 10 14 11c14 1 27 4 41 5c8 1 12 4 12 12c0 11 -1 27 -5 37c-1 2 -2 4 -2 6c0 4 3 7 5 7c3 0 5 -5 8 -6c16 -8 32 -12 49 -12c5 0 50 3 73 21c2 1 3 2 4 2
c4 0 7 -6 7 -11v-6c0 -14 -4 -17 -4 -24c0 -6 4 -9 11 -9c3 0 130 15 178 26c15 3 25 7 31 7c7 0 13 -4 13 -10c0 -2 0 -4 -1 -6c-10 -22 -12 -45 -12 -69v-21c-15 5 -2 5 -38 5c-57 0 -123 -5 -179 -16c-6 -1 -9 -1 -10 -8c-4 -41 -12 -105 -12 -105c0 -4 2 -5 7 -6
c20 -3 50 -4 70 -4s89 4 98 7h3c3 0 5 -2 5 -6c0 0 -2 -14 -2 -26c0 -21 5 -41 16 -60c1 -2 2 -5 2 -7s-1 -4 -6 -4c0 0 -15 2 -38 2h-15h-19c-38 0 -84 -10 -122 -17c-17 -3 -7 -50 -14 -78v-3c0 -4 3 -6 7 -7c67 -8 123 -31 232 -31c27 0 50 6 50 6c4 0 5 -2 5 -5
c0 -11 -20 -42 -20 -67z" />
    <glyph glyph-name="F" unicode="F" horiz-adv-x="386" 
d="M514 507l-1 2c4 -3 6 -6 6 -9c0 -11 -25 -10 -36 -10h-48c-21 0 -42 -1 -63 -4c-133 -19 -151 -19 -151 -28c-1 -34 -7 -71 -7 -71c0 -6 4 -7 9 -7c36 0 107 4 143 17c3 1 5 2 7 2c4 0 5 -2 5 -6c0 -3 -2 -36 -4 -48c-1 -6 -2 -12 -2 -18c0 -14 3 -27 9 -40
c2 -4 3 -8 3 -12c0 -5 -2 -10 -7 -10c0 0 -24 5 -63 5c-30 0 -72 -4 -102 -12c-6 -2 -7 -6 -8 -12c-4 -16 -10 -146 -10 -159c0 -37 4 -43 4 -62v-3c0 -9 12 -12 14 -21c0 -2 1 -4 1 -6s-2 -4 -4 -4s-4 1 -6 2c-22 10 -32 14 -55 14c-33 0 -68 -9 -82 -15c-2 -1 -4 -2 -6 -2
c-3 0 -7 4 -7 9c0 2 1 4 2 6c1 3 21 13 21 70v15c0 33 11 169 11 239c0 32 -1 64 -1 96c-14 -2 -30 -6 -44 -15c-4 -2 -7 -4 -10 -4s-8 2 -8 7c0 3 2 7 3 9c8 15 9 35 9 61c0 18 -9 34 -15 50c-1 2 -1 4 -1 5c0 4 2 5 4 5h8c13 0 26 5 40 5h3c9 0 14 4 14 12
c0 1 -7 32 -7 44c0 9 5 11 11 11c3 0 6 -1 9 -2c11 -2 22 -3 33 -3c27 0 85 9 88 9c10 0 15 -4 15 -13c0 -7 -3 -15 -3 -21c0 -4 2 -6 6 -6c13 0 226 43 236 43c8 0 9 -4 9 -18c1 -28 6 -80 28 -97z" />
    <glyph glyph-name="G" unicode="G" horiz-adv-x="595" 
d="M574 286h1s-14 -87 -14 -162c0 -116 13 -138 13 -138c0 -2 -1 -3 -5 -4c-3 -1 -6 -3 -9 -3c-2 0 -4 1 -7 4c-15 14 -31 19 -47 19c-15 0 -41 -6 -52 -16c-3 -2 -5 -6 -8 -6s-7 4 -7 8c0 3 1 6 2 9c14 28 26 57 35 90c-58 -42 -119 -69 -193 -69c-60 0 -115 21 -162 69
c-76 77 -39 146 -95 204c-3 4 -5 9 -5 14c0 4 2 8 6 10c80 52 39 138 194 271c26 22 82 27 115 27c69 0 115 -11 203 -91c13 -12 20 -10 20 -18c0 -5 -4 -10 -11 -10v0c-34 0 -86 -33 -92 -67c-1 -4 -2 -8 -6 -8c-3 0 -5 3 -6 6c-12 38 -29 59 -67 59
c-98 0 -202 -93 -202 -208c0 -80 54 -150 149 -150c89 0 146 59 146 83c0 4 -1 8 -3 12c-6 10 -17 11 -27 12h-9c-28 0 -38 -17 -51 -17c-7 0 -11 5 -11 8c0 0 36 41 36 80c0 11 -1 17 -4 23c32 -12 77 -32 103 -32c20 0 42 9 52 9c12 0 18 -6 18 -18z" />
    <glyph glyph-name="H" unicode="H" horiz-adv-x="609" 
d="M652 329v6c1 -2 2 -4 2 -7c0 -6 -3 -12 -9 -12c-2 0 -4 1 -7 1c-4 1 -8 1 -12 1c-13 0 -26 -3 -40 -3h-1c-14 0 -27 -5 -41 -6c-9 -1 -11 -5 -11 -13c-1 -39 -3 -78 -3 -117c0 -124 10 -150 20 -210c-21 35 -62 50 -102 50c-27 0 -54 -7 -74 -19c-2 -1 -3 -1 -4 -1
s-2 1 -3 3s-2 3 -2 5c0 1 0 2 1 3c14 19 39 256 39 267c0 4 -1 6 -5 6c-14 0 -130 -37 -141 -40c-7 -2 -10 -6 -10 -12c0 -2 14 -182 14 -184c0 -16 -2 -32 -4 -48c0 -4 -1 -6 -3 -6c-1 0 -3 1 -5 2c-24 17 -48 24 -72 24c-25 0 -51 -8 -77 -22c-4 -2 -8 -6 -12 -6
c-3 0 -6 2 -6 4c0 3 5 7 6 11c10 50 19 170 19 173s-1 5 -4 5c-5 0 -36 -15 -46 -21c-3 -2 -5 -7 -8 -7s-10 7 -10 13c0 2 1 5 3 8c15 21 23 55 23 73c0 23 -10 47 -39 58c-5 2 -7 5 -7 10c0 6 3 9 10 9c26 0 50 10 75 13c6 1 9 4 9 10c0 0 -1 12 -1 32v33c0 17 0 34 -2 51
c-10 119 -4 127 -18 138c-2 1 -3 3 -3 5s1 4 2 6c1 3 3 4 5 4c0 0 19 -4 38 -4c26 0 85 8 119 21c3 1 6 2 8 2c6 0 10 -4 10 -12c0 -6 -23 -204 -23 -252c0 -6 3 -8 8 -8h3c161 26 146 12 148 34c1 14 2 28 2 42c0 48 -10 119 -10 119c0 3 1 6 4 8c1 1 2 1 3 1
c4 0 7 -5 10 -8c16 -14 34 -20 53 -20c28 0 57 14 73 14c6 0 11 -3 11 -11c0 0 -14 -111 -14 -133c0 -11 5 -13 21 -13c22 0 45 1 66 6h5c5 0 8 -3 8 -8c0 -1 0 -3 -1 -5c-2 -8 -3 -16 -3 -24c0 -14 4 -27 15 -39z" />
    <glyph glyph-name="I" unicode="I" horiz-adv-x="237" 
d="M182 193l1 3c0 -54 16 -105 38 -154c5 -11 14 -20 22 -32c-35 11 -69 16 -103 16c-40 0 -80 -7 -120 -20c3 6 4 11 5 11c20 2 22 20 26 33c15 48 23 97 23 147c0 59 -6 84 -22 102c-2 2 -3 4 -3 5c0 2 2 4 3 6c27 51 30 102 30 153c0 43 -2 87 -30 124
c-6 8 -17 13 -17 26v3c37 -14 74 -19 111 -19c49 0 98 9 149 20c-41 -51 -96 -177 -96 -252c0 -16 4 -32 10 -47c1 -3 1 -5 1 -7c0 -4 -1 -7 -3 -10c-19 -30 -25 -72 -25 -108z" />
    <glyph glyph-name="I" unicode="&#xcf;" horiz-adv-x="237" 
d="M182 193l1 3c0 -54 16 -105 38 -154c5 -11 14 -20 22 -32c-35 11 -69 16 -103 16c-40 0 -80 -7 -120 -20c3 6 4 11 5 11c20 2 22 20 26 33c15 48 23 97 23 147c0 59 -6 84 -22 102c-2 2 -3 4 -3 5c0 2 2 4 3 6c27 51 30 102 30 153c0 43 -2 87 -30 124
c-6 8 -17 13 -17 26v3c37 -14 74 -19 111 -19c49 0 98 9 149 20c-41 -51 -96 -177 -96 -252c0 -16 4 -32 10 -47c1 -3 1 -5 1 -7c0 -4 -1 -7 -3 -10c-19 -30 -25 -72 -25 -108z" />
    <glyph glyph-name="I" unicode="&#xce;" horiz-adv-x="237" 
d="M182 193l1 3c0 -54 16 -105 38 -154c5 -11 14 -20 22 -32c-35 11 -69 16 -103 16c-40 0 -80 -7 -120 -20c3 6 4 11 5 11c20 2 22 20 26 33c15 48 23 97 23 147c0 59 -6 84 -22 102c-2 2 -3 4 -3 5c0 2 2 4 3 6c27 51 30 102 30 153c0 43 -2 87 -30 124
c-6 8 -17 13 -17 26v3c37 -14 74 -19 111 -19c49 0 98 9 149 20c-41 -51 -96 -177 -96 -252c0 -16 4 -32 10 -47c1 -3 1 -5 1 -7c0 -4 -1 -7 -3 -10c-19 -30 -25 -72 -25 -108z" />
    <glyph glyph-name="I" unicode="&#xcd;" horiz-adv-x="237" 
d="M182 193l1 3c0 -54 16 -105 38 -154c5 -11 14 -20 22 -32c-35 11 -69 16 -103 16c-40 0 -80 -7 -120 -20c3 6 4 11 5 11c20 2 22 20 26 33c15 48 23 97 23 147c0 59 -6 84 -22 102c-2 2 -3 4 -3 5c0 2 2 4 3 6c27 51 30 102 30 153c0 43 -2 87 -30 124
c-6 8 -17 13 -17 26v3c37 -14 74 -19 111 -19c49 0 98 9 149 20c-41 -51 -96 -177 -96 -252c0 -16 4 -32 10 -47c1 -3 1 -5 1 -7c0 -4 -1 -7 -3 -10c-19 -30 -25 -72 -25 -108z" />
    <glyph glyph-name="I" unicode="&#xcc;" horiz-adv-x="237" 
d="M182 193l1 3c0 -54 16 -105 38 -154c5 -11 14 -20 22 -32c-35 11 -69 16 -103 16c-40 0 -80 -7 -120 -20c3 6 4 11 5 11c20 2 22 20 26 33c15 48 23 97 23 147c0 59 -6 84 -22 102c-2 2 -3 4 -3 5c0 2 2 4 3 6c27 51 30 102 30 153c0 43 -2 87 -30 124
c-6 8 -17 13 -17 26v3c37 -14 74 -19 111 -19c49 0 98 9 149 20c-41 -51 -96 -177 -96 -252c0 -16 4 -32 10 -47c1 -3 1 -5 1 -7c0 -4 -1 -7 -3 -10c-19 -30 -25 -72 -25 -108z" />
    <glyph glyph-name="J" unicode="J" horiz-adv-x="491" 
d="M493 610l-2 -1s-35 -146 -35 -243c0 -83 21 -104 21 -139c0 -102 -115 -218 -260 -218c-62 0 -148 30 -179 91c-4 8 -4 20 -17 22c-2 0 -3 1 -3 2c0 2 1 4 3 6c21 25 29 67 29 98v24v7c0 6 -1 11 -6 16c3 1 6 1 9 1c12 0 21 -7 31 -9c13 -3 26 -4 38 -4c20 0 39 4 58 12
c3 1 6 2 9 2c7 0 12 -5 12 -9s-4 -8 -5 -12c-10 -26 -27 -46 -27 -72c0 -34 31 -69 57 -69c24 0 80 28 80 79c0 27 -15 62 -15 74c0 3 1 5 3 7c36 49 45 95 45 134c0 34 -7 63 -8 85c-1 28 0 87 -17 103c-4 3 -6 7 -6 11c0 5 4 10 8 10s8 -4 12 -7c13 -8 34 -10 49 -10
c28 0 54 9 79 20c5 2 10 5 16 5c2 0 4 0 7 -1c9 -4 14 -7 14 -15z" />
    <glyph glyph-name="K" unicode="K" horiz-adv-x="490" 
d="M518 42l-6 1c2 -2 6 -2 6 -6v0c-1 -3 -3 -4 -5 -4h-3h-9c-37 0 -55 22 -92 22c-13 0 -26 -3 -39 -12c-3 -2 -6 -4 -9 -4s-6 2 -6 6s3 8 3 16c0 18 -28 78 -88 98c-6 2 -7 5 -8 10c-14 58 -54 99 -61 99c-6 0 -29 -24 -29 -50c0 -17 5 -15 5 -47v-15c0 -24 5 -49 5 -76
v-11c0 -15 7 -28 13 -42c-4 -1 -8 -2 -12 -2c-19 0 -28 16 -62 16c-27 0 -73 -17 -88 -24c-2 -1 -4 -1 -6 -1c-4 0 -11 3 -11 7c0 0 59 198 59 551c0 18 -4 34 -18 47c-2 2 -6 4 -6 7s3 6 7 6c2 0 4 -1 6 -2c16 -9 49 -15 67 -15c36 0 49 13 63 13c8 0 12 -4 12 -12
c0 0 -32 -130 -32 -202c0 -3 0 -6 1 -9c35 36 66 74 95 113c69 93 66 94 72 94c3 0 5 -2 7 -5c26 -34 80 -49 106 -49c7 0 14 2 21 2c4 0 8 -1 12 -3s10 -2 10 -8c0 -4 -4 -5 -7 -7c-76 -39 -216 -168 -216 -207c0 -19 60 -78 76 -91c2 -2 4 -4 5 -6
c18 -62 107 -159 162 -198z" />
    <glyph glyph-name="L" unicode="L" horiz-adv-x="545" 
d="M537 215l3 3c5 0 8 -4 8 -7s-3 -5 -5 -7c-21 -22 -51 -44 -51 -94c0 -11 2 -23 5 -35c-21 5 -42 7 -62 7c-31 0 -62 -6 -93 -17c-28 -9 -19 -17 -31 -17c0 0 -38 7 -80 7c-52 0 -153 -16 -165 -31c-2 -2 -5 -3 -7 -3c-3 0 -7 1 -7 4c0 0 7 21 7 75c0 64 -17 137 -37 187
c-1 2 -1 4 -1 6c0 0 37 74 37 258c0 27 -3 47 -8 78h3c20 0 38 -7 58 -7c25 0 48 9 72 17c4 1 7 2 10 2c6 0 12 -4 12 -10c0 0 -31 -106 -31 -238c0 -53 5 -98 5 -98c0 -3 -1 -5 -2 -7c-15 -27 -19 -57 -21 -87c0 -6 -4 -13 -4 -19c0 -13 21 -15 32 -16c22 -2 44 -7 66 -7
c28 0 58 11 64 17c5 5 10 7 15 7c13 0 15 -12 41 -12c47 0 100 12 151 38c4 2 10 6 16 6z" />
    <glyph glyph-name="M" unicode="M" horiz-adv-x="832" 
d="M653 646l2 -5c66 -354 169 -632 169 -632c0 -3 -1 -7 -4 -7c-1 0 -3 1 -5 3c-19 17 -39 23 -60 23c-26 0 -77 -16 -83 -20c-2 -1 -4 -2 -6 -2c-5 0 -8 4 -9 10c-4 32 -15 237 -56 406c-26 -77 -49 -155 -57 -236c-20 7 -40 11 -60 11c-32 0 -63 -9 -93 -29
c-2 -2 -4 -4 -7 -4s-8 5 -8 10c0 2 1 4 2 6c3 5 4 10 4 15c0 3 -17 134 -36 219c-40 -26 -195 -371 -195 -428c0 -3 0 -6 1 -9v-5c0 -4 -2 -6 -6 -6c-5 0 -10 3 -11 8c-5 34 -31 36 -57 39c-9 1 -18 3 -27 3c-6 0 -12 -1 -18 -3h-3c-4 0 -8 4 -8 6c0 10 64 105 75 124
c70 119 201 401 201 426c0 12 -7 23 -11 34c-1 3 -4 6 -4 9s3 7 8 7c2 0 5 -1 7 -2c9 -3 18 -4 27 -4c33 0 61 18 89 34c5 3 8 4 10 4c7 0 7 -28 7 -35v-9c0 -93 26 -237 33 -242c16 32 73 203 73 243c0 6 -1 12 -3 18c-1 3 -1 5 -1 7c0 7 4 10 11 10c3 0 6 0 9 -1
c17 -5 34 -11 60 -11c14 0 28 3 40 15z" />
    <glyph glyph-name="N" unicode="N" horiz-adv-x="470" 
d="M470 -86l-3 1c1 -2 2 -4 2 -6c0 -3 -2 -6 -5 -6c-2 0 -4 2 -6 2c-19 3 -38 32 -84 32c-16 0 -32 -4 -48 -12c-2 -1 -4 -1 -6 -1c-13 0 -11 19 -11 33c0 17 1 20 1 35c0 64 -25 200 -73 260c-27 35 -30 18 -34 45c-5 32 -24 82 -53 95v-21c0 -33 -4 -65 -4 -97
c0 -14 1 -28 3 -42c3 -17 2 -35 3 -53c4 -59 19 -155 19 -155c0 -2 -2 -3 -4 -3s-4 1 -5 2c-21 21 -49 25 -79 25c-19 0 -37 -5 -53 -16c-2 -1 -4 -1 -6 -1s-4 1 -6 2c-1 1 -1 2 -1 3c0 0 16 116 16 274c0 45 -3 192 -4 217c-1 22 -9 63 -9 63c0 5 3 9 3 14v3v0c0 2 2 3 4 3
s4 -1 6 -2c16 -10 33 -14 50 -14c15 0 31 4 47 10c22 8 45 2 67 8h3c8 0 12 -9 19 -11c5 -1 6 -5 6 -9c0 -3 -1 -6 -1 -9c0 -43 42 -186 80 -230c7 29 10 58 10 87c0 57 -11 113 -26 168c1 1 3 2 5 2c1 0 2 0 3 -1c7 -8 15 -10 24 -10c3 0 63 2 105 21c4 2 7 3 9 3
c3 0 4 -1 4 -5c0 -1 -23 -102 -23 -130v-1c0 -20 -1 -40 -1 -60c0 -28 1 -56 7 -83c3 -14 1 -30 13 -43c1 -1 1 -3 1 -6c0 -5 -1 -11 -2 -15c-10 -28 -13 -57 -13 -86c0 -105 35 -248 50 -280z" />
    <glyph glyph-name="N" unicode="&#xd1;" horiz-adv-x="470" 
d="M470 -86l-3 1c1 -2 2 -4 2 -6c0 -3 -2 -6 -5 -6c-2 0 -4 2 -6 2c-19 3 -38 32 -84 32c-16 0 -32 -4 -48 -12c-2 -1 -4 -1 -6 -1c-13 0 -11 19 -11 33c0 17 1 20 1 35c0 64 -25 200 -73 260c-27 35 -30 18 -34 45c-5 32 -24 82 -53 95v-21c0 -33 -4 -65 -4 -97
c0 -14 1 -28 3 -42c3 -17 2 -35 3 -53c4 -59 19 -155 19 -155c0 -2 -2 -3 -4 -3s-4 1 -5 2c-21 21 -49 25 -79 25c-19 0 -37 -5 -53 -16c-2 -1 -4 -1 -6 -1s-4 1 -6 2c-1 1 -1 2 -1 3c0 0 16 116 16 274c0 45 -3 192 -4 217c-1 22 -9 63 -9 63c0 5 3 9 3 14v3v0c0 2 2 3 4 3
s4 -1 6 -2c16 -10 33 -14 50 -14c15 0 31 4 47 10c22 8 45 2 67 8h3c8 0 12 -9 19 -11c5 -1 6 -5 6 -9c0 -3 -1 -6 -1 -9c0 -43 42 -186 80 -230c7 29 10 58 10 87c0 57 -11 113 -26 168c1 1 3 2 5 2c1 0 2 0 3 -1c7 -8 15 -10 24 -10c3 0 63 2 105 21c4 2 7 3 9 3
c3 0 4 -1 4 -5c0 -1 -23 -102 -23 -130v-1c0 -20 -1 -40 -1 -60c0 -28 1 -56 7 -83c3 -14 1 -30 13 -43c1 -1 1 -3 1 -6c0 -5 -1 -11 -2 -15c-10 -28 -13 -57 -13 -86c0 -105 35 -248 50 -280z" />
    <glyph glyph-name="O" unicode="O" horiz-adv-x="559" 
d="M579 311l-2 -4c2 -4 3 -7 3 -10c0 -13 -23 -19 -40 -40c-6 -7 -86 -239 -279 -239c-62 0 -123 28 -161 77c-63 82 -35 136 -75 181c-5 5 -7 9 -7 14s3 10 8 16c16 18 28 39 35 63c39 140 149 264 291 264c126 0 208 -119 208 -232v-12c-1 -4 -1 -8 -1 -12
c0 -22 8 -45 20 -66zM383 257l-2 -2c0 15 -7 20 -7 30c0 19 47 46 47 97c0 4 0 8 -1 12c-5 62 -27 113 -89 113c-69 0 -146 -94 -146 -156c0 -19 5 -39 14 -59c2 -4 3 -8 3 -11c0 -5 -3 -9 -9 -14c-16 -12 -23 -29 -23 -47c0 -40 36 -75 80 -75c66 0 133 79 133 112z" />
    <glyph glyph-name="O" unicode="&#xd8;" horiz-adv-x="559" 
d="M579 311l-2 -4c2 -4 3 -7 3 -10c0 -13 -23 -19 -40 -40c-6 -7 -86 -239 -279 -239c-62 0 -123 28 -161 77c-63 82 -35 136 -75 181c-5 5 -7 9 -7 14s3 10 8 16c16 18 28 39 35 63c39 140 149 264 291 264c126 0 208 -119 208 -232v-12c-1 -4 -1 -8 -1 -12
c0 -22 8 -45 20 -66zM383 257l-2 -2c0 15 -7 20 -7 30c0 19 47 46 47 97c0 4 0 8 -1 12c-5 62 -27 113 -89 113c-69 0 -146 -94 -146 -156c0 -19 5 -39 14 -59c2 -4 3 -8 3 -11c0 -5 -3 -9 -9 -14c-16 -12 -23 -29 -23 -47c0 -40 36 -75 80 -75c66 0 133 79 133 112z" />
    <glyph glyph-name="O" unicode="&#xd6;" horiz-adv-x="559" 
d="M579 311l-2 -4c2 -4 3 -7 3 -10c0 -13 -23 -19 -40 -40c-6 -7 -86 -239 -279 -239c-62 0 -123 28 -161 77c-63 82 -35 136 -75 181c-5 5 -7 9 -7 14s3 10 8 16c16 18 28 39 35 63c39 140 149 264 291 264c126 0 208 -119 208 -232v-12c-1 -4 -1 -8 -1 -12
c0 -22 8 -45 20 -66zM383 257l-2 -2c0 15 -7 20 -7 30c0 19 47 46 47 97c0 4 0 8 -1 12c-5 62 -27 113 -89 113c-69 0 -146 -94 -146 -156c0 -19 5 -39 14 -59c2 -4 3 -8 3 -11c0 -5 -3 -9 -9 -14c-16 -12 -23 -29 -23 -47c0 -40 36 -75 80 -75c66 0 133 79 133 112z" />
    <glyph glyph-name="O" unicode="&#xd5;" horiz-adv-x="559" 
d="M579 311l-2 -4c2 -4 3 -7 3 -10c0 -13 -23 -19 -40 -40c-6 -7 -86 -239 -279 -239c-62 0 -123 28 -161 77c-63 82 -35 136 -75 181c-5 5 -7 9 -7 14s3 10 8 16c16 18 28 39 35 63c39 140 149 264 291 264c126 0 208 -119 208 -232v-12c-1 -4 -1 -8 -1 -12
c0 -22 8 -45 20 -66zM383 257l-2 -2c0 15 -7 20 -7 30c0 19 47 46 47 97c0 4 0 8 -1 12c-5 62 -27 113 -89 113c-69 0 -146 -94 -146 -156c0 -19 5 -39 14 -59c2 -4 3 -8 3 -11c0 -5 -3 -9 -9 -14c-16 -12 -23 -29 -23 -47c0 -40 36 -75 80 -75c66 0 133 79 133 112z" />
    <glyph glyph-name="O" unicode="&#xd4;" horiz-adv-x="559" 
d="M579 311l-2 -4c2 -4 3 -7 3 -10c0 -13 -23 -19 -40 -40c-6 -7 -86 -239 -279 -239c-62 0 -123 28 -161 77c-63 82 -35 136 -75 181c-5 5 -7 9 -7 14s3 10 8 16c16 18 28 39 35 63c39 140 149 264 291 264c126 0 208 -119 208 -232v-12c-1 -4 -1 -8 -1 -12
c0 -22 8 -45 20 -66zM383 257l-2 -2c0 15 -7 20 -7 30c0 19 47 46 47 97c0 4 0 8 -1 12c-5 62 -27 113 -89 113c-69 0 -146 -94 -146 -156c0 -19 5 -39 14 -59c2 -4 3 -8 3 -11c0 -5 -3 -9 -9 -14c-16 -12 -23 -29 -23 -47c0 -40 36 -75 80 -75c66 0 133 79 133 112z" />
    <glyph glyph-name="O" unicode="&#xd3;" horiz-adv-x="559" 
d="M579 311l-2 -4c2 -4 3 -7 3 -10c0 -13 -23 -19 -40 -40c-6 -7 -86 -239 -279 -239c-62 0 -123 28 -161 77c-63 82 -35 136 -75 181c-5 5 -7 9 -7 14s3 10 8 16c16 18 28 39 35 63c39 140 149 264 291 264c126 0 208 -119 208 -232v-12c-1 -4 -1 -8 -1 -12
c0 -22 8 -45 20 -66zM383 257l-2 -2c0 15 -7 20 -7 30c0 19 47 46 47 97c0 4 0 8 -1 12c-5 62 -27 113 -89 113c-69 0 -146 -94 -146 -156c0 -19 5 -39 14 -59c2 -4 3 -8 3 -11c0 -5 -3 -9 -9 -14c-16 -12 -23 -29 -23 -47c0 -40 36 -75 80 -75c66 0 133 79 133 112z" />
    <glyph glyph-name="O" unicode="&#xd2;" horiz-adv-x="559" 
d="M579 311l-2 -4c2 -4 3 -7 3 -10c0 -13 -23 -19 -40 -40c-6 -7 -86 -239 -279 -239c-62 0 -123 28 -161 77c-63 82 -35 136 -75 181c-5 5 -7 9 -7 14s3 10 8 16c16 18 28 39 35 63c39 140 149 264 291 264c126 0 208 -119 208 -232v-12c-1 -4 -1 -8 -1 -12
c0 -22 8 -45 20 -66zM383 257l-2 -2c0 15 -7 20 -7 30c0 19 47 46 47 97c0 4 0 8 -1 12c-5 62 -27 113 -89 113c-69 0 -146 -94 -146 -156c0 -19 5 -39 14 -59c2 -4 3 -8 3 -11c0 -5 -3 -9 -9 -14c-16 -12 -23 -29 -23 -47c0 -40 36 -75 80 -75c66 0 133 79 133 112z" />
    <glyph glyph-name="P" unicode="P" horiz-adv-x="480" 
d="M205 250v1c-7 -2 -11 -5 -11 -11v-3c13 -109 19 -184 67 -210c2 -1 5 -2 5 -4c0 -1 0 -2 -1 -3c-1 -2 -3 -3 -5 -3s-4 1 -6 2c-43 23 -52 26 -72 26c-23 0 -86 -10 -96 -34c-2 -5 -5 -7 -9 -7c-3 0 -9 1 -9 4s3 6 3 8c4 28 24 203 24 204c0 5 -1 8 -6 8c-2 0 -5 0 -8 -1
c-5 -2 -10 -2 -15 -2c-6 0 -12 1 -18 1h-1c-7 0 -10 7 -10 10c0 4 5 2 7 3c8 6 14 25 14 40c0 16 -13 33 -23 45c17 3 32 6 47 6c5 0 12 -1 13 -1c8 0 11 4 12 14c2 31 6 62 6 96v6c-19 -12 -39 -19 -53 -35c-2 -3 -4 -4 -6 -4c-1 0 -2 1 -4 2c-3 2 -5 3 -5 6c0 1 0 2 1 3
c5 10 7 20 7 30c0 16 -4 32 -8 48c-4 17 -25 33 -25 41c0 7 11 3 85 28c6 2 7 5 7 8c0 23 -4 50 -12 75c-1 4 -3 9 -3 13c0 5 3 8 7 8s9 -3 13 -5c14 -6 28 -8 42 -8c38 0 81 16 81 16c5 0 8 -4 8 -8c0 -6 -8 -13 -9 -20c-2 -14 -9 -28 -9 -44c37 8 74 12 111 12
c115 0 162 -57 162 -113c0 -93 -158 -206 -298 -248zM207 475v-4c-5 -41 -9 -82 -9 -124v0c52 17 136 53 136 108c0 20 -14 39 -58 39c-20 0 -40 -4 -60 -8c-7 -1 -8 -4 -9 -11z" />
    <glyph glyph-name="Q" unicode="Q" horiz-adv-x="580" 
d="M538 227l-2 1c-21 -26 -32 -58 -53 -84c-7 -9 -11 -14 -11 -18c0 -5 5 -8 17 -14c19 -10 37 -23 59 -23c4 0 10 1 11 1c6 0 8 -3 8 -7c0 -2 0 -4 -1 -6c-5 -16 -7 -32 -7 -48c0 -34 7 -59 7 -73v-6c0 -7 -7 -12 -10 -12s-4 4 -6 6c-36 38 -78 59 -128 59
c-13 0 -29 -2 -29 -2c-12 0 -15 40 -35 40c-9 0 -20 -9 -30 -12c-22 -6 -43 -9 -64 -9c-190 0 -198 199 -238 253c-5 6 -7 12 -7 18c0 7 3 14 8 21c58 78 101 320 344 320h9c49 -3 99 -32 136 -83c72 -100 28 -170 72 -242c2 -3 3 -5 3 -7s-1 -4 -3 -7
c-17 -22 -33 -44 -50 -66zM384 285l3 -2c0 27 50 58 50 128c0 48 -30 116 -89 116c-61 0 -150 -85 -150 -190c0 -10 1 -20 3 -30c1 -8 5 -16 5 -25c0 -5 -1 -10 -4 -15c-10 -17 -19 -35 -29 -52c-3 -5 -5 -9 -5 -14c0 -23 22 -103 87 -103c5 0 11 1 12 1h3c3 0 6 0 8 3v3
c0 3 3 -1 -55 52c-2 2 -7 3 -7 7c0 1 0 2 1 4c3 5 5 10 11 10h6c7 0 14 3 20 7c22 16 44 33 44 63c0 5 -1 11 -1 13c0 9 6 12 10 12c3 0 -5 6 74 -76c10 14 18 28 18 42c0 21 -15 26 -15 46z" />
    <glyph glyph-name="R" unicode="R" horiz-adv-x="495" 
d="M513 55h-4c2 -2 6 -3 6 -6s-4 -8 -10 -8c-1 0 -2 0 -3 1c-7 2 -14 2 -21 2h-12h-3c-23 0 -46 -2 -61 -25c-1 -2 -3 -4 -5 -4s-4 1 -5 5c-11 46 -106 113 -115 113v0c-37 0 -35 49 -87 94c7 -60 15 -180 69 -207c2 -1 5 -2 5 -4s-3 -5 -6 -5c-1 0 -2 0 -3 1
c-8 6 -19 5 -27 13c-11 11 -27 14 -42 14c-36 0 -92 -12 -101 -34c-2 -5 -5 -6 -9 -6c-3 0 -9 1 -9 4s3 6 3 8c4 26 25 203 25 204c0 5 -1 9 -6 9c-7 0 -8 -4 -20 -4c-5 0 -10 1 -15 1h-3c-10 0 -13 8 -13 11c0 4 6 1 8 3c7 6 12 25 12 40c0 19 -7 22 -17 43c-1 3 -4 6 -4 9
s3 7 6 7s6 -2 9 -3c11 -4 23 -7 35 -7c15 0 18 1 18 7c2 30 6 71 6 101c0 5 -1 7 -3 7c-3 0 -6 -3 -53 -31c-2 -1 -3 -4 -6 -4c-2 0 -6 3 -6 6c0 0 12 34 12 56s-9 40 -27 53c-3 3 -11 8 -11 15c0 3 2 5 8 6c26 3 50 13 75 21c7 2 8 5 8 10c0 17 -4 48 -12 74
c-1 4 -3 9 -3 13c0 5 3 8 7 8s9 -3 13 -5c14 -6 28 -8 42 -8c38 0 81 16 81 16c5 0 8 -4 8 -8c0 -7 -7 -15 -8 -22c-3 -14 -9 -27 -9 -43c37 9 73 13 109 13c118 0 165 -57 165 -114c0 -87 -134 -179 -214 -218c12 -16 28 -26 43 -36c47 -31 70 -39 70 -45
c3 -47 99 -130 110 -141zM194 344v-1c51 17 136 54 136 108c0 19 -14 38 -58 38c-20 0 -40 -4 -60 -8c-6 -1 -8 -3 -9 -10c-5 -41 -9 -82 -9 -124v-3z" />
    <glyph glyph-name="S" unicode="S" horiz-adv-x="533" 
d="M176 491v2c0 -69 346 -140 346 -289c0 -141 -166 -207 -229 -207c-206 0 -120 128 -252 174c-9 3 -19 8 -20 20c0 1 -1 3 -1 4c0 3 5 4 7 2c11 -8 21 -11 30 -11c23 0 68 35 76 54c3 7 7 7 12 1c60 -91 61 -130 165 -130c177 0 63 237 -110 237c-41 0 -48 -18 -63 -3
c-38 38 -83 83 -83 151c0 127 210 260 414 122c47 -32 14 -128 50 -162c7 -7 -7 -19 -10 -12c-4 9 -14 7 -21 12c-15 12 -92 36 -109 24c-2 -1 -4 -2 -6 -2c-3 0 -5 1 -5 4c-3 27 -9 70 -28 79c-85 41 -165 -19 -163 -70z" />
    <glyph glyph-name="T" unicode="T" horiz-adv-x="422" 
d="M513 630v-1c0 -3 -1 -6 -2 -9c-12 -27 -16 -63 -16 -77c0 -15 3 -30 13 -43c-6 -2 -13 -3 -18 0c-33 21 -120 18 -140 23h-3c-12 0 -18 -195 -18 -218c0 -120 32 -288 32 -296c0 -3 -1 -5 -6 -6c-36 -11 -37 16 -77 16h-14c-20 0 -40 3 -59 -8c-3 -2 -6 -3 -8 -3
c-5 0 -8 4 -8 11c0 0 26 83 26 469c0 22 1 32 -6 32c-4 0 -9 -3 -13 -3c-54 -1 -111 -18 -161 -37c-2 11 -2 20 4 29c5 6 20 34 20 51c0 32 -38 50 -38 61c0 3 2 6 6 6c2 0 4 -1 6 -3c21 -15 46 -17 102 -17h45c31 0 30 -3 30 17c0 84 -17 93 -4 93c34 0 39 -19 66 -19
c16 0 79 23 95 23c6 0 8 -3 8 -9c0 -5 1 0 -19 -103c42 3 82 7 120 20c15 5 19 10 25 10c4 0 12 -3 12 -9z" />
    <glyph glyph-name="U" unicode="U" horiz-adv-x="476" 
d="M500 709l1 -4s-52 -148 -52 -360c0 -80 1 -131 1 -166c0 -80 -71 -137 -136 -152c-41 -9 -81 -24 -124 -24c-155 0 -161 101 -169 110v0s15 123 15 250c0 7 -3 137 -9 176v3v6v5c0 12 6 15 10 15c5 0 8 -5 12 -8c21 -19 40 -36 68 -36c29 0 72 29 81 29c5 0 8 -9 8 -14
c0 0 -72 -147 -72 -339c0 -27 19 -89 87 -89c30 0 79 17 87 51c23 94 34 192 34 288c0 12 0 24 -1 35v46c0 25 -1 49 -4 73c-3 20 -14 45 -28 63c-1 1 -1 2 -1 2c0 2 4 3 5 5s2 3 4 3s4 -1 5 -2c15 -13 30 -18 46 -18c31 0 90 34 114 53c3 2 7 4 11 4c3 0 7 -2 7 -5z" />
    <glyph glyph-name="U" unicode="&#xdc;" horiz-adv-x="476" 
d="M500 709l1 -4s-52 -148 -52 -360c0 -80 1 -131 1 -166c0 -80 -71 -137 -136 -152c-41 -9 -81 -24 -124 -24c-155 0 -161 101 -169 110v0s15 123 15 250c0 7 -3 137 -9 176v3v6v5c0 12 6 15 10 15c5 0 8 -5 12 -8c21 -19 40 -36 68 -36c29 0 72 29 81 29c5 0 8 -9 8 -14
c0 0 -72 -147 -72 -339c0 -27 19 -89 87 -89c30 0 79 17 87 51c23 94 34 192 34 288c0 12 0 24 -1 35v46c0 25 -1 49 -4 73c-3 20 -14 45 -28 63c-1 1 -1 2 -1 2c0 2 4 3 5 5s2 3 4 3s4 -1 5 -2c15 -13 30 -18 46 -18c31 0 90 34 114 53c3 2 7 4 11 4c3 0 7 -2 7 -5z" />
    <glyph glyph-name="U" unicode="&#xdb;" horiz-adv-x="476" 
d="M500 709l1 -4s-52 -148 -52 -360c0 -80 1 -131 1 -166c0 -80 -71 -137 -136 -152c-41 -9 -81 -24 -124 -24c-155 0 -161 101 -169 110v0s15 123 15 250c0 7 -3 137 -9 176v3v6v5c0 12 6 15 10 15c5 0 8 -5 12 -8c21 -19 40 -36 68 -36c29 0 72 29 81 29c5 0 8 -9 8 -14
c0 0 -72 -147 -72 -339c0 -27 19 -89 87 -89c30 0 79 17 87 51c23 94 34 192 34 288c0 12 0 24 -1 35v46c0 25 -1 49 -4 73c-3 20 -14 45 -28 63c-1 1 -1 2 -1 2c0 2 4 3 5 5s2 3 4 3s4 -1 5 -2c15 -13 30 -18 46 -18c31 0 90 34 114 53c3 2 7 4 11 4c3 0 7 -2 7 -5z" />
    <glyph glyph-name="U" unicode="&#xda;" horiz-adv-x="476" 
d="M500 709l1 -4s-52 -148 -52 -360c0 -80 1 -131 1 -166c0 -80 -71 -137 -136 -152c-41 -9 -81 -24 -124 -24c-155 0 -161 101 -169 110v0s15 123 15 250c0 7 -3 137 -9 176v3v6v5c0 12 6 15 10 15c5 0 8 -5 12 -8c21 -19 40 -36 68 -36c29 0 72 29 81 29c5 0 8 -9 8 -14
c0 0 -72 -147 -72 -339c0 -27 19 -89 87 -89c30 0 79 17 87 51c23 94 34 192 34 288c0 12 0 24 -1 35v46c0 25 -1 49 -4 73c-3 20 -14 45 -28 63c-1 1 -1 2 -1 2c0 2 4 3 5 5s2 3 4 3s4 -1 5 -2c15 -13 30 -18 46 -18c31 0 90 34 114 53c3 2 7 4 11 4c3 0 7 -2 7 -5z" />
    <glyph glyph-name="U" unicode="&#xd9;" horiz-adv-x="476" 
d="M500 709l1 -4s-52 -148 -52 -360c0 -80 1 -131 1 -166c0 -80 -71 -137 -136 -152c-41 -9 -81 -24 -124 -24c-155 0 -161 101 -169 110v0s15 123 15 250c0 7 -3 137 -9 176v3v6v5c0 12 6 15 10 15c5 0 8 -5 12 -8c21 -19 40 -36 68 -36c29 0 72 29 81 29c5 0 8 -9 8 -14
c0 0 -72 -147 -72 -339c0 -27 19 -89 87 -89c30 0 79 17 87 51c23 94 34 192 34 288c0 12 0 24 -1 35v46c0 25 -1 49 -4 73c-3 20 -14 45 -28 63c-1 1 -1 2 -1 2c0 2 4 3 5 5s2 3 4 3s4 -1 5 -2c15 -13 30 -18 46 -18c31 0 90 34 114 53c3 2 7 4 11 4c3 0 7 -2 7 -5z" />
    <glyph glyph-name="V" unicode="V" horiz-adv-x="420" 
d="M517 688h-3c-207 -510 -222 -613 -222 -613c-3 -8 -4 -15 -4 -22c0 -17 8 -32 18 -47c2 -3 4 -5 4 -8c0 -2 -1 -5 -4 -5c-1 0 -2 1 -3 2c-16 7 -32 10 -48 10c-36 0 -89 -17 -92 -18s-7 -4 -10 -4c-4 0 -7 4 -7 7c0 5 6 7 9 11c11 14 23 20 23 42s-69 376 -158 580v3
c0 4 4 7 6 10c1 2 2 3 3 3c3 0 6 -3 7 -4c18 -16 37 -22 57 -22c29 0 43 12 75 12c9 0 10 -4 11 -20c2 -40 17 -230 67 -420h3c28 92 56 177 88 337c36 177 27 189 41 189c4 0 9 -3 15 -7c16 -11 32 -16 48 -16c36 0 54 20 70 20c5 0 11 -2 11 -7c0 -4 -3 -9 -5 -13z" />
    <glyph glyph-name="W" unicode="W" horiz-adv-x="709" 
d="M741 476l2 4c-141 -266 -177 -373 -177 -373c-6 -9 -8 -17 -8 -25c0 -12 5 -24 10 -36c1 -3 4 -6 4 -9s-3 -6 -8 -6c-2 0 -4 1 -6 2c-10 3 -19 4 -28 4c-34 0 -63 -18 -92 -36c-3 -2 -6 -3 -8 -3c-3 0 -5 2 -6 7c-1 6 -2 12 -2 18v21c0 91 -25 235 -33 241
c-20 -50 -78 -219 -79 -269c0 -4 -1 -6 -4 -6c-2 0 -16 4 -20 7c-10 9 -20 12 -30 12c-23 0 -40 -16 -50 -16c-5 0 -8 4 -9 12c-37 250 -115 455 -162 590c-2 7 -12 16 -12 22c0 3 3 7 6 7s6 -3 8 -4c21 -9 41 -23 65 -23c16 0 58 11 81 20c4 1 7 2 9 2c6 0 8 -4 9 -12
c0 -3 18 -269 56 -404c36 116 32 97 56 223c1 6 5 12 5 19c0 2 0 4 -1 6v0c0 2 1 3 3 3c1 0 3 0 5 -1c18 -12 37 -17 57 -17c14 0 28 2 42 6c24 6 51 17 57 17s6 -7 6 -15c0 -17 -4 -34 -4 -51c0 -46 18 -138 27 -182c37 16 195 375 195 425c0 6 -2 15 -2 16c0 4 2 5 6 5
c5 0 10 -3 11 -10c0 -3 0 -6 1 -9c14 -25 22 -37 42 -37c10 0 51 9 59 9c4 0 10 -2 10 -5c0 -8 -72 -114 -91 -149z" />
    <glyph glyph-name="X" unicode="X" horiz-adv-x="460" 
d="M447 92l-1 2c0 -1 70 -86 70 -87c0 -2 -3 -6 -7 -6h-3c-9 4 -18 6 -27 6c-26 0 -74 -18 -98 -29c-6 -3 -14 -6 -14 -15v0c0 -4 -1 -9 -5 -9c-5 0 -7 6 -7 11v10c0 102 -55 204 -76 251c-31 -67 -54 -133 -69 -201c-1 -7 2 -15 -5 -20c-3 -2 -6 -3 -9 -3s-6 2 -7 7
c-1 8 -4 9 -10 10c-20 4 -40 7 -60 7c-24 0 -69 -8 -77 -24c-2 -3 -6 -4 -10 -4c-6 0 -14 4 -14 8c0 3 4 6 6 9c102 131 198 318 198 321c0 11 -84 167 -175 280c3 1 6 3 9 3c1 0 2 0 4 -1c14 -8 27 -11 40 -11c30 0 56 18 81 37c7 5 11 8 13 8c3 0 4 -4 7 -14
c19 -68 58 -177 72 -205c17 25 79 158 79 169c0 3 -1 6 -3 9c-1 2 -2 4 -2 6c0 3 4 5 7 5c12 0 20 -33 44 -33c13 0 51 11 79 25c3 2 6 4 9 4c5 0 9 -6 9 -11c0 -3 -1 -6 -3 -9c-79 -120 -161 -268 -163 -271c-3 -5 -4 -10 -4 -14c0 -15 64 -148 122 -221z" />
    <glyph glyph-name="Y" unicode="Y" horiz-adv-x="336" 
d="M515 724l-3 1s-243 -233 -243 -588c0 -57 14 -108 14 -108c0 -4 -2 -8 -2 -12c0 -3 1 -6 5 -9h-3h-6s-4 0 -5 1c-14 10 -28 14 -42 14c-22 0 -44 -9 -66 -14c-6 -2 -30 -15 -36 -15c-3 0 -5 1 -5 6c0 0 40 149 40 260c0 31 -2 62 -8 93c-2 13 -58 129 -104 191
c-25 34 -30 32 -30 41c0 4 3 10 6 10s6 -4 9 -5c11 -4 23 -6 35 -6c34 0 75 13 111 45c2 2 4 5 7 5h3c4 -2 3 -7 3 -11v-18c0 -12 -1 -24 -1 -36c0 -41 12 -75 29 -130c85 187 105 230 105 254c0 4 -1 8 -2 12v3c0 3 3 6 5 6s4 -3 6 -4c19 -15 34 -22 50 -22
c36 0 94 49 111 49c3 0 6 -1 9 -2c5 -1 8 -6 8 -11z" />
    <glyph glyph-name="Y" unicode="&#xdd;" horiz-adv-x="336" 
d="M515 724l-3 1s-243 -233 -243 -588c0 -57 14 -108 14 -108c0 -4 -2 -8 -2 -12c0 -3 1 -6 5 -9h-3h-6s-4 0 -5 1c-14 10 -28 14 -42 14c-22 0 -44 -9 -66 -14c-6 -2 -30 -15 -36 -15c-3 0 -5 1 -5 6c0 0 40 149 40 260c0 31 -2 62 -8 93c-2 13 -58 129 -104 191
c-25 34 -30 32 -30 41c0 4 3 10 6 10s6 -4 9 -5c11 -4 23 -6 35 -6c34 0 75 13 111 45c2 2 4 5 7 5h3c4 -2 3 -7 3 -11v-18c0 -12 -1 -24 -1 -36c0 -41 12 -75 29 -130c85 187 105 230 105 254c0 4 -1 8 -2 12v3c0 3 3 6 5 6s4 -3 6 -4c19 -15 34 -22 50 -22
c36 0 94 49 111 49c3 0 6 -1 9 -2c5 -1 8 -6 8 -11z" />
    <glyph glyph-name="Z" unicode="Z" horiz-adv-x="649" 
d="M593 132l2 -9c3 -52 38 -81 68 -108c-11 -4 -22 -5 -33 -5c0 0 -156 14 -204 14c-87 0 -202 -13 -292 -50c-2 -1 -3 -5 -5 -5c-1 0 -2 1 -3 3c-2 2 -5 5 -5 7c0 1 0 2 1 2c5 4 7 8 7 12c0 7 -5 14 -5 20c-1 29 -15 46 -37 52c-11 3 -16 5 -16 8c0 0 227 244 299 456
c-32 7 -64 9 -96 9c-79 0 -154 -4 -221 -42c-5 -3 -10 -6 -16 -6c-9 0 -17 11 -17 14c0 4 7 7 10 10c59 57 86 103 86 110c0 2 -1 4 -2 6v3c0 4 7 10 10 10s5 -3 5 -6c2 -20 109 -25 134 -25c31 0 61 2 94 2c34 0 68 -1 102 -1c29 0 60 0 90 16c5 3 10 4 15 4
c8 0 17 -4 17 -12c0 -2 -1 -4 -2 -6c-17 -26 -24 -50 -24 -73c0 -22 6 -43 15 -64c-17 4 -33 8 -47 16c-2 1 -4 1 -5 1c-14 0 -164 -220 -176 -238c-23 -38 -57 -127 -57 -130c0 -6 5 -7 33 -7c50 0 250 26 253 26h6c8 -1 15 -3 16 -14z" />
    <glyph glyph-name="bracketleft" unicode="[" horiz-adv-x="348" 
d="M327 617l2 2c-13 -16 -22 -34 -22 -56c0 -12 10 -25 10 -32c0 -3 -2 -5 -4 -5s-4 1 -6 2c-12 4 -24 5 -36 5c-16 0 -32 -2 -48 -4s-41 -208 -41 -300c0 -40 6 -59 6 -78c0 -7 -2 -15 -2 -21c0 -5 1 -9 5 -12c13 -10 30 -15 47 -15c22 0 37 0 47 15c1 2 3 3 5 3h3
c3 -1 4 -3 4 -5c0 0 -8 -43 -8 -54c0 -13 7 -23 17 -32c-2 -3 -4 -4 -6 -4c0 0 -40 18 -117 18c-20 0 -40 -1 -60 -2c-6 0 -14 -6 -20 -6c-3 0 -6 2 -6 6c0 0 25 55 25 492c0 15 -3 29 -3 44c0 2 -1 6 -3 7c-4 2 -7 5 -7 8s2 7 5 7c0 0 16 -7 47 -7c30 0 127 16 154 28h4
c3 0 6 -1 8 -4z" />
    <glyph glyph-name="bracketright" unicode="]" horiz-adv-x="349" 
d="M303 454l-2 3c0 -353 25 -415 25 -415c0 -3 -1 -4 -4 -4c0 0 -42 8 -82 8c-66 0 -115 -19 -115 -19c-2 0 -4 1 -7 4c14 10 18 22 18 34c0 11 -8 51 -8 51c0 4 4 7 7 7c4 0 6 -6 9 -8c11 -7 23 -10 35 -10c8 0 16 1 24 3c35 10 34 11 35 47c1 27 5 47 5 79
c0 51 -5 127 -14 179c-21 119 -17 117 -30 118c-15 1 -30 3 -45 3c-12 0 -24 -1 -36 -5c-2 -1 -3 -1 -4 -1c-3 0 -4 2 -4 4s1 5 2 7c5 10 8 20 8 30c0 16 -9 39 -22 51c4 2 7 3 10 3c0 0 95 -27 160 -27c16 0 43 6 43 6c3 0 5 -3 5 -6s-2 -6 -5 -9c-7 -8 -7 -19 -7 -29v-3
c0 0 -1 -48 -1 -101z" />
    <glyph glyph-name="asciicircum" unicode="^" horiz-adv-x="368" 
d="M316 461l3 -1c0 -122 30 -176 30 -176c0 -5 -5 -7 -10 -7c-23 0 -10 18 -66 18c-28 0 -6 41 -30 107c-31 85 -112 -51 -119 -120c-1 -5 -3 -8 -6 -8c-15 0 -36 44 -82 22c-4 -2 -10 -6 -13 0s-4 12 1 17c55 53 126 140 173 200c4 5 7 7 11 7c2 0 5 -1 8 -2
c24 -7 49 -13 74 -13c16 0 28 5 30 -18c-3 -8 -4 -17 -4 -26z" />
    <glyph glyph-name="grave" unicode="`" horiz-adv-x="269" 
d="M243 381l1 -3c5 -1 6 -3 2 -7c-6 -7 -40 -46 -40 -68c0 -8 5 -16 -6 -16c-4 0 -7 2 -8 7c-9 47 -79 85 -126 80c16 21 29 39 37 60s7 38 16 38c4 0 8 -1 9 -5c11 -30 40 -40 62 -57c16 -12 33 -24 53 -29z" />
    <glyph glyph-name="a" unicode="a" horiz-adv-x="426" 
d="M374 147h3c0 -36 16 -89 30 -120c-12 -5 -18 12 -47 12c-28 0 -54 -18 -67 -40c-2 -4 -2 -9 -7 -9c-4 0 -7 2 -7 6c0 0 10 44 16 153c-8 -15 -57 -138 -172 -138c-75 0 -100 64 -100 139c0 107 82 221 193 221c28 0 50 -11 69 -31c2 -2 3 -6 8 -6c0 2 -5 36 -5 38
c0 6 4 22 10 22c2 0 4 -2 6 -4c20 -15 40 -11 63 -1c4 2 7 6 11 6s11 -6 11 -14c0 0 -17 -80 -17 -133c0 -30 3 -35 3 -56c0 -15 -1 -30 -1 -45zM196 303v-1c-233 -127 -47 -318 56 -127c-78 38 -56 128 -56 128z" />
    <glyph glyph-name="a" unicode="&#xe5;" horiz-adv-x="426" 
d="M374 147h3c0 -36 16 -89 30 -120c-12 -5 -18 12 -47 12c-28 0 -54 -18 -67 -40c-2 -4 -2 -9 -7 -9c-4 0 -7 2 -7 6c0 0 10 44 16 153c-8 -15 -57 -138 -172 -138c-75 0 -100 64 -100 139c0 107 82 221 193 221c28 0 50 -11 69 -31c2 -2 3 -6 8 -6c0 2 -5 36 -5 38
c0 6 4 22 10 22c2 0 4 -2 6 -4c20 -15 40 -11 63 -1c4 2 7 6 11 6s11 -6 11 -14c0 0 -17 -80 -17 -133c0 -30 3 -35 3 -56c0 -15 -1 -30 -1 -45zM196 303v-1c-233 -127 -47 -318 56 -127c-78 38 -56 128 -56 128z" />
    <glyph glyph-name="a" unicode="&#xe4;" horiz-adv-x="426" 
d="M374 147h3c0 -36 16 -89 30 -120c-12 -5 -18 12 -47 12c-28 0 -54 -18 -67 -40c-2 -4 -2 -9 -7 -9c-4 0 -7 2 -7 6c0 0 10 44 16 153c-8 -15 -57 -138 -172 -138c-75 0 -100 64 -100 139c0 107 82 221 193 221c28 0 50 -11 69 -31c2 -2 3 -6 8 -6c0 2 -5 36 -5 38
c0 6 4 22 10 22c2 0 4 -2 6 -4c20 -15 40 -11 63 -1c4 2 7 6 11 6s11 -6 11 -14c0 0 -17 -80 -17 -133c0 -30 3 -35 3 -56c0 -15 -1 -30 -1 -45zM196 303v-1c-233 -127 -47 -318 56 -127c-78 38 -56 128 -56 128z" />
    <glyph glyph-name="a" unicode="&#xe3;" horiz-adv-x="426" 
d="M374 147h3c0 -36 16 -89 30 -120c-12 -5 -18 12 -47 12c-28 0 -54 -18 -67 -40c-2 -4 -2 -9 -7 -9c-4 0 -7 2 -7 6c0 0 10 44 16 153c-8 -15 -57 -138 -172 -138c-75 0 -100 64 -100 139c0 107 82 221 193 221c28 0 50 -11 69 -31c2 -2 3 -6 8 -6c0 2 -5 36 -5 38
c0 6 4 22 10 22c2 0 4 -2 6 -4c20 -15 40 -11 63 -1c4 2 7 6 11 6s11 -6 11 -14c0 0 -17 -80 -17 -133c0 -30 3 -35 3 -56c0 -15 -1 -30 -1 -45zM196 303v-1c-233 -127 -47 -318 56 -127c-78 38 -56 128 -56 128z" />
    <glyph glyph-name="a" unicode="&#xe2;" horiz-adv-x="426" 
d="M374 147h3c0 -36 16 -89 30 -120c-12 -5 -18 12 -47 12c-28 0 -54 -18 -67 -40c-2 -4 -2 -9 -7 -9c-4 0 -7 2 -7 6c0 0 10 44 16 153c-8 -15 -57 -138 -172 -138c-75 0 -100 64 -100 139c0 107 82 221 193 221c28 0 50 -11 69 -31c2 -2 3 -6 8 -6c0 2 -5 36 -5 38
c0 6 4 22 10 22c2 0 4 -2 6 -4c20 -15 40 -11 63 -1c4 2 7 6 11 6s11 -6 11 -14c0 0 -17 -80 -17 -133c0 -30 3 -35 3 -56c0 -15 -1 -30 -1 -45zM196 303v-1c-233 -127 -47 -318 56 -127c-78 38 -56 128 -56 128z" />
    <glyph glyph-name="a" unicode="&#xe1;" horiz-adv-x="426" 
d="M374 147h3c0 -36 16 -89 30 -120c-12 -5 -18 12 -47 12c-28 0 -54 -18 -67 -40c-2 -4 -2 -9 -7 -9c-4 0 -7 2 -7 6c0 0 10 44 16 153c-8 -15 -57 -138 -172 -138c-75 0 -100 64 -100 139c0 107 82 221 193 221c28 0 50 -11 69 -31c2 -2 3 -6 8 -6c0 2 -5 36 -5 38
c0 6 4 22 10 22c2 0 4 -2 6 -4c20 -15 40 -11 63 -1c4 2 7 6 11 6s11 -6 11 -14c0 0 -17 -80 -17 -133c0 -30 3 -35 3 -56c0 -15 -1 -30 -1 -45zM196 303v-1c-233 -127 -47 -318 56 -127c-78 38 -56 128 -56 128z" />
    <glyph glyph-name="a" unicode="&#xe0;" horiz-adv-x="426" 
d="M374 147h3c0 -36 16 -89 30 -120c-12 -5 -18 12 -47 12c-28 0 -54 -18 -67 -40c-2 -4 -2 -9 -7 -9c-4 0 -7 2 -7 6c0 0 10 44 16 153c-8 -15 -57 -138 -172 -138c-75 0 -100 64 -100 139c0 107 82 221 193 221c28 0 50 -11 69 -31c2 -2 3 -6 8 -6c0 2 -5 36 -5 38
c0 6 4 22 10 22c2 0 4 -2 6 -4c20 -15 40 -11 63 -1c4 2 7 6 11 6s11 -6 11 -14c0 0 -17 -80 -17 -133c0 -30 3 -35 3 -56c0 -15 -1 -30 -1 -45zM196 303v-1c-233 -127 -47 -318 56 -127c-78 38 -56 128 -56 128z" />
    <glyph glyph-name="b" unicode="b" horiz-adv-x="437" 
d="M292 314v-1c63 0 125 -58 125 -124c0 -76 -86 -190 -165 -190c-24 0 -91 17 -122 66c0 -18 -2 -33 1 -47c1 -6 0 -9 -4 -9c-12 0 -36 10 -106 -19c-2 -1 -3 -1 -4 -1c-4 0 -13 6 -6 10c20 12 21 34 24 53c13 70 23 440 23 465c0 21 -12 45 11 38c60 -19 72 12 110 12
c3 0 4 -1 4 -4c0 0 -51 -248 -51 -319v-15c48 59 110 85 160 85zM211 72c229 24 94 284 -38 116c43 -47 38 -116 38 -116z" />
    <glyph glyph-name="c" unicode="c" horiz-adv-x="340" 
d="M270 124l1 1c0 -44 42 -44 49 -59c-11 -3 -20 -11 -26 -19c-34 -45 -110 -56 -137 -56c-88 0 -148 84 -148 175c0 113 98 211 194 211c53 0 96 -34 96 -41c0 -3 -4 -7 -11 -14c-15 -15 -21 -32 -21 -50c0 -19 7 -34 7 -34c0 -4 -13 -9 -16 3c-6 26 -29 56 -62 56
c-59 0 -105 -42 -105 -127c0 -70 48 -101 91 -101c38 0 59 20 72 54c4 10 4 18 11 18c8 0 5 -6 5 -17z" />
    <glyph glyph-name="c" unicode="&#xe7;" horiz-adv-x="340" 
d="M270 124l1 1c0 -44 42 -44 49 -59c-11 -3 -20 -11 -26 -19c-34 -45 -110 -56 -137 -56c-88 0 -148 84 -148 175c0 113 98 211 194 211c53 0 96 -34 96 -41c0 -3 -4 -7 -11 -14c-15 -15 -21 -32 -21 -50c0 -19 7 -34 7 -34c0 -4 -13 -9 -16 3c-6 26 -29 56 -62 56
c-59 0 -105 -42 -105 -127c0 -70 48 -101 91 -101c38 0 59 20 72 54c4 10 4 18 11 18c8 0 5 -6 5 -17z" />
    <glyph glyph-name="d" unicode="d" horiz-adv-x="426" 
d="M383 41h-2c0 -11 -9 -22 3 -36c-76 44 -104 -1 -115 -1c-3 0 -6 2 -6 5c0 0 1 0 13 54c-73 -71 -157 -107 -225 -31c-27 30 -32 78 -32 120c0 128 84 235 209 235c32 0 62 -10 84 -43c10 15 7 31 8 45c13 155 4 124 4 156c0 14 8 18 20 13c44 -18 65 3 84 3
c7 0 10 -3 10 -9c0 0 -57 -203 -57 -449c0 -37 2 -62 2 -62zM216 314l1 1c-260 -142 -52 -356 63 -143c-88 42 -64 142 -64 142z" />
    <glyph glyph-name="e" unicode="e" horiz-adv-x="337" 
d="M339 77l-2 1c4 0 7 -1 10 -5c-41 -33 -109 -50 -153 -50c-111 0 -176 70 -176 176c0 107 93 166 169 166c51 0 111 -41 111 -93c0 -60 -52 -103 -106 -103c-32 0 -44 1 -69 20c-3 2 -6 5 -9 5c-5 0 -12 -8 -12 -18c0 -32 14 -86 95 -86c31 0 62 11 81 33c8 9 9 -1 10 -5
c9 -26 35 -41 45 -41h6zM130 225h1c173 -39 135 143 -1 76c20 -37 0 -76 0 -76z" />
    <glyph glyph-name="e" unicode="&#xeb;" horiz-adv-x="337" 
d="M339 77l-2 1c4 0 7 -1 10 -5c-41 -33 -109 -50 -153 -50c-111 0 -176 70 -176 176c0 107 93 166 169 166c51 0 111 -41 111 -93c0 -60 -52 -103 -106 -103c-32 0 -44 1 -69 20c-3 2 -6 5 -9 5c-5 0 -12 -8 -12 -18c0 -32 14 -86 95 -86c31 0 62 11 81 33c8 9 9 -1 10 -5
c9 -26 35 -41 45 -41h6zM130 225h1c173 -39 135 143 -1 76c20 -37 0 -76 0 -76z" />
    <glyph glyph-name="e" unicode="&#xea;" horiz-adv-x="337" 
d="M339 77l-2 1c4 0 7 -1 10 -5c-41 -33 -109 -50 -153 -50c-111 0 -176 70 -176 176c0 107 93 166 169 166c51 0 111 -41 111 -93c0 -60 -52 -103 -106 -103c-32 0 -44 1 -69 20c-3 2 -6 5 -9 5c-5 0 -12 -8 -12 -18c0 -32 14 -86 95 -86c31 0 62 11 81 33c8 9 9 -1 10 -5
c9 -26 35 -41 45 -41h6zM130 225h1c173 -39 135 143 -1 76c20 -37 0 -76 0 -76z" />
    <glyph glyph-name="e" unicode="&#xe9;" horiz-adv-x="337" 
d="M339 77l-2 1c4 0 7 -1 10 -5c-41 -33 -109 -50 -153 -50c-111 0 -176 70 -176 176c0 107 93 166 169 166c51 0 111 -41 111 -93c0 -60 -52 -103 -106 -103c-32 0 -44 1 -69 20c-3 2 -6 5 -9 5c-5 0 -12 -8 -12 -18c0 -32 14 -86 95 -86c31 0 62 11 81 33c8 9 9 -1 10 -5
c9 -26 35 -41 45 -41h6zM130 225h1c173 -39 135 143 -1 76c20 -37 0 -76 0 -76z" />
    <glyph glyph-name="e" unicode="&#xe8;" horiz-adv-x="337" 
d="M339 77l-2 1c4 0 7 -1 10 -5c-41 -33 -109 -50 -153 -50c-111 0 -176 70 -176 176c0 107 93 166 169 166c51 0 111 -41 111 -93c0 -60 -52 -103 -106 -103c-32 0 -44 1 -69 20c-3 2 -6 5 -9 5c-5 0 -12 -8 -12 -18c0 -32 14 -86 95 -86c31 0 62 11 81 33c8 9 9 -1 10 -5
c9 -26 35 -41 45 -41h6zM130 225h1c173 -39 135 143 -1 76c20 -37 0 -76 0 -76z" />
    <glyph glyph-name="f" unicode="f" horiz-adv-x="368" 
d="M266 593l5 -2c153 0 91 -211 91 -249c0 -21 8 -27 1 -28c-4 -1 -9 -2 -11 3c-4 7 -24 32 -49 32c-14 0 -27 -7 -37 -20c-4 -5 -5 -9 -9 -9c-2 0 -4 1 -4 3c0 0 35 83 35 157c0 6 0 12 -1 18c-1 8 -8 22 -16 22c-10 0 -51 -41 -62 -120c-1 -7 -14 -98 -14 -121
c0 -7 3 -7 13 -7c14 0 28 2 42 5c3 1 6 2 9 2c7 0 12 -5 12 -8c0 -7 -41 -26 -23 -70c1 -3 -2 -5 -7 -5c-4 0 -38 5 -41 5c-5 0 -7 -3 -7 -9c0 0 0 2 0 -31c4 -50 1 -101 17 -150c3 -11 -6 -11 -11 -9c-29 12 -56 -2 -84 -7c-19 -4 -23 -18 -34 -18c-5 0 -12 4 -12 9
c0 0 23 29 23 148c0 15 -1 30 -1 45c0 8 1 14 -4 14c-6 0 -19 -8 -31 -12c-2 -1 -2 -6 -5 -6c-1 0 -2 0 -3 1c-3 2 -4 5 -4 18v12c0 21 -11 43 -21 53c-5 5 -5 15 1 15c3 0 4 -1 7 -1c14 0 29 2 43 -1c21 -5 18 9 18 29c0 201 94 292 174 292z" />
    <glyph glyph-name="g" unicode="g" horiz-adv-x="413" 
d="M391 419l-3 -2s-41 -222 -41 -340c0 -21 1 -69 1 -69c0 -32 -73 -191 -183 -191c-44 0 -80 15 -117 59c-21 25 -31 58 -31 124c0 9 1 16 1 16c0 3 -3 10 6 10c10 0 22 -20 44 -20c20 0 33 17 41 17c3 0 6 -1 6 -5c0 0 -5 -36 -5 -52c0 -42 12 -83 52 -83
c43 0 108 65 108 210c0 19 -2 38 -10 57c-23 -39 -39 -97 -116 -97c-22 0 -44 6 -65 17c-44 24 -54 68 -54 119c0 42 11 82 31 120c29 55 71 64 129 64c59 0 67 -15 88 -24c-5 17 -3 34 -3 50c0 3 -3 11 7 11c11 0 33 -34 78 -4c8 5 19 6 25 16c2 3 11 1 11 -3zM163 321
c-200 -159 8 -310 75 -112c-81 23 -75 112 -75 112z" />
    <glyph glyph-name="h" unicode="h" horiz-adv-x="406" 
d="M382 0l1 -1c1 -1 2 -3 2 -5c0 -3 -7 -4 -9 -2c-20 13 -20 30 -42 30c-12 0 -41 -8 -63 -26c-6 -5 -21 -11 -21 -2c0 0 28 129 28 188c0 49 -10 107 -59 107c-53 0 -99 -88 -99 -124c0 -25 9 -127 10 -130c0 -2 2 -3 4 -6c-17 -3 -21 6 -47 6c-18 0 -35 -5 -51 -16
c-3 -2 -6 -4 -9 -4s-6 2 -6 5c0 0 19 14 19 344c0 140 -1 123 -10 215c0 2 -3 4 -3 6s3 4 5 4c3 0 5 -2 7 -3c50 -35 70 -9 90 -9c7 0 10 -4 10 -12c0 0 -21 -107 -27 -191c-2 -27 2 -54 -7 -85c31 27 57 69 137 69c173 0 101 -298 140 -358z" />
    <glyph glyph-name="i" unicode="i" horiz-adv-x="120" 
d="M87 206v1c0 -22 3 -132 20 -191c2 -6 7 -12 7 -17c0 -4 -4 -7 -7 -7c-5 0 -10 7 -15 8c-27 6 -54 2 -80 -8c-12 -4 -14 1 -14 11c11 49 26 174 26 306c0 48 -11 60 4 57c43 -10 75 14 75 -9c0 0 -16 -74 -16 -151zM112 464l-1 2c6 -1 11 -1 10 -5c-5 -15 -9 -27 -9 -39
v-6c0 -3 -2 -4 -5 -5c-14 -3 -26 -8 -36 -18c-3 -3 -6 -4 -9 -4c-15 0 -6 26 -35 39c-6 3 -6 7 -1 12c13 13 26 25 32 43c2 5 13 13 20 2c8 -14 20 -19 34 -21z" />
    <glyph glyph-name="i" unicode="&#xef;" horiz-adv-x="120" 
d="M87 206v1c0 -22 3 -132 20 -191c2 -6 7 -12 7 -17c0 -4 -4 -7 -7 -7c-5 0 -10 7 -15 8c-27 6 -54 2 -80 -8c-12 -4 -14 1 -14 11c11 49 26 174 26 306c0 48 -11 60 4 57c43 -10 75 14 75 -9c0 0 -16 -74 -16 -151zM112 464l-1 2c6 -1 11 -1 10 -5c-5 -15 -9 -27 -9 -39
v-6c0 -3 -2 -4 -5 -5c-14 -3 -26 -8 -36 -18c-3 -3 -6 -4 -9 -4c-15 0 -6 26 -35 39c-6 3 -6 7 -1 12c13 13 26 25 32 43c2 5 13 13 20 2c8 -14 20 -19 34 -21z" />
    <glyph glyph-name="i" unicode="&#xee;" horiz-adv-x="120" 
d="M87 206v1c0 -22 3 -132 20 -191c2 -6 7 -12 7 -17c0 -4 -4 -7 -7 -7c-5 0 -10 7 -15 8c-27 6 -54 2 -80 -8c-12 -4 -14 1 -14 11c11 49 26 174 26 306c0 48 -11 60 4 57c43 -10 75 14 75 -9c0 0 -16 -74 -16 -151zM112 464l-1 2c6 -1 11 -1 10 -5c-5 -15 -9 -27 -9 -39
v-6c0 -3 -2 -4 -5 -5c-14 -3 -26 -8 -36 -18c-3 -3 -6 -4 -9 -4c-15 0 -6 26 -35 39c-6 3 -6 7 -1 12c13 13 26 25 32 43c2 5 13 13 20 2c8 -14 20 -19 34 -21z" />
    <glyph glyph-name="i" unicode="&#xed;" horiz-adv-x="120" 
d="M87 206v1c0 -22 3 -132 20 -191c2 -6 7 -12 7 -17c0 -4 -4 -7 -7 -7c-5 0 -10 7 -15 8c-27 6 -54 2 -80 -8c-12 -4 -14 1 -14 11c11 49 26 174 26 306c0 48 -11 60 4 57c43 -10 75 14 75 -9c0 0 -16 -74 -16 -151zM112 464l-1 2c6 -1 11 -1 10 -5c-5 -15 -9 -27 -9 -39
v-6c0 -3 -2 -4 -5 -5c-14 -3 -26 -8 -36 -18c-3 -3 -6 -4 -9 -4c-15 0 -6 26 -35 39c-6 3 -6 7 -1 12c13 13 26 25 32 43c2 5 13 13 20 2c8 -14 20 -19 34 -21z" />
    <glyph glyph-name="i" unicode="&#xec;" horiz-adv-x="120" 
d="M87 206v1c0 -22 3 -132 20 -191c2 -6 7 -12 7 -17c0 -4 -4 -7 -7 -7c-5 0 -10 7 -15 8c-27 6 -54 2 -80 -8c-12 -4 -14 1 -14 11c11 49 26 174 26 306c0 48 -11 60 4 57c43 -10 75 14 75 -9c0 0 -16 -74 -16 -151zM112 464l-1 2c6 -1 11 -1 10 -5c-5 -15 -9 -27 -9 -39
v-6c0 -3 -2 -4 -5 -5c-14 -3 -26 -8 -36 -18c-3 -3 -6 -4 -9 -4c-15 0 -6 26 -35 39c-6 3 -6 7 -1 12c13 13 26 25 32 43c2 5 13 13 20 2c8 -14 20 -19 34 -21z" />
    <glyph glyph-name="j" unicode="j" horiz-adv-x="176" 
d="M131 366l3 1c7 7 20 4 20 -1c0 0 -28 -223 -13 -373c4 -37 13 -91 -23 -135c-30 -36 -54 -39 -91 -39c-77 0 -124 31 -128 105c0 8 3 19 -13 33c5 3 9 3 13 0c20 -15 41 -12 62 0c10 6 22 10 29 19c1 2 2 3 3 3c3 0 11 -4 8 -10c-7 -15 -17 -49 -17 -54
c1 -13 16 -24 31 -24c68 0 58 434 43 465c-3 6 0 10 4 10c10 0 9 -19 28 -18c10 1 24 6 32 12zM151 451l1 -3c0 -8 2 -10 6 -19c0 -3 -4 -5 -8 -6c-15 -5 -26 -15 -35 -27c-15 -19 -26 7 -35 14c-18 15 -18 15 -5 35c19 27 20 38 33 39c6 0 14 -12 19 -12c0 0 9 3 14 3
c10 1 9 -9 10 -24z" />
    <glyph glyph-name="k" unicode="k" horiz-adv-x="324" 
d="M347 458h1c-13 -8 -135 -77 -133 -94c20 -209 114 -345 115 -348c-6 0 -12 -1 -17 -1c-13 0 -47 11 -85 -5c-10 -4 -15 -3 -16 8c-8 142 -20 191 -62 294c-16 -12 -25 -28 -38 -40c-3 -3 -4 -139 -4 -143c0 -103 13 -138 -19 -123c-37 18 -68 -11 -68 13
c0 0 36 232 36 458c0 47 -11 118 4 118c3 0 7 -1 14 -3c32 -12 63 10 72 10c4 0 8 -3 8 -8c0 0 -15 -24 -39 -232c57 35 103 79 142 131c7 9 13 10 19 0c16 -28 42 -21 70 -35z" />
    <glyph glyph-name="l" unicode="l" horiz-adv-x="156" 
d="M120 404l4 -2c0 -51 9 -97 9 -97s-27 -83 -27 -218c0 -31 2 -65 2 -65c0 -10 -4 -13 -13 -8c-15 9 -34 6 -45 -8c-3 -4 -4 -9 -10 -7c-13 5 2 13 -4 123c-3 49 3 100 -11 146c-3 10 -4 19 -4 28c0 0 42 205 42 313c0 16 -3 39 7 29c31 -31 76 9 76 -21
c0 0 -26 -143 -26 -213z" />
    <glyph glyph-name="m" unicode="m" horiz-adv-x="498" 
d="M507 -64c2 -3 3 -5 3 -7c0 -5 -11 -7 -16 -7c-22 0 -41 29 -79 16c-2 -1 -4 0 -6 -1c-26 -13 -19 -15 -19 74c0 54 -19 266 -19 267c0 3 0 6 -5 7c-1 -6 -3 -12 -3 -18c0 -46 -12 -90 -18 -135c-10 -74 -8 -97 -28 -97c-15 0 -30 20 -76 16c-11 -1 -17 -13 -29 -12
c8 62 -55 231 -78 286c-25 -117 -54 -251 -43 -299c2 -9 -7 -14 -14 -5c-15 19 -61 41 -99 19c-2 -1 -4 -2 -6 -2c-3 0 -7 3 -7 5s2 4 3 6c48 70 114 356 114 439c0 18 -5 40 -5 40c0 6 12 9 18 1c17 -25 36 -40 70 -40c11 0 20 2 20 2c4 0 6 -3 6 -6c0 -4 -6 -5 -8 -8
c-7 -8 -9 -16 -9 -25c0 -32 61 -268 87 -316c19 48 30 98 39 148c34 201 29 203 39 203s33 -36 97 -15c12 4 13 0 13 -8c0 -12 -11 -453 58 -528z" />
    <glyph glyph-name="n" unicode="n" horiz-adv-x="344" 
d="M188 371l-1 -2c160 0 142 -284 119 -351c-2 -6 2 -15 -4 -17c-7 -3 -8 7 -13 10c-15 8 -43 18 -59 7c-2 -1 -11 -7 -13 -7s-4 2 -4 4c0 1 1 2 2 3c13 26 16 52 17 80c1 44 7 74 -8 152c-6 32 -31 45 -54 45c-53 0 -81 -48 -81 -100c0 -4 -1 -143 20 -192v-3s-2 -3 -3 -3
c0 0 -20 8 -44 8c-36 0 -61 -15 -61 -15c-2 0 -5 6 -5 9c0 0 31 68 31 238v71c0 44 -15 87 -15 87c0 3 4 8 14 3s21 -4 31 -6c18 -3 27 15 35 15c3 0 7 -3 7 -6c0 -2 -2 -4 -3 -6c-13 -22 -14 -55 -16 -79c25 34 50 55 108 55z" />
    <glyph glyph-name="n" unicode="&#xf1;" horiz-adv-x="344" 
d="M188 371l-1 -2c160 0 142 -284 119 -351c-2 -6 2 -15 -4 -17c-7 -3 -8 7 -13 10c-15 8 -43 18 -59 7c-2 -1 -11 -7 -13 -7s-4 2 -4 4c0 1 1 2 2 3c13 26 16 52 17 80c1 44 7 74 -8 152c-6 32 -31 45 -54 45c-53 0 -81 -48 -81 -100c0 -4 -1 -143 20 -192v-3s-2 -3 -3 -3
c0 0 -20 8 -44 8c-36 0 -61 -15 -61 -15c-2 0 -5 6 -5 9c0 0 31 68 31 238v71c0 44 -15 87 -15 87c0 3 4 8 14 3s21 -4 31 -6c18 -3 27 15 35 15c3 0 7 -3 7 -6c0 -2 -2 -4 -3 -6c-13 -22 -14 -55 -16 -79c25 34 50 55 108 55z" />
    <glyph glyph-name="o" unicode="o" horiz-adv-x="389" 
d="M206 398c87 0 162 -69 162 -190c-3 -109 -84 -210 -186 -210c-82 0 -162 66 -162 185c0 102 76 215 186 215zM221 77v1c197 249 -110 351 -134 92c104 -5 134 -93 134 -93z" />
    <glyph glyph-name="o" unicode="&#xf8;" horiz-adv-x="389" 
d="M206 398c87 0 162 -69 162 -190c-3 -109 -84 -210 -186 -210c-82 0 -162 66 -162 185c0 102 76 215 186 215zM221 77v1c197 249 -110 351 -134 92c104 -5 134 -93 134 -93z" />
    <glyph glyph-name="o" unicode="&#xf6;" horiz-adv-x="389" 
d="M206 398c87 0 162 -69 162 -190c-3 -109 -84 -210 -186 -210c-82 0 -162 66 -162 185c0 102 76 215 186 215zM221 77v1c197 249 -110 351 -134 92c104 -5 134 -93 134 -93z" />
    <glyph glyph-name="o" unicode="&#xf5;" horiz-adv-x="389" 
d="M206 398c87 0 162 -69 162 -190c-3 -109 -84 -210 -186 -210c-82 0 -162 66 -162 185c0 102 76 215 186 215zM221 77v1c197 249 -110 351 -134 92c104 -5 134 -93 134 -93z" />
    <glyph glyph-name="o" unicode="&#xf4;" horiz-adv-x="389" 
d="M206 398c87 0 162 -69 162 -190c-3 -109 -84 -210 -186 -210c-82 0 -162 66 -162 185c0 102 76 215 186 215zM221 77v1c197 249 -110 351 -134 92c104 -5 134 -93 134 -93z" />
    <glyph glyph-name="o" unicode="&#xf3;" horiz-adv-x="389" 
d="M206 398c87 0 162 -69 162 -190c-3 -109 -84 -210 -186 -210c-82 0 -162 66 -162 185c0 102 76 215 186 215zM221 77v1c197 249 -110 351 -134 92c104 -5 134 -93 134 -93z" />
    <glyph glyph-name="o" unicode="&#xf2;" horiz-adv-x="389" 
d="M206 398c87 0 162 -69 162 -190c-3 -109 -84 -210 -186 -210c-82 0 -162 66 -162 185c0 102 76 215 186 215zM221 77v1c197 249 -110 351 -134 92c104 -5 134 -93 134 -93z" />
    <glyph glyph-name="p" unicode="p" horiz-adv-x="344" 
d="M137 71l-2 3c-8 0 -10 -3 -10 -11c0 -67 19 -161 19 -161c0 -5 -4 -7 -8 -10c-5 -4 -7 -1 -12 2c-48 26 -86 -5 -95 -5c-4 0 -9 3 -9 7c0 0 38 126 38 179c0 17 -30 12 -30 32c0 15 12 35 -5 67c-2 3 -4 6 0 10c9 -10 34 -17 37 -17c4 0 7 3 7 11c1 100 21 99 -17 88
c-3 -1 -5 -5 -8 -5s-9 5 -5 16c6 19 2 36 -7 53c-3 6 -1 7 4 8c9 3 18 7 27 8c11 1 14 6 14 14c0 11 -7 34 5 34c5 0 13 -4 19 -4c17 0 36 10 55 10h12c-12 -41 -15 -40 12 -40c85 0 145 -70 145 -137c0 -98 -110 -152 -186 -152zM124 184v-1c1 -7 -3 -17 6 -17
c13 0 95 22 95 68c0 13 -8 25 -26 34c-16 8 -51 14 -54 14c-12 0 -10 -8 -21 -98z" />
    <glyph glyph-name="q" unicode="q" horiz-adv-x="338" 
d="M275 357l-4 4c13 0 42 -9 42 -18c0 -5 -5 -10 -5 -15c-1 -13 -5 -26 -6 -40c0 -10 -2 -15 -14 -10c-11 5 -23 8 -36 13c-9 -51 -12 -91 -12 -101c0 -6 2 -6 8 -6c27 0 38 15 53 12c-22 -37 -18 -50 -18 -66c0 -6 3 -7 3 -12c0 -6 -9 -4 -15 -4c-11 0 -21 -2 -31 -3
c-7 -1 -16 9 -12 -151c1 -41 15 -69 15 -69c0 -3 -3 -5 -6 -5c-13 0 -40 43 -105 20c-3 -1 -7 0 -10 0c17 50 37 178 37 200c0 7 -3 10 -12 12c-181 41 -142 200 -63 229c22 8 44 17 68 17c7 0 21 -3 21 13c0 11 -6 24 -6 31s5 11 8 11s5 -4 7 -6c16 -16 34 -7 51 -4
c16 3 29 13 44 20c4 -43 -28 -72 -2 -72zM159 189h1c6 0 8 2 8 10c0 0 0 -3 0 96c-40 -6 -62 -34 -62 -52c0 -7 6 -54 53 -54z" />
    <glyph glyph-name="r" unicode="r" horiz-adv-x="312" 
d="M226 415l1 -4c64 0 98 -63 98 -127c0 -29 -10 -67 -19 -73c-25 -17 -7 43 -63 16c-3 -1 -6 -3 -9 -3c-4 0 -8 4 -8 7s4 6 5 8c16 22 21 46 21 73c0 75 -147 26 -147 -133c0 -30 6 -94 21 -147c2 -7 5 -13 13 -16c-7 -8 -14 -6 -34 -6c-17 0 -63 -1 -73 -15
c-5 -6 -12 -2 -12 4c0 0 23 96 23 258c0 93 -2 120 -9 147c-2 9 -1 16 9 16c14 0 26 -14 57 -14c23 0 29 11 49 3l-18 -39c21 11 44 45 95 45z" />
    <glyph glyph-name="s" unicode="s" horiz-adv-x="277" 
d="M277 295l-2 -4c1 -5 2 -11 -4 -13c-5 -2 -9 -1 -14 4c-21 19 -42 30 -74 8c-4 -3 -9 -7 -14 -2s0 8 3 12c7 12 8 26 9 39c1 12 -11 19 -29 20c-37 1 -74 -50 -61 -85c8 -21 29 -21 47 -26h4c28 7 50 -4 71 -21c22 -17 32 -41 40 -67c13 -39 -2 -70 -26 -98
c-16 -19 -31 -41 -59 -45c-44 -7 -87 -8 -124 22c-28 23 -46 83 -35 117c2 6 6 6 10 3c3 -2 5 -6 8 -9c14 -15 33 -16 48 -2c3 3 5 6 8 8s7 5 11 2c4 -4 -1 -6 -2 -9c-5 -12 -8 -24 -3 -37c7 -20 17 -28 38 -23s38 17 50 36c5 8 4 16 4 24c0 30 -20 47 -51 44
c-46 -5 -83 18 -98 47c-20 39 -14 89 14 122c26 31 59 50 98 58c43 9 109 -14 123 -74c4 -17 7 -34 10 -51z" />
    <glyph glyph-name="t" unicode="t" horiz-adv-x="155" 
d="M268 465l1 -2c0 -9 -11 -15 -11 -30c0 -34 13 -21 8 -51c-21 7 -135 9 -150 9c-4 0 -5 -2 -6 -7c-9 -49 -7 -81 -8 -110c-2 -118 30 -279 30 -279c0 -8 -12 -11 -19 -4c-40 40 -118 -7 -118 14c0 0 48 52 30 381c-23 1 -45 3 -67 -3c-3 -1 -8 -8 -11 -1c-1 3 -3 6 -3 10
c0 8 12 22 12 40s-5 24 -5 32c0 18 23 5 35 3c9 -2 19 -2 28 -6c21 -9 16 6 16 29c0 78 5 -23 92 32c4 -18 -4 -32 -4 -56c0 -4 1 -5 5 -5c3 0 114 -1 133 8c2 1 5 3 7 3c3 0 5 -4 5 -7z" />
    <glyph glyph-name="u" unicode="u" horiz-adv-x="352" 
d="M357 423l-1 1c3 0 7 -2 7 -5s-3 -6 -4 -9c-37 -74 -24 -408 -195 -408c-105 0 -157 132 -147 204c1 44 -4 118 -18 146c-1 2 -3 4 -3 6s4 6 9 6c12 0 23 -28 44 -28c8 0 17 4 32 10c5 2 9 8 15 6c3 -1 8 -1 8 -4c0 0 -8 -28 -8 -115c0 -54 13 -151 65 -151
c74 0 97 172 97 237c0 35 3 112 3 112c0 3 2 4 5 4c10 0 19 -31 34 -31s50 19 57 19z" />
    <glyph glyph-name="u" unicode="&#xfc;" horiz-adv-x="352" 
d="M357 423l-1 1c3 0 7 -2 7 -5s-3 -6 -4 -9c-37 -74 -24 -408 -195 -408c-105 0 -157 132 -147 204c1 44 -4 118 -18 146c-1 2 -3 4 -3 6s4 6 9 6c12 0 23 -28 44 -28c8 0 17 4 32 10c5 2 9 8 15 6c3 -1 8 -1 8 -4c0 0 -8 -28 -8 -115c0 -54 13 -151 65 -151
c74 0 97 172 97 237c0 35 3 112 3 112c0 3 2 4 5 4c10 0 19 -31 34 -31s50 19 57 19z" />
    <glyph glyph-name="u" unicode="&#xfb;" horiz-adv-x="352" 
d="M357 423l-1 1c3 0 7 -2 7 -5s-3 -6 -4 -9c-37 -74 -24 -408 -195 -408c-105 0 -157 132 -147 204c1 44 -4 118 -18 146c-1 2 -3 4 -3 6s4 6 9 6c12 0 23 -28 44 -28c8 0 17 4 32 10c5 2 9 8 15 6c3 -1 8 -1 8 -4c0 0 -8 -28 -8 -115c0 -54 13 -151 65 -151
c74 0 97 172 97 237c0 35 3 112 3 112c0 3 2 4 5 4c10 0 19 -31 34 -31s50 19 57 19z" />
    <glyph glyph-name="u" unicode="&#xfa;" horiz-adv-x="352" 
d="M357 423l-1 1c3 0 7 -2 7 -5s-3 -6 -4 -9c-37 -74 -24 -408 -195 -408c-105 0 -157 132 -147 204c1 44 -4 118 -18 146c-1 2 -3 4 -3 6s4 6 9 6c12 0 23 -28 44 -28c8 0 17 4 32 10c5 2 9 8 15 6c3 -1 8 -1 8 -4c0 0 -8 -28 -8 -115c0 -54 13 -151 65 -151
c74 0 97 172 97 237c0 35 3 112 3 112c0 3 2 4 5 4c10 0 19 -31 34 -31s50 19 57 19z" />
    <glyph glyph-name="u" unicode="&#xf9;" horiz-adv-x="352" 
d="M357 423l-1 1c3 0 7 -2 7 -5s-3 -6 -4 -9c-37 -74 -24 -408 -195 -408c-105 0 -157 132 -147 204c1 44 -4 118 -18 146c-1 2 -3 4 -3 6s4 6 9 6c12 0 23 -28 44 -28c8 0 17 4 32 10c5 2 9 8 15 6c3 -1 8 -1 8 -4c0 0 -8 -28 -8 -115c0 -54 13 -151 65 -151
c74 0 97 172 97 237c0 35 3 112 3 112c0 3 2 4 5 4c10 0 19 -31 34 -31s50 19 57 19z" />
    <glyph glyph-name="v" unicode="v" horiz-adv-x="249" 
d="M328 489h2c0 -1 -177 -359 -177 -463v-9c0 -17 -11 -28 -24 -21c-32 17 -66 7 -78 7c-14 0 -9 10 -9 62c0 151 -65 373 -65 376s1 5 5 5c6 0 10 -4 22 -4c32 0 65 33 66 7c1 -58 32 -271 47 -303c57 132 106 344 106 352c0 4 -1 8 -1 12c0 3 1 6 6 8c2 1 3 1 4 1
c8 0 3 -12 9 -16c38 -25 47 -7 74 -7c6 0 13 -1 13 -7z" />
    <glyph glyph-name="w" unicode="w" horiz-adv-x="495" 
d="M412 38l1 3c3 -5 13 -7 13 -12c0 -8 -14 -1 -22 1c-27 7 -51 1 -73 -15c-9 -7 -15 -6 -18 6c-14 61 -23 217 -70 341c-49 -123 -86 -292 -86 -311c0 -12 4 -23 13 -32c2 -2 4 -4 4 -6c0 -5 -6 -6 -10 -5c-6 1 -12 2 -18 2c-27 0 -49 -13 -67 -36c-4 -5 -7 -10 -12 -10
c-3 0 -9 2 -9 6c0 3 2 7 3 10c2 9 3 18 3 27c0 173 -109 442 -110 445c24 7 31 -17 106 23c3 1 6 2 8 2c6 0 7 -5 5 -11c-3 -9 -4 -18 -4 -27c0 -28 23 -177 47 -264c36 91 72 182 81 282c1 0 5 -3 6 -4c40 -29 76 6 96 6c27 0 10 -24 55 -261c13 20 125 322 125 344
c0 4 -1 8 -1 8c0 1 1 3 2 3h1c2 0 4 -1 6 -3c14 -18 33 -21 52 -21c35 0 58 7 58 -6c0 -8 -210 -371 -210 -424c0 -3 1 -6 3 -9c8 -17 13 -35 22 -52z" />
    <glyph glyph-name="x" unicode="x" horiz-adv-x="297" 
d="M186 217l-3 4c0 -3 76 -146 134 -194c-51 -6 -88 -26 -115 -70c-12 71 -28 135 -57 197c-27 -50 -52 -100 -63 -157c-31 32 -67 35 -109 20c35 33 138 199 138 205c0 2 -1 4 -2 6c-87 145 -64 126 -121 187c5 -1 10 -2 15 -2c23 0 39 13 54 28c5 5 8 12 15 12
c12 0 12 -12 14 -18c15 -49 29 -98 56 -142c2 -3 2 -9 7 -9c10 0 78 152 92 152c2 0 4 -2 5 -7c5 -24 19 -40 43 -47c5 -1 8 -4 8 -10c0 -2 -1 -4 -4 -5c-20 -5 -28 -24 -38 -39c-4 -6 -69 -104 -69 -111z" />
    <glyph glyph-name="y" unicode="y" horiz-adv-x="261" 
d="M344 467v-2c4 0 7 -4 7 -6c0 0 -205 -272 -272 -496c-3 -11 -4 -16 -7 -16s-7 4 -14 11c-13 12 -34 16 -49 16c-6 0 -12 -1 -18 -2c-3 -1 -6 -2 -10 -2c-1 0 -3 0 -5 1c19 31 42 60 60 92c21 38 41 76 64 113c2 3 3 6 3 9c0 21 -44 214 -74 239c2 1 4 1 6 1
c9 0 14 -10 31 -10c15 0 28 9 36 22c2 4 4 8 9 8c7 0 9 -5 9 -12c4 -65 28 -128 34 -160c87 156 81 173 110 224c3 5 8 5 10 1c8 -24 29 -34 49 -34c9 0 21 3 21 3z" />
    <glyph glyph-name="y" unicode="&#xff;" horiz-adv-x="261" 
d="M344 467v-2c4 0 7 -4 7 -6c0 0 -205 -272 -272 -496c-3 -11 -4 -16 -7 -16s-7 4 -14 11c-13 12 -34 16 -49 16c-6 0 -12 -1 -18 -2c-3 -1 -6 -2 -10 -2c-1 0 -3 0 -5 1c19 31 42 60 60 92c21 38 41 76 64 113c2 3 3 6 3 9c0 21 -44 214 -74 239c2 1 4 1 6 1
c9 0 14 -10 31 -10c15 0 28 9 36 22c2 4 4 8 9 8c7 0 9 -5 9 -12c4 -65 28 -128 34 -160c87 156 81 173 110 224c3 5 8 5 10 1c8 -24 29 -34 49 -34c9 0 21 3 21 3z" />
    <glyph glyph-name="y" unicode="&#xfd;" horiz-adv-x="261" 
d="M344 467v-2c4 0 7 -4 7 -6c0 0 -205 -272 -272 -496c-3 -11 -4 -16 -7 -16s-7 4 -14 11c-13 12 -34 16 -49 16c-6 0 -12 -1 -18 -2c-3 -1 -6 -2 -10 -2c-1 0 -3 0 -5 1c19 31 42 60 60 92c21 38 41 76 64 113c2 3 3 6 3 9c0 21 -44 214 -74 239c2 1 4 1 6 1
c9 0 14 -10 31 -10c15 0 28 9 36 22c2 4 4 8 9 8c7 0 9 -5 9 -12c4 -65 28 -128 34 -160c87 156 81 173 110 224c3 5 8 5 10 1c8 -24 29 -34 49 -34c9 0 21 3 21 3z" />
    <glyph glyph-name="z" unicode="z" horiz-adv-x="469" 
d="M421 428l-2 -2c1 -28 27 -46 27 -58c0 -4 -4 -7 -12 -10c-77 -55 -277 -243 -287 -293c84 4 208 22 245 40c1 1 2 1 3 1s4 -2 4 -6v-6c-10 -40 10 -67 10 -80c0 -6 -4 -9 -13 -9c0 0 -121 9 -188 9c-135 0 -157 -13 -217 -38c-14 20 4 36 4 54c0 1 1 2 1 3
c0 0 -1 5 -1 11c0 25 22 37 40 51c200 156 296 275 297 278c-103 -10 -207 -6 -307 -40c0 2 -1 6 1 7c15 14 15 34 20 52c4 15 0 29 -12 38c-3 2 -6 3 -5 7c1 2 3 3 5 3c0 0 95 -12 130 -12c24 0 25 3 55 3c20 0 34 -1 53 -1c40 0 137 10 137 10c8 0 12 -5 12 -12z" />
    <glyph glyph-name="asciitilde" unicode="~" horiz-adv-x="545" 
d="M447 256l-1 1c20 -6 18 -56 77 -64c-7 -21 -25 -25 -41 -31c-67 -25 -113 -6 -176 12c-67 19 -131 22 -191 -18c-11 31 -23 61 -63 67c92 92 249 -1 375 32c9 2 15 2 20 1z" />
    <glyph glyph-name="nonbreakingspace" unicode="&#xa0;" horiz-adv-x="284" 
 />
    <glyph glyph-name="exclamdown" unicode="&#xa1;" horiz-adv-x="227" 
d="M193 461l-2 -1h6c-20 -24 -28 -111 -28 -139c0 -63 14 -56 14 -86c0 -33 -20 -63 -20 -141c0 -86 25 -157 25 -157c0 -3 -2 -6 -4 -6s-4 1 -6 2c-25 9 -45 27 -85 27c-19 0 -38 -5 -57 -13c-3 -1 -6 -3 -11 -3h-3c0 2 4 5 4 8c0 2 -1 3 -5 4v0s53 76 53 192
c0 59 -10 57 -10 79c0 23 9 30 9 88c0 38 -7 119 -44 130c5 3 9 4 13 4s8 -1 11 -2c18 -7 36 -10 54 -10c23 0 46 6 69 17c11 5 14 7 17 7zM196 565l1 -1c4 0 8 -2 8 -6c0 -2 -1 -4 -3 -7c-12 -18 -24 -36 -26 -58c0 -3 -2 -4 -4 -4c-5 0 -5 7 -13 7c-2 0 -4 -1 -6 -2
c-17 -10 -37 -15 -49 -32c-2 -3 -5 -4 -8 -4c-6 0 -7 2 -7 5v3c0 30 -16 71 -53 90c21 12 67 34 73 57c1 4 -1 9 6 9c14 0 32 -57 76 -57h5z" />
    <glyph glyph-name="sterling" unicode="&#xa3;" horiz-adv-x="528" 
d="M495 40l-3 -6c5 -1 12 0 12 -6c0 -4 -2 -8 -7 -8c0 0 -75 21 -181 21c-135 0 -200 -10 -252 -32c-3 -1 -6 -3 -11 -3c-6 0 -9 5 -9 8s2 5 4 7c60 56 75 167 70 225c-21 -4 -41 -8 -59 -20c-6 -4 -10 -1 -10 6c0 25 -9 46 -25 65c-3 3 -6 7 -6 11c0 3 2 7 5 7s6 -4 9 -5
c25 -6 50 -4 75 -4c10 0 12 -1 14 12c15 129 104 268 234 268c49 0 89 -18 119 -53c5 -6 7 -14 10 -24c-8 4 -15 6 -22 6c-24 0 -64 -26 -55 -54c2 -5 -1 -7 -7 -7c-4 0 -7 2 -9 7c-61 147 -191 -79 -191 -144c0 -5 3 -7 8 -7c4 0 99 8 102 8c5 0 8 -3 8 -6
c0 -4 -4 -7 -7 -10c-6 -8 -8 -16 -8 -24c0 -5 2 -31 4 -36c2 -4 3 -6 -2 -8c-3 -1 -6 -4 -9 -1c-15 15 -71 16 -89 22c-32 11 -5 -55 -31 -138c-4 -13 43 -11 49 -11c14 -1 28 -2 42 -2c28 0 113 7 203 35c4 1 8 2 12 2c14 0 14 -14 11 -14c-2 0 -4 3 -6 3v0
c-1 -1 -3 -1 -4 -2c-13 -15 -20 -32 -20 -51c0 -22 9 -30 32 -37z" />
    <glyph glyph-name="softhyphen" unicode="&#xad;" 
 />
    <glyph glyph-name="questiondown" unicode="&#xbf;" horiz-adv-x="437" 
d="M411 223v-1c1 -14 6 -28 4 -43c-14 -190 -155 -240 -229 -240c-79 0 -166 64 -166 163c0 135 134 106 134 282c0 42 -8 43 1 47c5 3 11 2 15 -2c38 -40 69 -21 87 -21c10 0 17 -5 17 -14c0 -203 -130 -170 -130 -278c0 -36 20 -56 51 -56c55 0 91 55 91 92
c0 21 3 43 -12 62c-5 7 7 12 14 7c13 -10 27 -15 41 -15c47 0 49 43 71 38c6 -1 9 -7 9 -13c0 -3 2 -5 2 -8zM135 497v2c-3 0 -9 3 -9 7c0 3 4 5 7 7c26 19 46 42 51 75c1 4 2 6 9 6c6 0 10 -4 12 -10c22 -49 73 -52 85 -60c-10 -12 -39 -34 -47 -66c-1 -5 -4 -8 -8 -8
c-6 0 -9 6 -19 6c-9 0 -14 -6 -24 -6c-24 0 -16 42 -57 47z" />
    <glyph glyph-name="Thorn" unicode="&#xde;" horiz-adv-x="455" 
d="M261 507h-4c111 0 172 -77 172 -179c0 -84 -61 -167 -181 -167c-20 0 -40 1 -61 6c7 -35 14 -68 21 -102h-3c-19 0 -23 12 -62 12c-20 0 -40 -4 -58 -14c-4 -2 -8 -7 -12 -7c-3 0 -7 3 -7 9c0 0 11 80 11 108c0 8 -2 11 -6 11c-10 0 -31 -12 -42 -16c-1 3 -2 6 -2 9
c0 9 5 17 7 25c5 17 6 34 6 52c0 17 -1 29 -1 29c0 3 1 5 4 7h3c3 0 5 -4 8 -6c9 -5 18 -11 30 -14c0 15 4 29 4 43v11c0 25 4 50 4 75c0 16 -1 24 -8 24c-2 0 -5 -1 -9 -3c-8 -4 -17 -6 -25 -10c-2 -1 -4 -2 -5 -2c-3 0 -4 3 -4 16c0 11 4 12 4 23c0 23 -25 45 -25 56
c0 3 2 7 5 7s6 -3 9 -4c12 -3 24 -5 37 -5c11 0 14 0 14 4v3c-6 24 -2 50 -14 72c-1 1 -1 2 -1 3c0 5 6 10 10 10c1 0 2 0 3 -1c17 -10 34 -14 51 -14c21 0 42 6 63 14c6 2 10 3 12 3s3 -1 3 -4c0 -6 -12 -78 -12 -81s1 -6 15 -6c2 0 27 3 46 3zM212 252h2
c51 0 113 26 113 79c0 36 -46 100 -123 100c-13 0 -18 0 -18 -8v-7c0 -19 -4 -38 -4 -57c0 -5 0 -10 1 -15v-12c0 -21 -4 -42 -4 -63v-6v-3c0 -2 1 -4 6 -5c9 -2 18 -3 27 -3z" />
    <glyph glyph-name="thorn" unicode="&#xfe;" horiz-adv-x="297" 
d="M154 439l4 5c80 0 121 -79 121 -122c0 -53 -53 -106 -103 -106h-9h-6c-6 0 -13 1 -19 1s-10 -2 -10 -8s4 -14 4 -21c1 -15 1 -30 7 -44c1 -2 1 -3 1 -4c0 -4 -6 -7 -9 -7c-2 0 -4 1 -5 2c-11 14 -22 19 -33 19c-22 0 -41 -19 -51 -19h-7c3 15 15 60 15 70c0 3 -1 4 -3 4
c-8 0 -16 -10 -23 -10c-4 0 -9 4 -9 9c0 6 6 12 8 17c2 7 3 14 3 20c0 9 -2 18 -7 27c-1 2 -3 5 -3 8s3 7 6 7s6 -2 9 -3c8 -2 16 -4 25 -6c2 29 4 58 6 89c-2 -1 -35 -13 -37 -13c-4 0 -7 4 -7 8c0 1 0 2 1 3c4 7 6 14 6 21c0 11 -4 22 -8 33c-1 2 -2 4 -2 6s2 4 5 4
c0 0 17 -5 26 -5c11 0 14 6 14 23s-1 33 -7 46c1 1 2 1 3 1c4 0 7 -2 11 -4c8 -4 16 -7 24 -7c20 0 35 20 45 20c3 0 8 -2 8 -5c0 -2 -2 -4 -3 -6c-1 -4 -9 -40 -9 -45s3 -8 10 -8h8zM140 279h-1c20 0 85 14 85 56c0 26 -38 46 -66 46c-13 0 -31 -4 -31 -18c0 0 1 -8 1 -15
v-21v-21s-1 -15 -1 -15c0 -9 5 -12 13 -12z" />
    <glyph glyph-name="Euro" unicode="&#x20ac;" horiz-adv-x="416" 
d="M341 521l8 -1c35 -25 59 -83 52 -118c-3 -15 -20 -20 -24 -20c-6 0 -9 6 -13 11c-23 15 -25 15 -46 4c-4 -2 -9 -10 -16 -10c-4 0 -7 4 -8 11c-4 22 -3 60 -25 72c-7 4 -14 6 -21 6c-36 -1 -62 -60 -62 -64c0 -2 2 -4 5 -4c2 0 1 0 24 9c1 -24 -8 -47 9 -71
c-32 10 -57 22 -57 2v-6v-3v-4c0 -8 -5 -18 1 -21c9 -4 22 -2 32 0c3 1 6 2 9 2c5 0 7 -3 7 -6c0 -7 -11 -7 -11 -20c0 -5 2 -10 3 -15c1 -3 4 -7 4 -11c0 -3 -3 -6 -6 -6s-6 3 -9 3c-7 1 -13 6 -21 4c10 -22 21 -61 46 -61c63 0 49 81 66 81c8 0 6 -7 8 -11
c8 -15 19 -23 32 -23c11 0 21 5 30 9c4 2 9 6 14 6s11 -5 11 -15s-35 -142 -156 -142c-64 0 -133 84 -144 152c-1 4 -3 5 -5 5s-4 -1 -6 -2c-11 -4 -24 -5 -35 -13c-5 11 1 22 1 33c0 3 0 6 -1 9c-3 6 -2 14 -9 19c-4 3 -4 8 -2 11c5 8 24 -8 35 -8c16 0 10 20 10 30
c0 7 5 20 -5 20c-3 0 -7 -1 -11 -2c-7 -2 -16 -2 -24 -5c-2 -1 -3 -1 -4 -1c-3 0 -6 3 -6 5s1 3 2 5c5 9 9 18 9 27c0 6 -2 12 -7 19c-1 1 -2 3 -2 5s1 4 4 4c1 0 38 -7 45 -9c9 -3 13 0 16 8c26 67 94 124 165 124c35 0 57 -1 88 -24z" />
    </font>
</defs>
</svg>
