<?xml version="1.0" standalone="no"?>
<!DOCTYPE svg PUBLIC "-//W3C//DTD SVG 1.1//EN" "http://www.w3.org/Graphics/SVG/1.1/DTD/svg11.dtd" >
<svg>
<metadata>
Created by FontForge 20120731 at Fri Oct 18 14:36:09 2019
 By www-data
Copyright (c) Typographer Mediengestaltung, 2001. All rights reserved.
</metadata>
<defs>
<font id="Coaster-Shadow" horiz-adv-x="452" >
  <font-face 
    font-family="Coaster Shadow"
    font-weight="400"
    font-stretch="normal"
    units-per-em="1000"
    panose-1="2 0 5 6 2 0 0 2 0 4"
    ascent="800"
    descent="-200"
    x-height="645"
    cap-height="810"
    bbox="9 -288 1427 1058"
    underline-thickness="20"
    underline-position="-123"
    unicode-range="U+000D-E002"
  />
<missing-glyph horiz-adv-x="500" 
 />
    <glyph glyph-name=".notdef" horiz-adv-x="500" 
 />
    <glyph glyph-name="dotlessi" unicode="&#xd;" horiz-adv-x="288" 
d="M226 165q0 -20 -0.5 -44.5t-1.5 -54.5q1 -4 0.5 -12t-1.5 -22q-8 -32 -110 -32q-63 0 -68 26v26q0 25 2 61t6 85q9 97 9 146q0 26 -2 52.5t-6 52.5q-1 5 -1.5 10t-1.5 10q-1 2 -4 10.5t-10 22.5q-9 19 -9 34q0 16 7 26l3 3t7 6q31 23 118 34q25 3 32 3q23 0 30 -16
q-3 -56 -3 -129q0 -8 0.5 -45.5t1.5 -103.5zM266 135l-2 149q-1 39 -1.5 68t-0.5 48v33q0 75 3 131q-10 20 -31 23q0 2 0.5 3.5t0.5 3.5q-11 24 -40 24q-8 0 -33 -3q-88 -10 -123 -36q-5 -4 -8 -7l-4 -4q-9 -14 -9 -32q0 -8 2.5 -17.5t7.5 -20.5q6 -14 8.5 -21t4.5 -10
q0 -5 1 -8q0 -7 2 -11q4 -26 6 -52t2 -52q0 -48 -9 -145q-4 -49 -6 -85.5t-2 -61.5v-28q3 -21 30 -28v-2q6 -34 78 -34q109 0 120 40q0 3 0.5 6.5t0.5 5.5q0 5 0.5 8.5t0.5 6.5t-0.5 5t-0.5 4q0 5 0.5 10.5t0.5 10.5q1 23 1 42v36z" />
    <glyph glyph-name="fraction" horiz-adv-x="523" 
d="M183 149q-8 -20 -20.5 -50t-29.5 -70l-6 -12t-7 -11q-8 -6 -39 -6q-11 1 -18 1h-9q-28 0 -25 -1q-9 9 -9 10q0 -3 62 135q22 52 81 186q5 10 20.5 46t41.5 100q4 8 13 28t25 52q4 8 16.5 35.5t33.5 74.5q8 19 15.5 37t15.5 37q27 59 46 59q22 0 66 -3q17 0 17 -13
q-2 -4 -4 -9.5t-5 -12.5q-2 -3 -9 -16.5t-20 -38.5q-3 -4 -16 -35q-12 -28 -34.5 -78.5t-54.5 -124.5l-9 -18l-16 -30q-3 -8 -8.5 -21.5t-13.5 -33.5q-2 -5 -5.5 -13t-8.5 -19t-17.5 -37.5t-32.5 -69.5q-2 -7 -7 -17.5t-12 -26.5zM239 149q3 6 5.5 11.5t4.5 10.5q3 7 5 12.5
t4 9.5q5 11 9.5 20l8.5 17q13 27 20.5 44.5t11.5 25.5q2 5 4.5 10.5t4.5 11.5v-1q2 4 3 7t2 5v-1q6 15 10.5 26.5t7.5 19.5v-1q1 2 1.5 4.5t2.5 6.5v-2l16 30l9 19q11 24 20.5 45.5t17.5 40.5q34 79 51 117q8 17 11 25t4 9q1 3 3.5 7.5t6.5 10.5l14 28t5 9q2 5 4 9.5t4 8.5
q1 2 2 4.5t1 4.5q0 21 -26 23h-6q2 6 2 7q0 21 -26 23q-44 3 -67 3q-25 0 -55 -65q-8 -19 -15.5 -37t-15.5 -37q-17 -36 -28 -61t-17 -38q-2 -4 -3 -6.5t-2 -4.5q-14 -27 -22 -45.5t-13 -28.5q-4 -6 -4 -9q-25 -60 -39.5 -94t-19.5 -44q-29 -67 -50.5 -116t-32.5 -75
q-11 -24 -19 -46.5t-13 -41t-8 -32t-3 -19.5h-20q0 -5 12 -17l7 16l9 -9q0 -7 4 -8t12 -1h7q-1 -4 -1 -11h-20q0 -5 12 -17l7 17l9 -10q0 -7 4 -8t12 -1h8q7 0 18 -1q36 0 47 9q5 7 8.5 13t6.5 13q35 82 50 121v-1z" />
    <glyph glyph-name="fi" horiz-adv-x="690" 
d="M597 165v-55q0 -24 -1 -43q0 -4 -0.5 -12.5t-1.5 -22.5q-8 -32 -110 -32q-63 0 -68 26v27q0 49 9 145q9 97 9 146q0 15 -9 105q-1 5 -1 10t-1 10q-2 4 -15 33q-9 19 -9 34q0 16 7 26q1 1 3.5 3l7.5 6q31 23 117 34q25 3 32 3q24 0 30 -16q-1 -37 -1.5 -69t-0.5 -60v-79
t1 -70zM630 719q0 -43 -34 -71q-34 -29 -76 -29q-50 0 -72 5q-33 8 -52 45q-5 -26 -12 -36q-12 -18 -40 -30t-53 -12q-52 0 -52 27q3 6 3 15q0 8 -1 11q-6 9 -14 9q-5 0 -7 -1q-12 -12 -12 -30q0 -2 0.5 -7t1.5 -11t1.5 -11.5t0.5 -6.5q13 -18 45 -18q2 0 7.5 0.5t11.5 0.5
t11.5 0.5t8.5 0.5q44 0 50 -49v-59q0 -56 -9 -89q-10 -8 -43 -11q-30 -3 -39 -17q-2 -8 -2 -34q0 -23 1 -57.5t3 -80.5t3 -80t1 -57q-17 -35 -72 -35h-35h-21q-6 -1 -10 -1h-5q-12 0 -22 10q-13 27 -13 74v65q0 32 1 63l2 129q-5 8 -31 17q-21 9 -23 27q-3 60 -3 85
q0 54 10 75q3 7 18 14q15 9 16 10q9 231 192 231q105 0 128 -75q12 37 55 58q37 18 81 18q40 0 69 -20q32 -23 32 -62zM637 135l-2 149q-1 33 -1 70v79q0 24 0.5 51.5t1.5 59.5v18q-7 22 -30 25v5q7 4 13.5 8t13.5 10h-1q38 31 38 79q0 44 -36 70q-2 1 -2.5 1.5t-2.5 1.5
q-8 13 -25 27q-33 22 -75 22q-46 0 -85 -19q-32 -15 -49 -39q-2 2 -6 4q-33 53 -124 53q-192 0 -202 -236q-2 -1 -11 -6h1q-18 -9 -23 -19q-11 -23 -11 -79q0 -26 3 -86q1 -23 29 -35l1 -1q5 -17 23 -27l-1 -109q-1 -31 -1 -63v-65q0 -23 3.5 -43t11.5 -37q12 -12 23 -13
q3 -9 7 -17q14 -14 30 -14h6t10 1h55q60 0 82 43q0 23 -1 58t-3 81t-3 80.5t-1 57.5q0 24 1 29q9 9 31 12q36 3 51 16q10 36 10 94v60q-6 43 -36 54q-1 4 -4 8q23 5 44 16.5t32 26.5q2 3 4 7t4 9q9 -11 17 -16q-11 -5 -20 -9t-16 -9q-5 -4 -8.5 -7t-4.5 -4q-9 -14 -9 -32
t10 -38q5 -12 8.5 -19t5.5 -10q0 -2 0.5 -5t0.5 -5v-6q0 -2 2 -7l-1 2q9 -90 9 -104q0 -48 -9 -145q-9 -96 -9 -146v-29q3 -21 30 -28v-2q6 -34 78 -34q109 0 120 40q0 5 0.5 11t0.5 10q0 6 0.5 10t0.5 6q1 19 1 43v55zM257 578h-8q-1 3 -1 5v5q2 -1 5 -2l6 -2q0 -2 2 -6h-4
zM414 466l-1 3q0 -2 0.5 -2.5z" />
    <glyph glyph-name="fl" horiz-adv-x="664" 
d="M602 783q0 -8 -0.5 -66t-1.5 -167l-2 -234v-106q0 -44 1 -73v-16q0 -10 1 -27q1 -13 1 -24v-18q0 -30 -52 -43q-35 -9 -77 -9q-40 0 -50 22q-6 13 -6 60q0 8 1 33.5t3 68.5q7 140 10 220t3 102q0 31 -1 61t-3 60q0 4 -0.5 11t-1.5 17q-2 11 -13 32q-11 25 -11 41
q0 40 83 60q52 12 82 12q15 0 28 -5zM398 691q0 -64 -55 -88q-29 -12 -52 -12q-52 0 -52 27q3 6 3 15q0 8 -1 11q-6 9 -14 9q-5 0 -7 -1q-12 -12 -12 -30q0 -2 0.5 -7t1.5 -11t1.5 -11.5t0.5 -6.5q13 -18 45 -18q2 0 7.5 0.5t11.5 0.5t11.5 0.5t8.5 0.5q44 0 50 -49v-59
q0 -56 -9 -89q-10 -8 -43 -11q-30 -3 -39 -17q-2 -8 -2 -34q0 -23 1 -57.5t3 -80.5t3 -80t1 -57q-17 -35 -72 -35h-35h-21q-6 -1 -10 -1h-5q-12 0 -22 10q-13 27 -13 74v65q0 32 1 63l2 129q-5 8 -31 17q-21 9 -23 27q-3 60 -3 85q0 54 10 75q3 7 18 14q15 9 16 10
q9 231 192 231q55 0 92 -26q41 -29 41 -83zM642 755l-9 18q-5 2 -10.5 3.5t-10.5 2.5v6l-9 18q-9 3 -17.5 5t-17.5 2q-32 0 -84 -12q-70 -18 -86 -50q-2 2 -3 2.5t-2 1.5q-1 0 -1.5 0.5l-0.5 0.5q-10 16 -28 29q-40 28 -98 28q-192 0 -202 -236q-2 -1 -11 -6h1
q-18 -9 -23 -19q-11 -23 -11 -79q0 -26 3 -86q1 -23 29 -35l1 -1q5 -17 23 -27l-1 -109q-1 -31 -1 -63v-65q0 -23 3.5 -43t11.5 -37q12 -12 23 -13q3 -9 7 -17q14 -14 30 -14h6t10 1h55q60 0 82 43q0 23 -1 58t-3 81t-3 80.5t-1 57.5q0 24 1 29q9 9 31 12q36 3 51 16
q10 36 10 94v60q-6 43 -36 54q-2 4 -4 7q8 2 15.5 4.5t15.5 6.5q29 12 44 33q1 -23 1.5 -45.5t0.5 -45.5q0 -22 -3 -102t-10 -220v1q-2 -43 -3 -69t-1 -34q0 -49 7 -64q7 -17 27 -23q1 -3 3 -7q13 -28 59 -28q45 0 80 9h-1q60 15 60 53v19t-1 24v-1q-1 17 -1 27v16
q-1 29 -1 73v106l2 234q1 75 1.5 125.5t0.5 77.5v32zM257 578h-8q-1 3 -1 5v5q2 -1 5 -2l6 -2q0 -2 2 -6h-4z" />
    <glyph glyph-name="Lslash" horiz-adv-x="548" 
d="M325 534q7 1 21 6q10 10 18 10q12 0 38 -50t26 -66l-1 -7q0 -7 -48 -29q-23 -11 -38.5 -17t-23.5 -8v-51q0 -59 36 -59q18 0 49 19q32 19 49 19q20 0 35 -25q6 -68 6 -112q0 -104 -16 -135q-13 -28 -260 -28q-49 0 -70 8q-32 14 -32 57q0 22 0.5 49t1.5 61l3 109
q-20 -8 -32 -15q-11 0 -36 52q-25 51 -25 68q0 14 8 17q14 8 36.5 16.5t51.5 19.5q0 1 0.5 20l1.5 57q1 19 1 38v40q0 21 -14 72q-13 48 -13 71q0 33 64 49q46 11 95 11q15 0 28.5 -1t24.5 -3l15 -11q7 -13 11 -24q0 -29 -3 -86t-8 -142zM333 792l-19 15q-11 2 -25.5 3
t-31.5 1q-51 0 -97 -11q-72 -18 -72 -59q0 -26 13 -74q14 -51 14 -69v-40q0 -19 -1 -38q-1 -28 -1.5 -45t-0.5 -25q-30 -11 -51 -19.5t-32 -14.5h1q-14 -6 -14 -26q0 -19 26 -72q26 -55 45 -58q9 -16 20 -25l-1 -59q0 -7 -0.5 -13.5t-0.5 -12.5q-1 -25 -1 -46v-38
q0 -50 36 -65q9 -22 32 -31q21 -9 74 -9q253 0 269 34v-1q17 31 17 140q0 48 -6 116q-13 22 -30 28v2q-18 31 -45 31q-21 0 -54 -20q-26 -15 -39 -18q-1 5 -1 9v10v43q16 4 56 24q26 12 39.5 20.5t14.5 16.5l1 7q0 21 -27 72q-25 50 -43 54q-18 27 -30 30q4 62 6 105.5
t2 67.5q-7 19 -13 30l-19 15q-2 0 -2.5 0.5t-1.5 0.5q-2 4 -3.5 7.5t-3.5 6.5z" />
    <glyph glyph-name="lslash" horiz-adv-x="480" 
d="M426 434q0 -14 -49 -36q-16 -7 -32 -13t-32 -13v-66t1 -94t1.5 -93.5t0.5 -65.5q0 -52 -129 -52q-36 0 -47 17q-9 13 -9 51q0 26 2.5 82t7.5 144q-14 -7 -28 -13l-28 -12q-11 1 -37 54q-24 49 -24 66q0 12 8 17q15 8 55 24q45 16 61 24l1 116q0 56 -7 85q-1 7 -14 36
q-10 20 -10 36q0 38 66 58q48 14 98 14q20 0 29 -4l6 -12q0 -55 -3 -254q36 11 48 19l-1 1q14 -2 39 -50q26 -50 26 -66zM466 404q0 20 -27 71q-16 31 -40 46q-17 26 -44 37q1 75 1.5 125t0.5 73l-9 18q-12 5 -21 5v7l-9 18q-8 4 -16.5 5t-19.5 1q-53 0 -101 -14
q-73 -22 -73 -68q0 -19 11 -40q5 -12 8.5 -20.5t4.5 -13.5q7 -29 7 -83l-1 -110q-8 -4 -22 -9t-33 -12q-23 -9 -37 -15t-19 -9q-13 -8 -13 -26q0 -19 25 -70q26 -57 45 -60q19 -30 32 -30q3 1 5.5 2t5.5 2q-6 -123 -6 -165q0 -41 11 -57v1q8 -13 24 -17q1 -8 6 -14v1
q14 -22 55 -22q139 0 139 62v45t-1 60q0 13 -0.5 26.5t-0.5 27.5q-1 51 -1 89v64l12 6t13 5q8 3 16.5 6t16.5 7q55 25 55 45z" />
    <glyph glyph-name="Zcaron" horiz-adv-x="532" 
d="M472 254q0 -8 -1 -21t-3 -30q-3 -33 -3 -50q0 -106 -38 -136q-28 -7 -131 -15q-8 -1 -14 -1h-9q-20 0 -25 1h-25h-18t-25 -1t-25 -1h-17q-55 0 -76 8q-34 13 -34 62q0 10 1.5 29t1.5 28v9q-1 1 -1 8q0 77 30 121q31 45 64 88.5t69 86.5q19 23 35.5 43t30.5 39
q10 13 10 27q0 24 -21 24q-13 0 -30 -4q-41 -8 -87 -39q-26 -26 -50 -26q-13 0 -23 7q-17 29 -17 77q0 10 1.5 29.5t1.5 28.5q0 35 0.5 56t1.5 28q8 52 50 59q14 2 27 3t25 2q67 6 163 6h67q1 0 11 -1.5t12 -1.5q57 0 68 -30v-95q0 -100 -24 -149q-17 -35 -91 -126
q-6 -8 -24 -27l-43 -75v-2q0 -28 36 -28q29 0 70 26q42 27 52 27q27 0 27 -64zM512 224q0 71 -35 74q-8 30 -32 30q-11 0 -57 -29q-30 -20 -54 -24l6 12q11 19 18 31t11 17q17 19 23 26q76 94 92 128q25 51 25 153v95q-8 23 -31 32q-14 38 -77 38q-3 0 -11 1.5t-12 1.5h-67
q-91 0 -164 -6q-22 -1 -31 -3q-18 -2 -24 -3l2 1q-49 -9 -58 -68q-1 -7 -1.5 -28t-0.5 -57l-0.5 -3.5t-0.5 -9.5q0 -5 -0.5 -10t-0.5 -6q-1 -10 -1 -17v-12q0 -49 19 -83q12 -9 21 -10q3 -11 9 -20q16 -11 31 -11q28 0 57 29l-2 -1q45 29 84 37h2l-1 -1q-24 -31 -40.5 -51
t-25.5 -31q-70 -83 -133 -175q-32 -47 -32 -127q0 -8 1 -10v-7q0 -5 -1 -14t-1 -14v1q-1 -8 -1 -15v-15q0 -54 37 -70q6 -11 13.5 -18t20 -12t31.5 -7t48 -2h17q11 0 25 1t25 1h18h24q5 -1 26 -1h10t14 1q105 7 134 15q44 35 44 145q0 22 3 49q2 18 3 31t1 21zM428 976
q0 -2 -23 -27q-17 -19 -30.5 -33.5t-21.5 -24.5q-15 -16 -34 -16h-90q-26 0 -60 42q-17 21 -29.5 36.5t-20.5 26.5q0 11 15 11h9q6 0 14 1h25h28q17 0 27 -8t19.5 -17.5l19.5 -19.5q12 16 33 37q8 5 108 5q11 0 11 -13zM468 946q0 23 -21 23h-12q3 4 3 7q0 23 -21 23
q-104 0 -113 -6q-8 -8 -15 -15.5t-14 -15.5q-8 7 -15 13.5t-14 13.5q-16 13 -36 13h-29h-24q-8 -1 -14 -1h-9q-25 0 -25 -25l51 -66q5 -7 12 -13t15 -13q1 -2 3 -4q40 -45 69 -45h90q24 0 40 19q9 10 15.5 17t11.5 12q52 58 52 63z" />
    <glyph glyph-name="zcaron" 
d="M392 559q0 -74 -40 -138q-18 -28 -75 -91q-40 -43 -40 -62q0 -21 32 -21q14 0 46 17t42 17q31 0 31 -55q0 -20 -1 -47t-3 -61l-4 -67q-2 -41 -24 -45q-30 -6 -143 -6q-54 0 -92 1.5t-61 5.5q-31 4 -31 75q0 120 35 178q11 19 28 39t40 43q59 59 59 77q0 20 -20 20
q-14 0 -51 -18q-38 -18 -54 -18q-31 0 -31 46q0 108 8 132q19 54 102 54h128q69 0 84 -7q35 -14 35 -69zM432 529q0 60 -39 77q-13 28 -52 36q-15 3 -68 3h-128q-89 0 -110 -57q-10 -26 -10 -139q0 -50 32 -56q7 -30 39 -30q21 0 58 19q4 1 5 2q-5 -5 -13 -13.5t-21 -21.5
q-47 -47 -70 -84h1q-37 -61 -37 -183q0 -77 37 -83q10 -26 33 -31q21 -4 59 -5.5t95 -1.5q-89 0 72 -3q44 -1 70 10q34 15 35 52l4 67q2 34 3 61t1 48q0 60 -34 64q-9 31 -37 31q-16 0 -47 -18q-16 -10 -23 -11q4 5 10.5 12.5t16.5 18.5q54 58 76 93q42 67 42 143zM381 816
q0 -2 -23 -27q-17 -19 -30.5 -33.5t-21.5 -24.5q-15 -16 -34 -16h-90q-26 0 -60 42q-17 21 -29.5 36.5t-20.5 26.5q0 11 15 11h9q6 0 14 1h25h28q17 0 27 -8t19.5 -17.5l19.5 -19.5q12 16 33 37q8 5 108 5q11 0 11 -13zM421 786q0 23 -21 23h-12q3 4 3 7q0 23 -21 23
q-104 0 -113 -6q-8 -8 -15 -15.5t-14 -15.5q-8 7 -15 13.5t-14 13.5q-16 13 -36 13h-29h-24q-8 -1 -14 -1h-9q-25 0 -25 -25l51 -66q5 -7 12 -13t15 -13q1 -2 3 -4q40 -45 69 -45h90q24 0 40 19q9 10 15.5 17t11.5 12q52 58 52 63z" />
    <glyph glyph-name="space" unicode=" " horiz-adv-x="359" 
 />
    <glyph glyph-name="exclam" unicode="!" horiz-adv-x="354" 
d="M291 118q0 -28 -10 -51.5t-27.5 -40t-42 -25.5t-52.5 -9q-51 0 -89 26q-42 30 -42 79q0 26 15 56q34 69 130 69q53 0 84 -25q34 -28 34 -79zM294 754q0 -28 -3 -62t-10 -76l-22 -139l-7 -56q-1 -9 -3 -25.5t-5 -41.5q-5 -38 -14 -55q-13 -23 -45 -34q-27 -8 -43 -8
q-28 0 -50 15q-21 16 -23 99v37q0 27 -1 72q-1 54 -3 88l-9 111q0 49 13 76q30 34 126 41q23 2 32.5 3t4.5 1q2 0 8 -1t8 -1q24 0 31 -4q15 -8 15 -40zM331 88q0 56 -38 87l-9 6q-9 13 -21 24q-18 13 -42 21q34 12 48 38q10 18 15 59q1 8 2 15l2 14q2 13 2.5 22.5t1.5 15.5
l7 56v-1l22 139q7 42 10 76.5t3 63.5q0 38 -21 49h1q-4 2 -13 4q-5 19 -18 26h1q-8 5 -36 5q-5 0 -8 1h-6v1h-1h-1h-8t-11 -2q-5 -1 -9 -1t-10 -1q-99 -7 -133 -45q-8 -17 -11.5 -38t-3.5 -45l9 -111v1q2 -34 3 -88q1 -45 1 -72v-37q2 -89 27 -107q7 -5 14 -8q7 -17 16 -22
q2 -2 5 -3.5t5 -3.5q-63 -13 -92 -70q-16 -31 -16 -60q0 -54 46 -87v-1q6 -8 13 -15t17 -14q42 -28 95 -28q31 0 57 10t45 28t29.5 43t10.5 55z" />
    <glyph glyph-name="quotedbl" unicode="&#x22;" horiz-adv-x="285" 
d="M115 760q0 -84 -13 -140q-7 -36 -54 -50q-18 6 -18 28q0 2 0.5 7t1 11t1 11t0.5 8t-2 13q1 5 1 24v23q-1 5 -1 10v13q0 66 53 81q10 2 9 2q11 0 21 -10q1 -5 1 -13v-18zM225 757q0 -19 -2.5 -46t-7.5 -62q-1 -5 -2 -14.5t-3 -23.5q-5 -14 -23 -28q-18 -15 -32 -15
q-16 0 -16 20q0 -16 1 -4t3 51q3 54 5 86t3 43q4 16 26 27q18 9 38 9q8 -8 9 -10q1 -5 1 -14v-19zM265 727v21t-1 14q-2 5 -6 8.5t-9 9.5q-10 0 -14 -1q0 4 -0.5 7.5t-0.5 5.5q-2 5 -6 8.5t-9 9.5q-27 0 -46 -10q-23 -11 -30 -27q-5 4 -9.5 5.5t-9.5 2.5q0 3 -0.5 6.5
t-0.5 7.5q-16 16 -30 16q-1 0 -1.5 -0.5t-1.5 -0.5q-2 0 -4.5 -0.5t-4.5 -0.5q-60 -17 -60 -91v-14q0 -5 1 -10v-22q0 -19 -1 -24q2 -10 2 -13q0 -2 -0.5 -8t-1.5 -12q-1 -5 -1 -10v-7q0 -27 29 -38h1q5 -21 29 -30q39 12 55 37q6 -9 21 -9h4q0 -2 -0.5 -3.5t0.5 -3.5v-1
q3 -22 26 -22q18 0 38 17q22 18 28 38q2 10 2 15q0 6 1 11q0 2 0.5 4.5t0.5 4.5q5 35 7.5 62t2.5 47z" />
    <glyph glyph-name="numbersign" unicode="#" horiz-adv-x="579" 
d="M333 407h-87l-17 -116h88zM302 185h-87l-26 -185h-106l26 185h-82v106h96l17 116h-85v106h99l26 185h106l-26 -185h88l25 185h106l-25 -185h67v-106h-82l-16 -116h67v-106h-82l-25 -185h-106zM266 -10h34l-4 -30h126l25 185h83v126h-30v30h-32l9 66h84v126h-30v30h-32
l21 155h-34l4 30h-126l-25 -185h-33l22 155h-35l5 30h-127l-26 -185h-100v-126h30v-30h49l-10 -66h-97v-126h30v-30h46l-22 -155h34l-4 -30h127l25 185h33zM284 367h33l-9 -66h-33z" />
    <glyph glyph-name="dollar" unicode="$" horiz-adv-x="492" 
d="M435 383q0 -41 -29 -81q-28 -39 -68 -52q-28 -9 -28 -43q0 -47 -11 -58q-17 -15 -65 -15q-23 0 -38 4q-11 14 -11 32q0 2 1 13t1 15q0 18 -9 30q-14 -3 -27 -3q-54 0 -90 30.5t-36 84.5q0 37 24 60q14 12 44 21q31 9 51 9q23 0 46 -9q6 -6 7 -32q2 -20 20 -20q23 0 23 20
q0 33 -37 46q-12 5 -23 9t-21 8q-2 1 -7 4t-15 10q-3 2 -8.5 6t-13.5 9q-57 43 -57 95q0 50 35 85q18 18 69 38q15 3 22 9q5 5 5 15v10q0 4 3 9q18 33 71 33h24q11 -1 19 -12q0 -46 22 -50q4 -1 10.5 -2t16.5 -3q61 -15 73 -59q1 -1 1 -10q0 -39 -27 -57q-41 -28 -74 -28
q-28 0 -44 30q-15 31 -22 31q-23 0 -23 -24q0 -17 11 -25q15 -7 28.5 -13.5t26.5 -12.5q130 -63 130 -157zM475 353q0 67 -63 120q-9 11 -20 21t-24 20q31 5 70 30q31 21 31 65q0 10 -2 13h1q-10 32 -38 49q-20 34 -73 47q-8 2 -11 2v16q-6 8 -12.5 13t-15.5 6h-2v11
q-6 8 -12.5 13t-15.5 6h-25q-59 0 -80 -38l1 1q-5 -7 -5 -15v-10q0 -4 -2 -8l1 1l-1 -1q-3 -2 -7 -3t-9 -3q-27 -11 -45.5 -20.5t-29.5 -20.5q-38 -38 -38 -92q0 -55 53 -97q15 -18 33 -32q2 -2 5 -3.5t5 -3.5q-23 0 -54 -9q-31 -8 -48 -24q-27 -24 -27 -67
q0 -33 13.5 -58.5t36.5 -41.5q17 -26 46 -40t65 -15v-3q0 -4 -0.5 -7.5t-0.5 -4.5q0 -20 16 -41q6 -2 16 -4q3 -13 14 -26q10 -3 20.5 -4t22.5 -1q52 0 72 18q14 14 14 65q0 25 21 33q41 13 73 56q31 42 31 87zM279 564q0 3 2 5q6 -8 10 -11zM230 392q-1 2 -3 4h2
q0 -1 0.5 -2t0.5 -2z" />
    <glyph glyph-name="percent" unicode="%" horiz-adv-x="745" 
d="M585 227q0 3 -4 18q-14 57 -45 57q-26 0 -26 -65q0 -29 10 -49q12 -29 36 -29q20 0 25 17q3 10 3 35q0 4 1 8v8zM234 586q-1 2 -1.5 6.5t-2.5 11.5q-14 57 -45 57q-26 0 -26 -63q0 -44 22 -70q7 -9 25 -9q22 0 26 25q1 5 1.5 15.5t0.5 26.5zM686 233q0 -168 -95 -218
q-29 -15 -59 -15q-77 0 -118 59q-34 49 -34 132q0 69 24 132q33 88 102 113q9 4 36 4q144 0 144 -207zM335 592q0 -168 -95 -218q-29 -15 -60 -15q-77 0 -117 60q-34 50 -34 132q0 69 24 131q34 88 102 114q9 4 36 4q144 0 144 -208zM621 784q-11 -32 -27 -66.5t-38 -71.5
q-13 -22 -32.5 -54t-45.5 -77l-115 -198q-34 -60 -60.5 -110t-46.5 -92q-17 -54 -18 -55q-14 -30 -39 -37q-48 -14 -67 -14q-13 0 -23 3q-9 12 -9 26t21 58q20 40 51 90.5t74 113.5q51 74 84 123.5t49 75.5q55 90 81 135q24 42 42.5 76.5t31.5 62.5q28 25 71 25q9 0 12 -1
q4 -4 4 -10v-3zM375 562q0 146 -69 194q-38 54 -115 54q-29 0 -40 -5q-72 -27 -107 -119q-25 -62 -25 -135q0 -84 36 -138q15 -22 34 -37q43 -57 121 -57q11 0 21 1t20 4q-3 -5 -6.5 -9t-6.5 -9q-85 -123 -126 -206q-22 -44 -22 -62q0 -19 13 -35q9 -3 17 -3q3 -14 13 -27
q13 -4 29 -4q22 0 70 14q28 7 44 41q3 4 7.5 18t12.5 40l-1 -1q15 32 34 68.5t42 78.5q-1 -9 -1 -19v-18q0 -86 36 -138q15 -23 34 -36q43 -57 122 -57q35 0 64 16q100 52 100 227q0 145 -69 193q-38 54 -115 54q-29 0 -40 -5h1q-2 -1 -4.5 -2t-4.5 -2l23 39q13 21 23.5 39
t19.5 34q11 17 19.5 32t15.5 26q21 35 37 71t29 72v3q0 10 -8 18q-7 2 -10.5 2.5t-7.5 0.5h-6q0 2 2 6v3q0 10 -8 18q-7 2 -10.5 2.5t-7.5 0.5q-47 0 -79 -29q-12 -26 -31 -61t-44 -79q-13 -23 -32.5 -55.5t-46.5 -76.5q3 25 3 55zM222 545v1q-3 -17 -16 -17h-1q-6 16 -6 39
q0 51 15 53l2 -6l2 -6q1 -2 2.5 -8.5t2.5 -8.5l-1 1q1 -3 1 -6q0 -2 1 -4q0 -14 -0.5 -23.5t-1.5 -14.5zM575 227v-6q-1 -3 -1 -6v-4q0 -22 -3 -32t-15 -10q-6 16 -6 38q0 53 15 55q2 -5 3 -10t3 -10q2 -8 3 -11.5z" />
    <glyph glyph-name="ampersand" unicode="&#x26;" horiz-adv-x="677" 
d="M620 419q0 -23 -14 -32q-30 -71 -30 -196q0 -143 -1 -147q-1 -6 -5 -13.5t-10 -14t-12 -11t-12 -4.5q-12 0 -13 -1q-8 0 -20 1t-29 3l-28 3.5t-20 1.5q-16 0 -31 -3q-113 -21 -162 -21q-75 0 -116 25q-47 27 -71 92q-17 48 -17 90q0 115 125 210q-2 12 -41 30
q-4 2 -11.5 9.5t-20.5 19.5q-40 41 -40 107q0 55 26.5 102.5t74.5 73.5q88 49 190 49q133 0 167 -73q7 -14 7 -44q0 -52 -37 -85q-38 -33 -90 -33q-27 0 -49 9q-31 12 -31 33v4q13 13 13 24q0 26 -33 26q-6 0 -12.5 -5t-11.5 -13t-8.5 -17t-3.5 -17q0 -41 41 -61q7 -2 16 -5
t22 -8q13 -4 22.5 -7.5t15.5 -5.5q11 -14 11 -29q0 -11 -6.5 -31t-18.5 -58q-7 -16 -62 -44q-44 -23 -44 -57q0 -51 27.5 -83t75.5 -32q18 0 26 3q24 11 34 48q-2 13 -3 20t-2 9q-6 14 -23 14q-38 0 -38 24q0 68 76 144q60 16 171 16q22 0 34 -14q2 -25 2 -26zM657 396
q2 -2 2 6q0 3 -0.5 8t-0.5 9q-14 14 -29 18q-1 4 -1 12q-18 20 -44 20q-113 0 -173 -16v3q0 18 -16 39q-4 0 -6 1q-6 2 -10 4q-4 11 -14 24q21 -6 44 -6q57 0 97 35q40 36 40 93q0 15 -1.5 27.5t-6.5 20.5q-13 28 -40 47q-44 62 -166 62q-107 0 -195 -50q-50 -28 -78 -77.5
t-28 -107.5q0 -68 43 -114l10 -10q4 -3 6.5 -6t4.5 -5l9 -9l10 -10q6 -5 10 -9.5t8 -7.5q-113 -92 -113 -205q0 -44 18 -93q21 -59 62 -89q17 -23 43 -39q42 -26 121 -26q51 0 164 21q15 3 29 3q8 0 19.5 -1.5t27.5 -3.5q17 -2 30 -3t24 -1q1 1 9 1q7 0 15 5t15 13t12 16.5
t7 16.5q1 4 1 149q0 121 27 189q17 12 17 39zM327 299q0 -27 30 -33q1 -27 35 -31v-1q-9 -32 -27 -41q-6 -2 -22 -2q-28 0 -47 12q-16 25 -16 63q0 28 39 48q3 1 9 5q-1 -5 -1 -10v-10zM359 526q-6 2 -14.5 5t-19.5 7v-1q-13 5 -22 8t-16 5h1h-1q-4 9 -4 22q0 11 6 23
q3 -23 31 -35q5 -22 36 -32q2 -1 3.5 -1.5t3.5 -1.5q-1 0 -2 0.5t-2 0.5z" />
    <glyph glyph-name="quotesingle" unicode="'" horiz-adv-x="236" 
d="M178 708q0 -64 -41 -148q-2 -4 -5.5 -10t-8.5 -16q-21 -27 -39 -27q-28 0 -28 44v17q1 5 1 16q0 10 -15 36q-15 25 -15 47q0 39 28 82q30 49 66 49q57 0 57 -90zM218 678q0 78 -41 95q-17 35 -56 35q-42 0 -75 -54h1q-30 -47 -30 -87q0 -26 16 -52q14 -25 14 -31
q0 -9 -1 -14v-19q0 -51 32 -54q7 -30 36 -30q23 0 49 33q2 4 3 7t3 6t4 7.5t3 5.5q42 84 42 152z" />
    <glyph glyph-name="parenleft" unicode="(" horiz-adv-x="293" 
d="M235 780q0 -2 -2 -8q-88 -213 -88 -453q0 -185 43 -321q5 -14 9.5 -27.5t9.5 -27.5q12 -36 12 -56q0 -29 -27 -56q-27 -28 -56 -28q-6 0 -14 2q-24 12 -55 94q-1 3 -3.5 12.5t-6.5 25.5q-31 125 -31 295q0 295 118 486q32 54 71 82q20 -8 20 -20zM275 750q0 17 -30 30
q-1 19 -32 31q-47 -34 -78 -88q-119 -192 -119 -491q0 -173 31 -298l10 -35v-1q34 -88 63 -103h2q13 -22 28 -30q8 -2 16 -2q33 0 63 31q30 30 30 63q0 21 -13 59q-5 14 -9.5 27.5t-9.5 27.5h1q-43 136 -43 318q0 236 87 449q1 3 2 6.5t1 5.5z" />
    <glyph glyph-name="parenright" unicode=")" horiz-adv-x="286" 
d="M230 344q0 -271 -110 -458q-34 -58 -71 -83q-20 8 -20 21q0 1 2 7q82 206 82 436q0 184 -47 337q-4 9 -9 22.5t-12 32.5q-12 33 -12 57q0 29 27 56q27 28 56 28q31 0 69 -95q1 -2 3.5 -12.5t7.5 -29.5q34 -135 34 -319zM270 314q0 186 -34 321q-3 12 -5 21t-4 14v-1
q-1 3 -1.5 5l-0.5 2q-33 85 -65 100q-23 34 -44 34q-33 0 -63 -31q-30 -30 -30 -63q0 -25 13 -60q7 -19 12 -33t9 -23l-1 1q47 -153 47 -334q0 -229 -81 -433q-3 -8 -3 -10q0 -19 30 -31q1 -19 31 -31q43 28 79 89q111 187 111 463z" />
    <glyph glyph-name="asterisk" unicode="*" horiz-adv-x="384" 
d="M328 640q0 -27 -47 -27q-13 0 -19 -11v-3q0 -3 3.5 -12.5t3.5 -10.5v-1l-1 -1q8 -5 8 -19q0 -4 -0.5 -10t-1.5 -15q-11 -15 -25 -15q-5 0 -7 1q-24 24 -71 60q-8 -8 -15 -17t-15 -17q-20 -20 -38 -20q-24 0 -30 28q4 9 9.5 27.5t13.5 47.5q-2 2 -12 8t-29 16
q-28 15 -28 32q0 8 5 14.5t27 11.5q22 4 30 12q1 1 1 7q0 9 -9 27q-9 19 -9 27q0 23 26 23q18 0 40 -31t33 -31q10 0 27 23q18 22 26 24q34 -6 34 -32q0 -3 -1 -9t-1.5 -12.5t-1.5 -13t-1 -9.5q0 -20 37 -35q38 -15 38 -37zM368 610q0 23 -32 40q-8 21 -42 36q0 8 2 18
q1 7 1.5 13t0.5 9q0 29 -31 39q-5 26 -43 33q-13 -3 -34 -28q-10 -15 -17 -18q-13 17 -27 25v1q-25 35 -48 35q-36 0 -36 -33q0 -11 10 -31q8 -18 8 -23q0 -2 1 -1q-7 -5 -24 -8q-27 -7 -33.5 -15.5t-6.5 -20.5q0 -24 31 -40q7 -20 32 -31v-1h1q-7 -22 -11.5 -36.5
t-7.5 -22.5q6 -33 32 -38q9 -30 39 -30q22 0 45 23q5 5 8.5 9t7.5 9q2 2 4 4.5t4 4.5q20 -15 36 -29t28 -25q5 -2 7.5 -2.5t5.5 -0.5q19 0 35 22q0 2 0.5 5.5t0.5 6.5q1 5 1 9v7q0 14 -8 24l-2 6q-4 10 -4 14q4 4 9 4q57 0 57 37z" />
    <glyph glyph-name="plus" unicode="+" horiz-adv-x="572" 
d="M343 411q0 -10 20 -10q4 0 15 2t13 2l88 -1q39 0 39 -31q0 -7 -0.5 -17t-1.5 -24t-1.5 -23.5t-0.5 -16.5q0 -27 -24 -33q-3 -1 -48 -1q-7 0 -18 0.5t-25 1.5t-25 1.5t-18 0.5q-12 0 -13 -13v-22q0 -3 -2 -14t-2 -15q0 -10 0.5 -22.5t1.5 -26.5q3 -44 3 -49
q0 -8 -7.5 -15.5t-16.5 -7.5h-17t-24 1t-23.5 1.5t-16.5 0.5q-29 0 -35 2q-11 5 -8 33q-1 6 -1.5 16.5t-0.5 24.5q0 8 0.5 19t1.5 26t1.5 26t0.5 19t-12 11q-7 1 -25 0q-7 -1 -13 -1q-5 0 -9 -1q-2 0 -6.5 1t-10.5 1.5t-11 1.5t-7 1h-11q-7 0 -19 -1t-20 -1h-11
q-19 0 -19 23v54q0 51 1 54q3 18 25 18q2 0 12 -2.5t14 -2.5h93q10 0 13 1h13v37q0 -12 -0.5 -0.5t-1.5 46.5q-2 40 3 63q6 32 24 32h13q5 -1 9 -1h10h33q61 0 61 -33q0 -11 -0.5 -28t-1.5 -40t-1 -40v-28zM285 590h-33h-9t-9 1h-14q-26 0 -34 -40q-3 -15 -3 -46v-19
q0 -13 0.5 -21t0.5 -13t0.5 -9.5t0.5 -10.5v-19h-3q-3 -1 -13 -1h-92q2 0 -4.5 1t-10.5 2t-8 1.5l-4 0.5q-30 0 -35 -26l1 1q-2 -5 -2 -19v-38v-54q0 -33 29 -33h1q1 -30 29 -30h12t20 1q11 1 18 1h10q-2 0 5.5 -1t13.5 -2q5 -1 10 -1.5t7 -0.5q3 1 11 1q4 0 7 1v-1
q0 -4 -0.5 -7.5t-0.5 -7.5t-0.5 -7.5t-0.5 -6.5q-1 -10 -1 -18v-13q0 -15 0.5 -25.5t1.5 -16.5q0 -3 -0.5 -5.5t-0.5 -4.5q0 -27 16 -31q3 -1 14 -3q0 -22 16 -27q6 -3 38 -3h11t14 -1q3 0 6.5 -0.5t7.5 -0.5q14 -1 24 -1h18q13 0 23.5 10.5t10.5 22.5q0 6 -3 50v6
q-1 12 -1.5 23t-0.5 19q0 1 0.5 5t1.5 9l1.5 7.5t0.5 7.5v22q0 3 3 3h12t17 -1q3 0 6.5 -0.5t7.5 -0.5q3 0 6 -0.5t6 -0.5q10 -1 18 -1h13h34t17 2l-1 -1q32 8 32 43v11t1 14q0 3 0.5 7t0.5 8q0 2 0.5 5.5t0.5 6.5q1 9 1 16v13q0 33 -31 39q-4 32 -48 32l-88 1q-2 0 -4 -0.5
t-4 -0.5v16t1 19q0 6 0.5 11.5t0.5 10.5q1 15 1 26v20q0 29 -31 38q-6 35 -70 35z" />
    <glyph glyph-name="comma" unicode="," horiz-adv-x="343" 
d="M285 112q0 -20 -5 -40.5t-14.5 -40.5t-22 -37.5t-27.5 -30.5q-22 -20 -66 -31q-10 -2 -12 -2q-21 0 -21 34q0 2 2.5 14t2.5 16q0 18 -20 24q-23 -2 -45 14.5t-28 40.5q-3 10 -3 29q0 47 25 72q49 52 123 52q24 0 45 -9t36.5 -24.5t23.5 -36t6 -44.5zM325 82v10
q0 29 -13.5 52.5t-35.5 38.5q-17 24 -43.5 38t-58.5 15q-78 0 -130 -55q-28 -28 -28 -79q0 -22 3 -32q4 -16 14 -29t24 -22q19 -30 52 -38v-3q-1 -5 -1.5 -9.5l-0.5 -4.5q0 -44 30 -44q4 -30 31 -30q7 0 11 1h-1q1 1 4 1q46 10 71 34v-1q32 28 52 71.5t20 85.5z" />
    <glyph glyph-name="hyphen" unicode="-" horiz-adv-x="389" 
d="M329 448q0 -20 -15 -60q-16 -46 -30 -49q-11 -2 -38 -4t-72 -4l-60 -2l-60 -2q-24 7 -24 19q0 22 11 60q13 45 32 45h9q3 -1 8 -1q28 0 87 6q58 6 87 6q65 0 65 -14zM369 418q0 15 -31 21q1 3 1 9q0 24 -75 24q-30 0 -88 -6q-59 -6 -86 -6q-5 0 -8 1h-9q-26 0 -42 -52
q-11 -38 -11 -63q0 -19 30 -29v-1q0 -19 31 -29q15 0 31.5 0.5t31.5 1.5t30 1t30 1q46 2 73.5 4t38.5 4q19 5 37 56q16 42 16 63z" />
    <glyph glyph-name="period" unicode="." horiz-adv-x="360" 
d="M301 113q0 -29 -6 -45q-14 -36 -59 -53q-39 -14 -81 -14q-51 0 -86 20q-41 24 -41 72q0 45 25 70q43 46 121 46q52 0 87 -21q40 -25 40 -75zM341 83q0 53 -44 82q-5 9 -13 16.5t-18 14.5q-40 23 -92 23q-82 0 -128 -49q-28 -28 -28 -77q0 -51 42 -79q11 -18 34 -32
q36 -21 91 -21q43 0 84 15q50 18 65 58q7 17 7 49z" />
    <glyph glyph-name="slash" unicode="/" horiz-adv-x="447" 
d="M61 1q-23 0 -24 1q-14 6 -14 21q0 7 10 43l15 56q2 6 4.5 16.5t6.5 26.5q5 13 11 28t12 34q2 7 7 28.5t13 57.5q5 12 13 33.5t19 53.5q4 12 8.5 30t11.5 42q2 7 6.5 19.5t10.5 31.5q2 7 5.5 19t8.5 29q2 5 5 14t8 23l27 102q20 72 31 82q6 6 27 8q25 1 43 1.5t31 -0.5
q37 -1 37 -23t-55 -186q-4 -12 -10.5 -36.5t-14.5 -62.5q-5 -14 -12.5 -35.5t-15.5 -49.5q-3 -11 -8.5 -30t-13.5 -47q-3 -8 -8 -22.5t-12 -35.5q-5 -20 -15 -57q-2 -5 -4 -14.5t-6 -22.5q-3 -12 -11 -37t-24 -78q-1 -4 -2 -11t-3 -17q-6 -23 -12 -29t-24 -6h-82zM173 -39
q12 0 19 1.5t12 6t8 13t7 22.5q2 7 2.5 12.5t1.5 9.5q0 4 1 6v-1q8 29 13.5 48.5t10.5 33.5q4 12 6.5 20t4.5 13q2 8 3.5 15t3.5 12q1 3 1 5q0 3 1 5q5 18 9.5 32.5t6.5 24.5q6 20 11 35.5t8 23.5v1q1 0 1 1v-3q8 28 13.5 47t8.5 30q8 28 16 52t13 38q8 34 14 58t10 36h-1
q56 164 56 189t-30 31q-2 31 -47 32h-14h-22t-26 -1h-13q-11 -1 -19 -3t-14 -8v1q-13 -11 -34 -87l-27 -102h1q-5 -13 -7.5 -21.5t-3.5 -10.5l-5 -14q-5 -14 -7.5 -24t-4.5 -16l1 1q-5 -14 -9 -24.5t-6 -18.5q-1 -3 -2 -5.5t-2 -5.5q-3 -10 -5 -17.5t-4 -15.5q-3 -11 -5 -20
t-4 -16q-10 -28 -17.5 -48t-12.5 -33v1q-1 -2 -1.5 -4t-1.5 -4q-5 -22 -8.5 -38.5t-6.5 -27.5q-2 -8 -3 -12.5t-2 -7.5v1q-8 -25 -13.5 -39.5t-9.5 -24.5q-2 -11 -4.5 -18.5l-4.5 -13.5q-1 -3 -1 -5t-1 -4l-15 -56q-10 -36 -10 -46q0 -21 20 -30q2 -1 4 -1t6 -1
q0 -19 20 -28q5 -2 28 -2h82z" />
    <glyph glyph-name="zero" unicode="0" horiz-adv-x="583" 
d="M341 397q0 166 -68 166q-18 0 -33 -19q-18 -23 -18 -143q0 -135 64 -135q12 0 26.5 11.5t18.5 23.5q10 23 10 96zM524 422q0 -109 -27 -224q-21 -91 -80 -144.5t-150 -53.5q-24 0 -48.5 5.5t-47 16t-41.5 25t-32 32.5q-7 9 -19 34q-51 103 -51 251q0 253 109 366
q67 70 162 70q110 0 156 -82q69 -122 69 -296zM564 392q0 179 -70 301q-9 16 -20 28t-24 23q-51 66 -151 66q-99 0 -169 -73q-112 -118 -112 -373q0 -150 52 -255q6 -13 11 -22t9 -14q6 -9 14 -16.5t17 -15.5q28 -36 76.5 -58.5t99.5 -22.5q95 0 156.5 56t83.5 150
q27 117 27 226zM331 397q0 -35 -2.5 -59.5t-8.5 -37.5q-3 -8 -14 -16t-20 -8q-7 0 -11 1q-13 30 -13 94q0 118 16 137q12 15 25 15q4 0 10 -2q18 -38 18 -124z" />
    <glyph glyph-name="one" unicode="1" horiz-adv-x="347" 
d="M286 48q0 -16 -21 -29q-28 -19 -143 -19q-41 0 -56 19q-9 64 -9 143q0 68 3 148q2 53 3 89.5t1 58.5q0 44 -18 124q-18 79 -18 116q0 24 12 41q61 61 185 61h10q43 0 46 -46q1 -7 1 -29v-56q0 -33 -1 -82t-3 -115q-3 -131 -3 -197q0 -78 2.5 -132.5t7.5 -88.5q1 -3 1 -6z
M326 18v2q0 2 -2 7l1 -1q-5 34 -7.5 88t-2.5 131q0 66 3 197q2 66 3 115t1 82v57q0 22 -1 29q-5 43 -35 52q-11 33 -51 33h-10q-128 0 -193 -65q-14 -18 -14 -47q0 -39 18 -118q18 -80 18 -122q0 -22 -1 -58.5t-3 -89.5q-3 -80 -3 -148q0 -83 9 -147q10 -13 28 -19
q1 -3 1 -5q0 -3 1 -6q19 -25 66 -25q117 0 149 21h-1q26 17 26 37z" />
    <glyph glyph-name="two" unicode="2" horiz-adv-x="595" 
d="M536 606q0 -63 -39 -135q-7 -13 -14 -23.5t-14 -18.5q-15 -16 -96 -74q-65 -47 -81 -86q3 -24 32 -24q35 0 83 20q8 4 27.5 13.5t50.5 26.5h7q28 0 28 -51q0 -5 -1 -14.5t-3 -23.5q-3 -29 -3 -36q0 -97 -20 -135q-20 -36 -72 -42q-7 -1 -41.5 -1.5t-97.5 -0.5
q-59 0 -112 2.5t-101 7.5q-27 20 -32 64q-1 5 -1 23v53q0 3 7 30q27 110 113 187l93 84q54 48 62 106q1 8 1.5 13.5t0.5 8.5q0 23 -10 39q-12 21 -32 21q-30 0 -30 -28q0 -15 16 -22q17 -8 17 -18t-16 -52q-1 -2 -1 -4q0 -1 -1 -3q-46 -61 -120 -61q-56 0 -87 51
q-8 15 -9 17q-10 33 -10 66q0 67 42 123q4 6 17 20q1 1 7 5l18 12q82 54 169 54q102 0 172 -44q81 -53 81 -150zM576 576q0 91 -68 145q-19 23 -48 43q-74 46 -177 46q-87 0 -175 -56q-6 -5 -10.5 -7.5t-7.5 -4.5q-4 -3 -7 -5q-16 -18 -19 -22q-44 -58 -44 -129q0 -35 9 -66
l8 -16q1 -2 3 -5t3 -5q13 -24 34 -37q31 -45 89 -45h13t13 2l-43 -39q-87 -78 -116 -192v1q-4 -14 -5.5 -22.5t-1.5 -10.5v-54t1 -24q4 -48 38 -72q1 0 2 -0.5t2 -0.5q5 -8 11.5 -15.5t14.5 -13.5q48 -5 102 -7.5t115 -2.5q63 0 98 0.5t42 1.5q58 7 80 47q21 39 21 140
q0 6 3 35v-1q2 14 3 24.5t1 15.5q0 58 -34 61q-8 30 -34 30h-10q-62 -33 -79 -41q-32 -14 -60 -18q20 27 66 61q82 58 97 75q8 10 16 21t14 23q40 73 40 140zM281 583q0 17 19 17q3 -9 3 -20q0 -4 -1 -9q0 -5 -1 -8q-6 4 -10 6q-5 2 -7 5z" />
    <glyph glyph-name="three" unicode="3" horiz-adv-x="615" 
d="M556 259q0 -122 -88 -192q-82 -67 -205 -67q-101 0 -141 22q-93 49 -93 144q0 55 34 98q35 44 89 44q4 0 19 1t19 1q74 0 99 -46q-20 -42 -20 -49q0 -26 27 -26q21 0 35 23q11 20 11 44q-1 1 -4 16q-10 46 -54 64q-12 4 -47 9q-11 2 -24 3.5t-27 3.5q-22 6 -22 31
q0 11 2 23.5t6 28.5q9 36 23 44q16 6 38.5 15t52.5 20q47 24 47 81q0 51 -40 51q-31 0 -31 -24q0 -7 13 -20q14 -12 14 -20q0 -35 -61 -60q-30 -13 -68 -13q-76 0 -101 51q-15 28 -15 63q0 8 3 23q10 58 60 97q44 35 106 48q45 9 106 9h13q91 0 144 -37q64 -43 64 -129
q0 -56 -31 -99q-5 -7 -23 -26t-50 -51q7 -13 26 -27q28 -20 31 -22q63 -56 63 -150zM596 229q0 99 -66 158v-1q-2 0 -3 1q-12 16 -27 30v-1q-2 0 -6.5 4t-12.5 9q29 29 45 46t21 24q33 46 33 105q0 84 -60 131q-15 20 -38 36q-57 39 -150 39h-13q-63 0 -108 -9
q-64 -13 -110 -50q-54 -43 -64 -103q-3 -15 -3 -25q0 -39 16 -68v1q12 -26 34 -39q26 -42 89 -48q-7 -13 -11 -32q-4 -16 -6 -29t-2 -25q0 -33 27 -40q1 0 1.5 -0.5t1.5 -0.5q3 -14 12 -22h-6q-2 0 -8 -0.5t-12 -0.5q-6 -1 -11 -1h-7q-60 0 -97 -48q-36 -45 -36 -104
q0 -80 62 -130q23 -30 66 -53q40 -23 146 -23q127 0 211 69q92 73 92 200zM328 270q1 -2 1 -6q0 -7 3 -11q0 -8 -3 -17q-12 23 -33 35q-14 23 -38 35q2 -1 6 -1q37 -4 46 -8q2 -2 5 -2.5t5 -2.5q3 -5 4.5 -10.5t3.5 -11.5zM323 595q0 -13 -3 -25q-2 2 -4 4.5t-4 4.5
q-10 10 -10 13q0 14 20 14q1 -4 1 -11zM322 217q-3 -5 -4 -6l4.5 9t4.5 10q-2 -6 -5 -13z" />
    <glyph glyph-name="four" unicode="4" horiz-adv-x="590" 
d="M272 519q0 8 -1.5 23.5t-1.5 22.5l-6 1q-57 -75 -57 -141q0 -18 33 -18h12q21 13 21 50v62zM455 73q0 -20 -3 -36q-31 -37 -126 -37q-37 0 -52 9q-21 12 -21 45q0 8 0.5 20t1.5 28t1.5 28t0.5 20q0 18 -6 23q-137 0 -189 6q-37 4 -37 96q0 129 26 190l63 144
q19 42 37 76.5t35 62.5q17 27 86 41q52 11 100 11q53 0 71 -18q14 -16 14 -53v-28q-1 -11 -1 -19v-14q0 -35 -3 -105q-1 -35 -1.5 -61t-0.5 -43q0 -44 24 -44q6 0 18 2.5t18 2.5q21 0 21 -42q0 -146 -16 -177q-7 -13 -33 -19q-24 -4 -29 -21q-2 -8 -2.5 -19t0.5 -25
q3 -42 3 -44zM495 43q0 3 -3 45q0 5 -0.5 9t-0.5 9q0 14 2 22q3 11 22 14q32 8 40 24q17 31 17 182q0 51 -31 52q1 0 0.5 -0.5t-1.5 -0.5q-5 31 -29 31q2 0 -6 -1t-13 -2h-1v2v30t1 40q0 8 0.5 16.5t0.5 17.5q3 70 3 105v13q0 8 1 19v29q0 41 -17 60q-7 7 -20 12
q-2 9 -10 18q-21 21 -78 21q-50 0 -102 -11q-73 -13 -93 -46h1q-18 -29 -36.5 -64t-36.5 -76l-63 -144q-27 -63 -27 -194q0 -95 41 -105q10 -28 35 -31q45 -6 156 -6q0 -4 -0.5 -7.5t-0.5 -8.5q0 -4 -0.5 -7.5t-0.5 -7.5t-0.5 -7.5t-0.5 -6.5q-1 -11 -1 -20v-14
q0 -39 26 -54l4 -2l4 -2q8 -18 22 -26q16 -10 57 -10q100 0 136 43q3 16 3 40zM262 457q0 -30 -13 -40h-2q2 12 5.5 24t9.5 25v-9z" />
    <glyph glyph-name="five" unicode="5" horiz-adv-x="584" 
d="M526 308q0 -139 -82 -224q-83 -84 -220 -84q-85 0 -137 38q-57 43 -57 127q0 80 53 113q38 25 126 31q31 -11 42 -15q23 -14 23 -35q0 -9 -18 -22q-1 -37 27 -37q19 0 35 13t16 32q0 40 -27 73q-26 33 -65 33h-47q-18 0 -51 -10q-33 -9 -50 -9q-31 0 -43 12.5t-12 42.5
q0 286 29 385q7 28 42 27q37 -2 79 -3.5t90 -1.5q87 0 177 6q17 -14 17 -72q0 -143 -79 -143h1h-2l-12 2q-65 6 -104 6q-31 0 -47 -4q-11 -19 -11 -36q0 -22 14 -30q20 2 37 3.5t31 1.5q52 0 93.5 -15t71 -43.5t45 -69.5t15.5 -92zM566 278q0 60 -20 105.5t-57 75.5
q-31 38 -78.5 58.5t-109.5 20.5q-10 0 -19.5 -0.5t-20.5 -1.5q2 7 6 14q16 3 40 3q38 0 103 -6h-1l12 -2h4q88 0 88 153q0 61 -24 82q-4 -1 -12 -1q-3 11 -8 18.5t-10 12.5q-45 -3 -90.5 -4.5t-89.5 -1.5q-48 0 -90 1.5t-79 3.5h-3q-40 0 -49 -34q-29 -99 -29 -388
q0 -26 7.5 -41t25.5 -20q7 -25 32 -31q-5 -2 -8.5 -4.5t-7.5 -4.5q-58 -37 -58 -121q0 -90 60 -135q11 -15 31 -30q54 -40 143 -40q143 0 227 87q85 88 85 231zM324 245q0 -13 -12 -23q2 4 2 7q0 28 -26 43q-1 0 -7 2q-4 17 -23 28q-2 1 -8.5 3t-16.5 6h39q19 0 34 -9
q18 -27 18 -57z" />
    <glyph glyph-name="six" unicode="6" horiz-adv-x="551" 
d="M328 267q0 40 -17 79q-23 48 -58 48q-15 0 -30 -26q-1 -9 -1.5 -15.5t-0.5 -11.5q0 -41 16 -76q19 -46 54 -46q37 0 37 48zM494 304q0 -70 -16 -131q-22 -92 -101 -139q-56 -34 -126 -34q-223 0 -223 334q0 29 1.5 52.5t3.5 42.5q1 7 4.5 22t9.5 39q79 310 263 310
q20 0 40 -3q7 -1 15 -8q5 -13 5 -22q0 -16 -17 -36q-5 -5 -12.5 -11.5t-17.5 -16.5q-1 0 -16 -23q-3 -5 -6 -9t-7 -8q-33 -48 -33 -88q0 -12 15 -12q2 0 12 1t14 1h3t7 -1q182 -23 182 -260zM534 274q0 162 -84 228q-48 60 -137 72h1q-3 0 -5 0.5t-4 0.5q7 23 27 52q4 4 7 8
t6 9l6 9q8 10 6 10q10 10 17.5 16.5t12.5 11.5q23 28 23 46q0 5 -2 12t-5 16q-6 5 -11 8t-10 4h-4q-1 4 -2 8.5t-3 9.5q-6 5 -11 8t-10 4q-20 3 -42 3q-192 0 -273 -318q-6 -23 -9.5 -38.5t-4.5 -23.5q-2 -19 -3.5 -42.5t-1.5 -53.5q0 -225 98 -302q58 -72 165 -72
q74 0 131 35q82 48 106 146v-1q16 61 16 134zM318 267q0 -38 -27 -38q-8 0 -12 1l-3 9q-15 34 -15 72v7t1 10v6q12 20 21 20q6 0 14 -3q1 -3 5 -9q16 -37 16 -75z" />
    <glyph glyph-name="seven" unicode="7" horiz-adv-x="551" 
d="M494 730q0 -48 -3 -64q-1 -4 -3.5 -13.5t-7.5 -25.5q-10 -31 -23.5 -77t-31.5 -109q-28 -103 -36 -221q-3 -53 -3 -86q0 -19 1.5 -40t3.5 -45q-9 -26 -69 -37q-4 -1 -11.5 -1.5t-19.5 -2.5q-35 -4 -61 -6t-43 -2q-45 0 -53 4q-26 8 -26 41q0 88 58 240q5 11 29 69.5
t69 164.5q2 6 2 9q0 16 -13 16q14 0 5 -1t-40 -3q-62 -3 -80 -3q-60 0 -63 1q-38 4 -42 36q-2 11 -3 20.5t-2 19.5q4 36 6.5 56.5t3.5 25.5q7 48 24 78q14 26 30 26q4 0 45 -9q29 -7 62 -7h6q26 0 65 2.5t93 7.5q64 6 77 6q29 0 41.5 -15t12.5 -55zM534 700q0 35 -8.5 52.5
t-27.5 23.5q-7 19 -21 26.5t-37 7.5q-14 0 -78 -6q-54 -5 -93 -7.5t-64 -2.5h-6q-31 0 -60 7q-41 9 -47 9q-24 0 -39 -31q-8 -16 -14.5 -36t-10.5 -45v-2q-1 -7 -3.5 -27.5t-6.5 -54.5q1 -11 2 -21.5t3 -20.5v1q5 -32 32 -41q11 -31 49 -34h-1q5 -1 21 -1h44q17 0 77 3
q-17 -41 -30 -73t-24 -57q-14 -35 -23 -55t-11 -26q-30 -78 -44.5 -138.5t-14.5 -105.5q0 -40 33 -51l-1 1h1q6 -23 30 -31l-1 1q10 -5 57 -5q19 0 45.5 2t61.5 6q10 2 12 2q5 1 8 1q4 0 11 2l-1 -1q65 11 77 47q-2 24 -3.5 45t-1.5 40q0 32 3 85q7 114 36 219
q18 63 31.5 109t23.5 77q2 5 2.5 7t2.5 12v-1l4 16t3 10q1 6 1.5 21.5t0.5 40.5z" />
    <glyph glyph-name="eight" unicode="8" horiz-adv-x="608" 
d="M329 215q0 22 -18 57q-18 36 -36 48q-5 1 -9 1t-8 1q-29 0 -29 -46q0 -16 8 -46q7 -29 18 -39q16 -19 42 -19q32 0 32 43zM344 572q0 63 -47 75q-30 -8 -30 -37q0 -40 43 -74q7 -6 13 -6q21 0 21 42zM549 230q0 -79 -50 -141t-126 -78q-55 -11 -103 -11q-105 0 -170 50
q-71 56 -71 159q0 100 103 199q7 7 7 12q0 10 -23 33q-31 31 -44 54q-24 40 -24 90q0 52 20 90q7 14 29 36q75 76 218 76q114 0 179 -71l-1 1q38 -36 38 -103q0 -31 -20 -80q-1 -2 -2.5 -7t-5.5 -12q-10 -21 -58 -75q-2 -6 -2 -7t2 -7l13 -13t20 -21q71 -80 71 -174z
M589 200q0 98 -74 181q-11 12 -19 19.5t-13 12.5v2v1q50 56 59 77l4 10l4 10q21 51 21 83q0 71 -41 110l-9.5 9.5t-9.5 8.5q-3 3 -5.5 6t-5.5 6q-68 73 -185 73q-147 0 -225 -79q-21 -21 -31 -39v1q-21 -39 -21 -95q0 -54 25 -95q13 -23 46 -56q20 -20 20 -26q0 -1 -4 -5
q-106 -102 -106 -206q0 -107 72 -165q14 -19 33 -32q69 -52 176 -52q50 0 105 11q80 16 132 82t52 147zM319 215q0 -33 -22 -33q-10 0 -14 2q-3 8 -6 19q-8 30 -8 43q0 36 19 36q3 -1 7 -1q2 -3 3.5 -6.5t3.5 -7.5q17 -34 17 -52zM334 572q0 -32 -11 -32q-2 0 -4 1
q-12 18 -12 39q0 20 19 26h3q5 -17 5 -34z" />
    <glyph glyph-name="nine" unicode="9" horiz-adv-x="565" 
d="M306 496q0 46 -35 93q-9 12 -22 12q-33 0 -33 -36q0 -29 11 -64q13 -43 40 -43q39 0 39 38zM507 535q0 -124 -67 -295q-45 -115 -71 -155q-55 -85 -133 -85q-57 0 -57 37q0 11 4 18l24 51q11 23 21.5 48.5t21.5 53.5q13 33 13 42q0 16 -10 20q-6 2 -26 2q-58 0 -86 12
q-115 46 -115 239q0 41 4 58q7 37 21 52q39 97 130 143q20 11 34 15q27 10 76 10q109 0 166 -81q50 -71 50 -185zM547 505q0 116 -52 191q-9 12 -19 23t-21 19q-58 73 -164 73q-23 0 -43 -2.5t-36 -8.5v1q-17 -5 -36 -16q-94 -48 -134 -147l2 2q-8 -9 -14 -23t-10 -34
q-4 -17 -4 -60q0 -163 81 -226q30 -36 70 -52q27 -13 81 -13q-2 -5 -3.5 -9.5l-3.5 -10.5q-11 -28 -21.5 -53.5t-21.5 -48.5l-24 -51v1q-5 -8 -5 -23q0 -33 31 -42q9 -35 66 -35q82 0 141 90q14 20 32 59.5t40 96.5q68 173 68 299zM296 496q0 -28 -28 -28q0 2 -0.5 3t-0.5 3
q-11 35 -11 61q0 25 22 26q18 -33 18 -65zM72 607v1v-1zM42 638v-1v1z" />
    <glyph glyph-name="colon" unicode=":" horiz-adv-x="344" 
d="M285 117q0 -52 -47 -90q-46 -37 -99 -37q-23 0 -42.5 8t-34.5 22.5t-23.5 33.5t-8.5 42q0 57 46 88q41 29 99 29q49 0 79.5 -24t30.5 -72zM280 457q0 -53 -44 -94t-96 -41q-23 0 -43.5 8.5t-35.5 23.5t-24 35t-9 43q0 53 48 89q44 32 98 32q48 0 77 -25.5t29 -70.5z
M320 427q0 29 -12 51t-33 36q-14 23 -40.5 36t-60.5 13q-56 0 -104 -34q-52 -39 -52 -97q0 -31 14 -56t37 -41q17 -24 43 -38.5t58 -14.5q56 0 103 44t47 101zM325 87q0 31 -12 52.5t-32 34.5q-15 25 -42.5 37t-63.5 12q-60 0 -105 -31q-50 -34 -50 -96q0 -31 13.5 -55.5
t36.5 -39.5q16 -23 41.5 -37t57.5 -14q57 0 105 39q51 40 51 98z" />
    <glyph glyph-name="semicolon" unicode=";" horiz-adv-x="355" 
d="M297 101q0 -58 -43 -107t-101 -62l-7.5 -1.5t-4.5 -0.5q-21 0 -21 34q0 2 2.5 14t2.5 16q0 18 -20 24q-33 -3 -57 26q-22 25 -22 60q0 32 28 70q39 55 110 55q56 0 94 -37q39 -36 39 -91zM289 456q0 -49 -45 -86q-44 -38 -92 -38q-24 0 -44 7.5t-35 21.5t-23.5 32.5
t-8.5 41.5q0 52 46 88q44 32 97 32q46 0 75.5 -27t29.5 -72zM337 71q0 59 -42 98q-3 2 -6 5t-6 5q-4 5 -8.5 10t-9.5 10q-43 40 -101 40q-78 0 -118 -59q-30 -42 -30 -76q0 -39 25 -67q8 -11 21 -19q3 -7 9 -11q18 -21 41 -27v-3v1q-1 -5 -1.5 -9.5l-0.5 -4.5q0 -44 30 -44
q4 -30 31 -30q2 0 6 1q2 0 4 0.5t4 0.5q61 13 107 65q45 51 45 114zM329 426q0 30 -12.5 53t-34.5 37q-14 23 -40 36t-58 13q-55 0 -103 -34q-50 -38 -50 -96q0 -30 12.5 -53.5t35.5 -38.5q16 -23 42.5 -37t60.5 -14q53 0 99 40h-1q49 41 49 94z" />
    <glyph glyph-name="less" unicode="&#x3c;" horiz-adv-x="587" 
d="M525 392l-342 -139l342 -139v-120l-506 206v106l506 208v-122zM565 499l-30 -13v43l-526 -216v-120l30 -12v-18l526 -214v142l-30 12v18l-274 111l304 123v144z" />
    <glyph glyph-name="equal" unicode="=" horiz-adv-x="658" 
d="M596 230q0 -60 -8 -78q-8 -15 -41 -15q-3 0 -11.5 0.5t-19.5 0.5q-10 0 -20.5 0.5t-19.5 0.5q-428 0 -435 7q-10 10 -10 62t8 65q9 13 58 13q6 0 18 2t18 2q27 0 66.5 -1t93.5 -3t94 -3t67 -1q20 0 58 3q39 3 59 3t25 -21v-37zM595 424q0 -31 -17 -42q-13 -8 -48 -8
l-372 1q-112 0 -119 9q-7 8 -7 32v33v22t1 14v-1q5 14 11 27t23 13q51 0 152 -3q102 -3 153 -3q27 0 83 3q55 3 84 3q34 0 45 -18q11 -17 11 -82zM636 200v39q-6 26 -30 29v1q-6 29 -35 29q-21 0 -60 -3q-38 -3 -57 -3q-27 0 -67 1t-94 3t-93.5 3t-66.5 1q-4 0 -9 -0.5
t-10 -1.5t-10 -1.5t-7 -0.5q-54 0 -66 -18q-10 -17 -10 -70q0 -56 13 -69q1 -2 19 -4q3 -18 11 -26q10 -10 442 -10h24t25 -1q8 0 14 -0.5t8 -0.5q39 0 50 21q9 18 9 82zM635 394q0 66 -13 87h1q-9 13 -27 19l-2 6t-2 5h1q-14 23 -54 23q-30 0 -85 -3q-56 -3 -82 -3
q-51 0 -153 3q-101 3 -152 3q-20 0 -28 -12t-13 -28v1q-1 -2 -1 -4q0 -1 -1 -3l7 -2l-8 1q-1 -5 -1 -15v-23v-33q0 -28 9 -38q3 -5 21 -8q2 -15 9 -22q11 -13 127 -13l372 -1q36 0 53 10q22 14 22 50z" />
    <glyph glyph-name="greater" unicode="&#x3e;" horiz-adv-x="587" 
d="M32 114l342 139l-342 139v122l506 -208v-106l-506 -206v120zM22 -21l30 12v-42l526 214v120l-30 12v18l-526 216v-144l30 -12v-18l274 -111l-304 -123v-142z" />
    <glyph glyph-name="question" unicode="?" horiz-adv-x="587" 
d="M404 113q0 -112 -140 -112q-105 0 -128 56q-8 21 -8 38q0 33 25 68q33 48 102 48q61 0 98 -19q51 -26 51 -79zM531 641q0 -87 -88 -182q-5 -5 -13.5 -14t-21.5 -23q-36 -41 -36 -84q0 -22 17 -42q1 -2 1 -7q0 -55 -117 -55q-42 0 -57 4q-31 8 -41 36q-4 9 -4 26
q0 26 31 79l5 10t8 15l61 89q36 52 36 100q0 73 -48 73q-13 0 -23 -7q-14 -8 -14 -18q0 -18 24 -25q24 -6 24 -17q0 -66 -34 -104.5t-98 -38.5q-71 0 -100 59q-17 36 -17 80q0 98 82 147q97 58 203 58q64 0 118 -21q68 -26 90 -74q12 -26 12 -64zM444 83q0 51 -43 80
q-14 22 -39 35q68 14 68 61q0 3 -0.5 5.5t-2.5 7.5q-15 18 -15 36q0 41 33 77q5 5 8.5 9t7.5 8q6 7 10.5 11.5l8.5 8.5q91 100 91 189q0 42 -13 68q-14 30 -42 51q-14 19 -34.5 33t-48.5 25q-56 22 -122 22q-111 0 -208 -59q-87 -53 -87 -156q0 -48 18 -84q13 -28 39 -46
q33 -49 100 -49q11 0 21 1.5t20 3.5l-7 -11q-5 -9 -8.5 -15.5t-5.5 -10.5q-32 -54 -32 -84q0 -19 5 -30v1q10 -26 33 -38q3 -5 6 -9l6 -8q-43 -12 -66 -47q-27 -39 -27 -74q0 -21 9 -42q9 -26 35 -41q29 -51 132 -51q150 0 150 122zM285 599q0 11 -12 19v0q0 1 1 1
q10 7 20 7h4q4 -12 4 -33v-5q-4 2 -8 3.5t-9 3.5v4z" />
    <glyph glyph-name="at" unicode="@" horiz-adv-x="812" 
d="M706 137q-108 -147 -303 -147q-162 0 -269 98q-106 99 -106 261q0 161 111 262q108 99 270 99q148 0 242 -74q103 -82 103 -234q0 -131 -102 -206q-77 -57 -151 -57q-52 0 -53 49h-2q-43 -49 -109 -49q-64 0 -105 62q-35 55 -35 121q0 90 46 148q50 62 138 62
q79 0 120 -56l9 47h94l-34 -209q-10 -59 -10 -55q0 -19 17 -19q32 0 55 36q26 43 28 122q2 218 -259 218q-117 0 -194 -77t-77 -192q0 -124 73 -194q74 -71 198 -71t203 55h102zM299 331q0 -43 22.5 -70.5t61.5 -27.5q42 0 67.5 31t25.5 80q0 42 -23 68t-60 26
q-45 0 -69.5 -31t-24.5 -76zM657 644q-96 76 -248 76q-166 0 -277 -102q-114 -104 -114 -269q0 -166 109 -268q2 -2 2.5 -3t2.5 -2q12 -13 25 -25q110 -101 276 -101q200 0 323 167h-54q12 13 24 30h-54q9 5 16 11q106 78 106 214q0 149 -98 234q-8 10 -18 19.5t-21 18.5z
M401 92q-109 0 -179 56q-52 64 -52 169q0 111 74 185t187 74q112 0 175 -43h-104l-7 -35q-42 44 -114 44q-94 0 -146 -66q-48 -60 -48 -154q0 -67 37 -126q16 -26 38 -42q43 -55 105 -55q61 0 101 36q2 -2 4 -2q7 -23 30 -30q-23 -6 -48.5 -8.5t-52.5 -2.5zM339 301
q0 41 22 69t62 28q16 0 32 -8q11 -20 11 -46q0 -45 -22.5 -73t-60.5 -28q-19 0 -33 7q-11 22 -11 51zM650 400v-2q-1 -38 -7 -67.5t-19 -49.5q-9 -14 -18 -21q0 2 0.5 4.5t1.5 6.5l-1 -1q1 2 1.5 5.5t1.5 6.5l31 189q9 -32 9 -71zM628 503h-17l3 22q4 -5 7.5 -10.5
t6.5 -11.5z" />
    <glyph glyph-name="A" unicode="A" horiz-adv-x="603" 
d="M311 424q0 10 -1 23.5t-3 32.5t-3 33t-1 24q0 15 1 19l-10 6q-34 -111 -34 -156q0 -28 22 -28q13 0 26 10q3 16 3 36zM545 48q0 -23 -28 -33q-42 -15 -91 -15q-53 0 -84 21q-4 13 -6.5 28.5t-4.5 35.5q-3 42 -8 64q-13 10 -35 10q-8 0 -45 -6q-3 -7 -7 -24.5t-9 -45.5
l-9 -54q-5 -5 -15 -9l-18 -9q-44 -11 -84 -11q-44 0 -58.5 9.5t-14.5 32.5q1 4 2.5 18t4.5 37q2 20 11 63.5t24 112.5l37 167q23 109 23 164q0 14 -11 47q-10 30 -10 48q0 24 15 38q1 1 19 11q68 37 175 46l63 5q59 0 75 -34q4 -69 12.5 -150t21.5 -175l46 -323q9 -65 9 -69
zM585 18q0 5 -9 70l-46 323q-13 94 -21.5 175t-12.5 151q-11 21 -31 31q-21 41 -85 41l-63 -5q-110 -9 -179 -47q-18 -10 -21 -13q-18 -17 -18 -45q0 -19 11 -51q5 -14 7.5 -25t2.5 -19q0 -53 -23 -162l-37 -167q-15 -68 -24 -112.5t-11 -64.5q-2 -11 -2.5 -19t-1.5 -15
q-1 -17 -3 -22q0 -19 6.5 -30.5t24.5 -16.5q4 -19 22 -27t60 -8t86 11l20 10q14 7 21 14l9 56q5 23 8 39t5 24q17 2 26 3.5t12 1.5q1 -13 3 -35q2 -20 5 -37.5t7 -31.5q6 -5 12 -8.5t14 -5.5q1 -4 1.5 -8t2.5 -8q37 -25 93 -25q50 0 94 16q35 13 35 42z" />
    <glyph glyph-name="B" unicode="B" horiz-adv-x="588" 
d="M325 276q0 20 -6 29q-2 2 -7.5 7t-14.5 13q-2 0 -13 1.5t-15 1.5q-13 0 -20 -9q0 -6 -3 -25q-1 -10 -1.5 -16t-0.5 -9q0 -22 12 -35q7 -3 18 -3q51 0 51 45zM308 546q0 22 -12 45q-20 11 -24 11q-30 0 -30 -58q0 -40 29 -40q37 0 37 42zM529 243q0 -131 -97 -192
q-80 -51 -218 -51q-144 0 -154 46q-8 37 -8 199q0 37 0.5 82t1.5 99l3 181q0 17 -14 56q-13 36 -13 58q0 34 31 50l5 1.5t16 5.5q65 22 143 22q135 0 197 -27q95 -41 95 -154q0 -44 -17 -81q-10 -20 -36 -49q-31 -34 -39 -46q104 -66 104 -200zM569 213q0 120 -84 189
q-3 4 -6.5 8t-7.5 8q5 6 12.5 14.5t17.5 19.5q14 15 23 28t15 24q18 37 18 85q0 93 -61 140q-25 33 -70 53q-62 28 -201 28q-39 0 -75.5 -5.5t-70.5 -17.5q-11 -4 -14 -4q-2 0 -7 -2q-38 -20 -38 -60q0 -10 3 -25.5t11 -35.5q13 -37 13 -53l-3 -181v-31q-1 -44 -1.5 -81
t-0.5 -69q0 -164 8 -201q5 -22 31 -34q17 -50 163 -50q138 0 223 53q102 64 102 200zM315 276q0 -30 -31 -35q0 2 0.5 4t0.5 5q0 2 0.5 5t0.5 7q2 16 3 22q4 4 10 4q2 0 6.5 -0.5t9.5 -1.5h-1h1v-10zM298 546q0 -25 -16 -31q0 40 14 46q2 -10 2 -15z" />
    <glyph glyph-name="C" unicode="C" horiz-adv-x="509" 
d="M450 265q0 -129 -63 -202q-8 -10 -16 -17.5t-15 -12.5q-47 -33 -114 -33q-2 0 -5.5 0.5t-9.5 1.5q-95 14 -132 71q-67 100 -67 270q0 457 288 457q99 0 105 -38q2 -16 3.5 -38.5t1.5 -53.5q0 -15 -3 -105q-2 -35 -3 -45q-5 -26 -23 -37q-2 -1 -11 -1q-31 0 -80 44
q-48 45 -50 45q-15 0 -24 -15l-4.5 -9t-8.5 -20q-2 -28 -3 -49.5t-1 -38.5q0 -155 78 -155q27 0 71 38q43 39 53 39q20 0 31 -53q1 -5 1.5 -15.5t0.5 -27.5zM490 235q0 17 -0.5 28t-1.5 16q-12 59 -39 62q-12 30 -32 30q-12 0 -60 -42v1q-42 -36 -64 -36q-11 0 -20 3
q-18 36 -18 112q0 16 1 37t3 49q5 12 8 18.5t4 8.5v-1q6 10 15 10q-2 0 43 -42q52 -47 87 -47q11 0 15 2q24 14 29 44q1 10 3 47q3 90 3 105q0 32 -1.5 54.5t-3.5 38.5q-4 22 -31 34q-12 43 -114 43q-298 0 -298 -467q0 -173 69 -276v1q14 -23 35 -38q41 -55 134 -68
q3 0 5.5 -0.5t4.5 -0.5t3.5 -0.5t2.5 -0.5q71 0 120 35q7 5 15.5 13t17.5 19v-1q65 75 65 209z" />
    <glyph glyph-name="D" unicode="D" horiz-adv-x="582" 
d="M341 402q0 68 -24 131q-11 29 -36 29q-9 0 -19 -6q-15 -9 -15 -166q0 -39 0.5 -63t1.5 -33q1 -5 10 -14q22 -5 28 -5q54 0 54 127zM523 438q0 -65 -12 -168q-2 -20 -4 -33t-4 -21q-2 -13 -6.5 -26t-9.5 -27q-53 -128 -156 -149q-62 -13 -142 -13q-26 0 -46.5 1.5
t-34.5 3.5q-40 8 -47 50q-1 0 -2 44q-1 29 -1.5 54t-0.5 47q0 33 0.5 73.5t1.5 89.5l3 205v23q-1 7 -1 11v6q0 20 -16 55q-15 36 -15 56q0 25 27 42l26 10q75 28 158 28q142 0 202 -72q4 -5 9.5 -13.5t12.5 -19.5q58 -97 58 -257zM563 408q0 165 -59 262q-4 7 -9.5 15
t-10.5 14q0 2 -4 6l1 -1q-14 15 -27 26q-2 2 -3 4q-63 76 -210 76q-85 0 -162 -29q-1 0 0 0h1l-2 -1t-8 -2q-8 -3 -14 -6l-6 -3l2 2q-32 -20 -32 -51q0 -11 4 -26t12 -34q15 -35 15 -51v-7q0 -4 1 -11v-22l-3 -205q0 -8 -0.5 -16t-0.5 -16q-1 -38 -1 -71v-60
q0 -19 0.5 -39.5t1.5 -44.5v-17q0 -6 0.5 -11.5t0.5 -10.5q0 -20 1 -25v1q6 -39 36 -53q13 -28 49 -35q14 -2 35 -3.5t48 -1.5q82 0 144 13q109 23 163 155q6 16 10.5 29.5t6.5 25.5q2 8 4 21t4 34q12 103 12 169zM331 402q0 -115 -43 -117q-1 13 -1 31v44q0 151 10 157
q5 2 7.5 3.5t5.5 1.5q21 -57 21 -120z" />
    <glyph glyph-name="E" unicode="E" horiz-adv-x="541" 
d="M480 641q0 -75 -48 -75q-19 0 -59 21q-41 21 -65 21q-41 0 -44 1q-37 -9 -37 -48q0 -20 7 -45q7 -6 16 -6q14 0 56 17q40 18 59 18q26 0 37 -18q6 -11 6 -43q0 -8 -0.5 -20t-1.5 -29q-1 -16 -1.5 -28t-0.5 -20v-15q-2 -16 -12 -32q-12 -20 -26 -20q-30 0 -73 22l-25 12.5
t-19 10.5q-20 0 -20 -60q0 -39 15 -52q10 -9 34 -9q31 0 93 27q61 27 73 27q8 -1 15 -9.5t11.5 -20t7 -23.5t1.5 -20q0 -4 -0.5 -12.5t-1.5 -22.5t-1.5 -22.5t-0.5 -12.5q0 -100 -26 -141q-26 -12 -55 -12h-8q-3 1 -9 1q-23 -1 -70 -1h-117q-78 0 -100 6q-43 12 -43 78
q0 44 1 107.5t3 148.5l6 261q0 19 -14 64q-13 39 -13 63q0 21 9 39q29 24 99 29q17 1 23.5 1.5t2.5 0.5h99q3 0 9 -0.5t16 -1.5t15 -1h8q25 0 59 -2t77 -6q21 -7 26 -72q0 -6 3 -21q2 -11 3 -25t1 -30zM520 611q0 17 -1 31.5t-3 25.5q-3 15 -3 19q-4 72 -36 82h-3
q-9 24 -27 30q-43 4 -77 6t-59 2h-8q-5 0 -15 1q-4 0 -7.5 0.5t-6.5 0.5q-4 0 -6.5 0.5t-4.5 0.5h-99q-6 -1 -10 -1q-3 0 -17 -1q-74 -5 -106 -32q-11 -24 -11 -46q0 -25 14 -66h-1q14 -45 14 -61l-6 -261q-2 -85 -3 -148.5t-1 -107.5q0 -67 40 -85q12 -26 40 -33
q24 -6 103 -6h117t70 1q6 0 9 -1h8q30 0 61 14q30 48 30 149q0 2 0.5 6t0.5 10q0 4 0.5 9t0.5 10t0.5 10t0.5 9q0 6 0.5 10t0.5 6v5q0 9 -3.5 22t-9.5 24.5t-13.5 20t-16.5 10.5q-6 12 -14 20.5t-17 10.5q-5 0 -14 -3h-1q13 20 14 36v16v13q0 8 1 19q0 4 0.5 8t0.5 8t0.5 8
t0.5 8q1 10 1 18v15q0 37 -7 48q-9 16 -27 20q-1 4 -3 10q-14 23 -46 23q-21 0 -63 -19q-11 -5 -19.5 -8t-15.5 -5v8q0 31 28 38q6 -1 16 -1h27q20 0 60 -20q41 -22 64 -22q58 0 58 85zM367 280q-61 -26 -89 -26h-8q-1 5 -1 10v11q0 45 7 49q8 -5 19 -10t24 -11h-1
q15 -8 28 -13t26 -8q-3 0 -5 -2z" />
    <glyph glyph-name="F" unicode="F" horiz-adv-x="513" 
d="M457 628q0 -77 -1 -80q-7 -49 -47 -49q-22 0 -57 23q-22 14 -35.5 23t-19.5 11q-2 0 -11 1.5t-12 1.5q-12 0 -18 -10q-11 -5 -11 -46q0 -23 1 -40t3 -27q10 -9 23 -9t43 21t46 21q35 0 41 -77q1 -6 1 -26v-55q0 -52 -5 -70q-10 -37 -50 -37q-2 1 -5 1.5t-7 2.5
q-19 10 -60 46q-1 1 -5 1q-3 0 -18 -17q-1 -10 -1.5 -18.5t-0.5 -15.5q0 -38 9 -99q4 -24 5.5 -39.5t1.5 -22.5q0 -12 -3 -16q-6 -20 -98 -25q-22 -1 -31 -1.5t-4 -0.5q-2 0 -9.5 1t-9.5 1q-43 0 -56 15q-13 35 -13 90v21q0 14 1 31t1.5 30.5t0.5 21.5v33v20q-1 5 -1 8v5
q0 37 3 109q2 37 3 64t1 46q0 8 -0.5 19t-1.5 26t-1 26v19q0 94 -18 139q0 40 17 52q32 23 145 23q-11 0 139 -3q90 -1 104 -10q13 -7 15 -20q6 -30 6 -139zM497 598q0 111 -6 141q-3 17 -20 27v-1q-2 1 -4.5 2t-5.5 2q-3 17 -20 27v-1q-8 5 -35 8t-74 4q-35 1 -54.5 1.5
t-32.5 0.5t-24 0.5t-29 0.5q-114 0 -150 -25q-21 -15 -21 -62q18 -45 18 -137v-19t1 -26q0 -4 0.5 -8t0.5 -8q1 -10 1 -17v-12q0 -19 -1 -46t-3 -64q-3 -72 -3 -109v-5t1 -9v-52v-16q0 -9 -1 -20q0 -4 -0.5 -7.5t-0.5 -8.5q-1 -17 -1 -31v-21q0 -55 15 -95q9 -11 25 -15
q1 -5 5 -15q17 -20 64 -20q1 0 3 -0.5t4 -0.5q3 -1 6 -1h6q9 1 13 1t22 1q99 5 108 32q3 7 3 19q0 8 -1.5 24t-5.5 40v-1q-9 61 -9 98q0 5 0.5 12.5t1.5 16.5v1q11 11 8 11q43 -37 59 -45l15 -5q1 0 1.5 -0.5t1.5 -0.5q48 0 60 44q5 18 5 73v55q0 21 -1 27q-8 76 -42 85
q-14 31 -39 31q-18 0 -52 -23q-8 -5 -13.5 -9t-10.5 -6v32q0 34 9 39q4 7 10 7q1 0 11 -2q2 -1 5 -1h6q13 -5 22 -12t26 -18q40 -27 65 -27q48 0 57 58l-1 -1q2 5 2 25v57z" />
    <glyph glyph-name="G" unicode="G" horiz-adv-x="573" 
d="M514 434q0 -10 -12 -58q-5 -43 -8 -84.5t-3 -83.5q0 -138 -10 -175q-20 -24 -63 -24h-11t-18 1t-18 1.5t-10 0.5q-18 0 -52 -6q-35 -6 -51 -6q-201 0 -224 278q-2 31 -3.5 58.5t-1.5 52.5q0 268 144 367q14 10 34.5 17.5t47.5 14.5q49 12 87 12q71 0 106 -18
q23 -12 23 -123q0 -44 -9 -81q-19 -25 -41 -25q-25 0 -68 30q-44 30 -64 30q-68 0 -68 -160q0 -3 -0.5 -9.5t-1.5 -16.5t-1 -17v-9q0 -2 0.5 -6.5t1 -9.5t1 -9.5t0.5 -5.5q2 -25 5 -42t5 -27q11 -39 40 -53h10q19 0 29 13q2 13 3.5 24.5t1.5 22.5q0 73 -38 103
q-1 6 -1.5 10.5t-0.5 7.5q0 29 24 37q36 12 89 12q27 0 52.5 -2.5t48.5 -7.5q17 -4 21 -9.5t4 -24.5zM554 404q0 23 -5 30.5t-25 12.5q-2 16 -8 21.5t-25 9.5q-23 5 -49 7.5t-54 2.5q-54 0 -92 -13v1q-31 -10 -31 -47v-7q0 -3 1 -7q0 -2 0.5 -5t0.5 -4q38 -30 38 -98
q0 -10 -1.5 -20.5t-3.5 -22.5q-6 -7 -19 -7h-4q-2 4 -3 7.5t-3 8.5v-1q-2 10 -5 26.5t-5 40.5v5t-1 9v-1q-1 5 -1.5 10.5t-0.5 7.5v9t1 16q0 3 0.5 6t0.5 6q1 5 1 9v6q0 150 58 150q18 0 58 -28q46 -32 74 -32q27 0 51 31q9 36 9 85q0 116 -28 132q-4 2 -14 6q-6 17 -16 24
q-35 19 -111 19q-40 0 -89 -12q-28 -7 -49 -15t-37 -19q-148 -102 -148 -375q0 -25 1.5 -53t3.5 -59q14 -178 99 -245q58 -72 165 -72q18 0 53 6q33 6 50 6q2 0 4.5 -0.5t6.5 -0.5q3 0 7 -0.5t9 -0.5q11 -1 18 -1h12q49 0 73 30q10 37 10 179q0 41 3 82.5t8 84.5v-1
q12 48 12 60z" />
    <glyph glyph-name="H" unicode="H" horiz-adv-x="607" 
d="M545 726q0 -32 -1.5 -80.5t-3.5 -114.5q-2 -65 -3 -113.5t-1 -80.5q0 -135 6 -241q1 -8 1 -16v-12q0 -43 -27 -50q-60 -17 -99 -17q-18 0 -15 1q-1 0 -7 -1t-8 -1q-21 0 -37 13q-14 26 -14 118q0 -5 0.5 1t1.5 22t1.5 27t0.5 17v68q-13 31 -28 31h-9q-2 -1 -8 -1
q-25 0 -26 -1q-18 -3 -23 -32q-1 -3 -1 -44q0 -9 0.5 -22.5t1.5 -31.5t1.5 -31.5t0.5 -22.5q0 -54 -12 -85q-4 -12 -56 -18q-21 -2 -37.5 -3.5t-27.5 -1.5h-37q-21 3 -28 19l-9 21q15 360 15 535q0 69 -16 117q-1 2 -3.5 8.5t-6.5 17.5v6q0 27 18 41q1 1 9 4l8 3
q60 23 126 23h17q8 0 13 -1q5 -3 10 -5q7 -5 12 -21q1 -4 1 -41q0 -10 -0.5 -25.5t-1.5 -35.5t-1 -36v-25q0 -26 3 -54q14 -17 51 -17q30 0 41 15q8 13 8 44q0 4 1 17t1 16q0 15 -6 47l-3.5 28t-1.5 20q0 39 19 51q9 6 59 15q53 10 80 10q28 0 36 -8q15 -18 15 -66zM585 696
q0 52 -17 72q-8 6 -20 9q-3 12 -10 21q-6 5 -16.5 8.5t-27.5 3.5q-29 0 -82 -10q-51 -9 -62 -16q-24 -15 -24 -60q0 -10 1.5 -22l3.5 -28q6 -32 6 -45q0 -2 -0.5 -6t-0.5 -9v1q-1 -5 -1 -11v-8q0 -30 -6 -39v1q-8 -11 -33 -11h-13q-1 8 -1 15v16v25q0 16 1 36q0 5 0.5 9.5
t0.5 9.5q1 14 1 24v18v29t-1 14q-6 21 -14 26q-2 1 -5.5 3t-8.5 5h-4q-6 17 -12 22q-2 1 -5.5 3t-8.5 5q-5 1 -14 1h-20q-70 0 -130 -24l-8 -3l4 1q-1 0 -1.5 -0.5t-1.5 -0.5q-11 -4 -13 -6l1 1q-22 -16 -22 -49v-9q5 -15 9 -23q0 -1 0.5 -0.5l0.5 0.5q16 -48 16 -117
q0 -177 -15 -537l10 -23q7 -17 27 -23l3 -7q5 -11 14 -17t22 -8h38q12 0 28.5 1.5t37.5 3.5q58 8 64 24q13 33 13 89v16q0 10 -1 21q0 4 -0.5 8t-0.5 9t-0.5 9t-0.5 9q-1 11 -1 20v16v30t2 16q3 19 16 20q1 1 22 1h5v-58v-10t-1 -14q0 -5 -0.5 -9.5t-0.5 -9.5q-1 -12 -1 -15
t-1 -10q0 -91 16 -123q9 -9 24 -14q2 -5 3 -8.5t3 -7.5q20 -17 45 -17h6t7 1q2 0 3 1q3 -1 14 -1q42 0 102 17q34 9 34 60v13t-1 16q-6 106 -6 240q0 32 1 80.5t3 113.5q2 66 3.5 114.5t1.5 80.5z" />
    <glyph glyph-name="I" unicode="I" horiz-adv-x="324" 
d="M263 60q0 -19 -3 -23q-22 -37 -91 -37q-8 0 -95 6q-24 13 -28 52v64q0 6 0.5 16.5t1 21.5t1 21t0.5 16q0 29 0.5 71t1.5 99t1.5 99t0.5 70q0 6 0.5 16t1 20.5t1 20.5t0.5 16q0 20 -14 65q-13 42 -13 67q16 27 56 39q17 4 34.5 7t34.5 7q28 6 45 6q41 0 52 -26
q11 -27 11 -134q0 -20 -1 -51t-3 -73q-3 -83 -3 -123q0 -28 1 -69.5t3 -97.5q2 -55 3 -96.5t1 -69.5zM303 30q0 28 -1 69.5t-3 96.5q-2 56 -3 97.5t-1 69.5q0 40 3 123v-1q2 42 3 73.5t1 51.5q0 111 -12 138q-7 19 -29 27q-1 1 -1 3q-12 32 -61 32q-19 0 -47 -6
q-9 -2 -18 -3.5t-17 -3.5q-9 -2 -18.5 -3.5t-17.5 -3.5q-42 -13 -62 -46q0 -31 13 -73q14 -45 14 -62q0 -6 -0.5 -15.5t-1.5 -20.5t-1 -21v-16v-49q0 -28 -1 -64q0 -13 -0.5 -27t-0.5 -29q0 -14 -0.5 -28t-0.5 -27q-1 -37 -1 -66v-49v-15t-1 -20t-1.5 -22t-0.5 -18v-65
q4 -45 34 -61h3q9 -20 27 -30q44 -3 69.5 -4.5t29.5 -1.5q74 0 100 42q4 7 4 28z" />
    <glyph glyph-name="J" unicode="J" horiz-adv-x="525" 
d="M464 775q-4 -55 -5.5 -150t-2.5 -233v-25q0 -16 1 -39q1 -20 1 -37v-28q-1 -18 -2 -33.5t-3 -29.5q-1 -12 -6 -32q-35 -168 -223 -168q-200 0 -200 204q0 13 0.5 23t1.5 18q7 52 49 89t87 33q19 0 32 -5q46 -19 50 -58q1 -10 1.5 -16t0.5 -9q0 -19 -13 -26q-9 2 -18.5 -3
t-9.5 -13q0 -24 25 -24q14 0 29 15q8 21 10 80q2 10 2 20q0 12 -6 116q-4 68 -9.5 119.5t-12.5 87.5q-1 5 -5 16t-11 28q-11 30 -11 46t10 29q63 30 143 30h35t18 -1q34 -5 42 -24zM503 749q-7 17 -29 25l-1 5q-11 26 -50 30h1q-5 1 -19 1h-36q-81 0 -150 -32
q-13 -17 -13 -37q0 -19 12 -50q13 -32 15 -42q7 -36 12.5 -87.5t9.5 -118.5q6 -104 6 -115v-7q-4 3 -7.5 5.5t-7.5 5.5q-14 24 -48 39q-15 6 -36 6h-10q-42 0 -84 -36q-45 -39 -52 -95q-1 -8 -1.5 -18t-0.5 -24q0 -124 69 -176q53 -68 171 -68q197 0 233 176q5 19 6 32
q2 13 3 29t2 36v28q0 17 -1 37q-1 23 -1 39v25q1 138 2.5 232.5t5.5 149.5z" />
    <glyph glyph-name="K" unicode="K" horiz-adv-x="626" 
d="M566 773q0 -8 -6 -21q-9 -20 -27.5 -59.5t-47.5 -97.5q-50 -102 -68 -161q2 -12 6 -30t9 -41q9 -41 36 -60q2 -1 12 -1h11q3 1 12 1q25 0 39 -32q10 -24 10 -55q0 -8 -1.5 -22t-3.5 -34q-20 -159 -129 -159q-36 0 -53 11q-41 25 -60 102q-7 26 -14 56t-15 64q-8 8 -11 8
q-2 0 -3 -1q-17 -32 -17 -95v-18t1 -25t1.5 -24.5t0.5 -17.5q0 -20 -5 -28q-17 -18 -54 -24q-8 -1 -23 -2t-38 -3q-11 -1 -17 -1.5t-8 -0.5q-33 0 -41 23q-10 30 -10 84v104t1 93l2 198v65t-1 53q0 5 -0.5 16.5t-1.5 29.5q-2 9 -12 33q-10 20 -10 34q0 16 12 27q2 1 6.5 3.5
t11.5 6.5q55 28 119 28q11 0 23.5 -1.5t26.5 -3.5q15 -12 15 -15q0 -17 -0.5 -41.5t-1.5 -58.5q-1 -33 -1 -58v-41t0.5 -37.5t1.5 -45.5q3 -4 7 -4q5 0 17 20q17 42 27 67.5t14 34.5q10 28 17 54.5t11 52.5q1 5 1.5 11t1.5 12q3 8 8 13q14 20 49 27q16 4 58 9l35 3.5t24 1.5
q53 0 53 -27zM606 743q0 25 -30 33q-3 34 -63 34q-10 0 -25 -1.5l-35 -3.5q-45 -5 -60 -9h1q-39 -7 -55 -31l1 1q-7 -7 -11 -18q-1 -6 -1.5 -12.5t-1.5 -11.5q-4 -27 -11 -53t-16 -52q-2 -3 -4 -9t-4 -11t-4.5 -11.5t-5.5 -14.5v34t1 43q0 10 0.5 18.5t0.5 16.5q1 21 1 37
v28q0 8 -21 25q-2 0 -4.5 0.5t-4.5 0.5v4q0 8 -21 25q-14 2 -27 3.5t-27 1.5q-67 0 -122 -28q-2 -2 -6 -3.5t-6 -3.5q-3 -2 -6.5 -3.5t-4.5 -2.5q-14 -12 -14 -34q0 -17 11 -38q4 -11 6.5 -18t4.5 -12q0 -8 0.5 -14t0.5 -11q0 -8 0.5 -12.5t0.5 -7.5q1 -23 1 -53v-65
l-2 -198q-1 -44 -1 -93v-104t11 -87q6 -21 29 -27q0 -2 1 -3q9 -30 50 -30q1 0 3 0.5t5 0.5h8t10 1q15 2 27 2.5t20 1.5q4 0 8 0.5t7 0.5q40 6 61 30q6 9 6 32v12t-1 16q0 3 -0.5 6.5t-0.5 7.5q-1 14 -1 25v18v15t1 15q2 -9 4.5 -17.5t4.5 -16.5q18 -77 62 -106
q14 -20 33 -32q21 -13 58 -13q118 0 139 168q2 20 3.5 34.5t1.5 22.5q0 33 -11 59q-12 28 -33 35q-15 33 -45 33q-8 0 -13 -1h-11q-2 5 -4 10.5t-3 12.5q-5 21 -9 38t-6 29q9 31 26 71t41 88q29 58 47.5 97.5t27.5 59.5q7 15 7 25zM329 590v-1v1zM299 620v-1v1z" />
    <glyph glyph-name="L" unicode="L" horiz-adv-x="481" 
d="M425 164q0 -102 -16 -135q-7 -17 -48 -22q-8 0 -19.5 -0.5t-25.5 -1.5q-17 -1 -28.5 -1.5t-16.5 -0.5q-28 -1 -58.5 -1.5t-63.5 -0.5q-49 0 -70 8q-32 14 -32 57q0 81 3 185l7 266q1 19 1 39v42q0 4 -3 24q-5 32 -10 59t-12 48q-2 8 -2 12q0 22 18 31q58 29 141 29
q15 0 28.5 -1t24.5 -3l15 -11q7 -13 11 -24q0 -34 -2.5 -84.5t-7.5 -119.5q-9 -137 -9 -204q0 -57 2 -67q6 -24 34 -24q16 0 50 19t48 19q20 0 35 -25q6 -68 6 -112zM465 134q0 48 -6 116q-13 22 -30 28v2q-18 31 -45 31q-19 0 -53 -20q-29 -15 -41 -18v51q0 66 9 203
q5 69 7.5 120t2.5 85q-7 19 -13 30l-19 15q-2 0 -2.5 0.5t-1.5 0.5q-2 4 -3.5 7.5t-3.5 6.5l-19 15q-11 2 -25.5 3t-31.5 1q-87 0 -145 -30q-24 -12 -24 -40q0 -5 0.5 -8.5t1.5 -6.5q13 -41 22 -106q3 -20 3 -22v-42t-1 -39l-7 -266q-3 -104 -3 -185q0 -50 36 -65
q9 -22 32 -31q21 -9 74 -9q33 0 63.5 0.5t58.5 1.5q3 0 8 0.5t13 0.5q5 0 11 0.5t13 0.5q3 0 6 0.5t6 0.5q10 1 18 1h16q46 5 56 28q17 35 17 139z" />
    <glyph glyph-name="M" unicode="M" horiz-adv-x="793" 
d="M730 712q0 -24 -3 -72q-1 -24 -1.5 -42t-0.5 -30v-75t-1 -106q-1 -60 -1 -105v-75v-37t1 -33l2 -70q0 -9 -14 -40q-38 -23 -143 -23q-8 0 -21 7.5t-17 14.5q-7 13 -7 41q0 58 2.5 119.5t7.5 127.5q1 10 2 27.5t3 43.5q1 5 1 7v0q0 16 -12 21q-9 -6 -14 -26
q-8 -32 -16.5 -68t-16.5 -78l-29 -148q-1 -4 -3 -11.5t-4 -18.5q-2 -5 -5.5 -15t-8.5 -24q-8 -18 -62 -18q-11 0 -25 1.5t-31 3.5q-26 4 -49 132q-3 22 -8 53.5t-12 73.5q-2 13 -6.5 34t-9.5 50q-1 5 -2.5 14.5t-4.5 22.5q-2 5 -5 5q-6 0 -11 -11t-5 -19q0 -3 2 -15t2 -16
t-1 -17.5t-1 -17.5q0 -20 1.5 -49t5.5 -69q4 -39 6 -68t2 -49q0 -38 -23 -49q-33 -16 -86 -16q-8 0 -42 12q-15 13 -16 47q-1 29 -1.5 66t-0.5 84v60t1 85t1 85v60q0 10 -0.5 36t-1.5 69q0 5 -0.5 16t-1.5 28q-1 4 -2.5 11.5t-5.5 18.5q-6 19 -6 33q0 53 63 65q30 5 66.5 10
t81.5 10q20 2 33.5 3t18.5 1q43 0 52 -32q6 -21 12 -57t11 -88q11 -96 28 -144q1 -4 4 -4t7 4q8 22 14.5 46t11.5 50q3 17 7.5 41.5t11.5 56.5q2 11 7.5 30t15.5 48q12 24 62 33q9 1 30 3q38 4 59.5 6t26.5 2q73 0 73 -36q0 -3 0.5 -9.5t0.5 -14.5q0 -7 0.5 -13.5t0.5 -9.5z
M770 682v10q0 8 -1 16q0 7 -0.5 13t-0.5 8q0 29 -31 39q-7 37 -82 37q-8 0 -21 -1.5t-39 -3.5q-12 -2 -27 -3q-24 -2 -31 -3q-55 -11 -68 -37q-11 -34 -17 -53.5t-8 -28.5q-7 -32 -11.5 -56.5t-7.5 -41.5q-2 -10 -4 -19.5t-4 -18.5q-2 13 -3.5 26.5t-3.5 28.5
q-10 104 -23 147q-7 25 -31 34q-12 35 -61 35q-5 0 -19 -1t-34 -3q-45 -5 -82 -10t-67 -10q-71 -14 -71 -75q0 -17 6 -36q4 -12 5.5 -19t2.5 -10q0 -6 0.5 -11.5t0.5 -9.5q1 -8 1 -13v-8q0 -20 0.5 -36.5t0.5 -29.5q0 -14 0.5 -24t0.5 -15v-60t-1 -85t-1 -85v-60
q0 -47 0.5 -84t1.5 -66q1 -38 20 -55q10 -4 15 -5q4 -16 15 -25q40 -14 48 -14q55 0 90 17q29 14 29 58q0 20 -2 49.5t-6 68.5q-2 14 -3 26.5t-2 23.5q3 -19 5.5 -34.5t4.5 -27.5q24 -134 57 -140q1 0 1 -1h1q14 -26 28 -29q17 -2 31.5 -3.5t26.5 -1.5q32 0 49 6t22 18
q2 5 3 8l2 6l-1 -2q4 10 6.5 18t4.5 12q2 8 3 12.5t2 8.5l-1 -1q1 2 1.5 4.5t1.5 4.5l24 123q-2 -30 -2 -59v-58q0 -33 8 -46q2 -5 9.5 -10.5t15.5 -10.5q1 -3 5 -9q5 -8 20.5 -17.5t26.5 -9.5q55 0 92 6.5t58 18.5q8 19 12.5 30.5t4.5 17.5l-2 70q-1 16 -1 33v37v75t1 105
q1 61 1 106v75v21t1 27q0 5 0.5 10.5t0.5 12.5q3 48 3 73z" />
    <glyph glyph-name="N" unicode="N" horiz-adv-x="613" 
d="M63 8q-18 0 -22 33v51q0 44 2 108.5t6 151.5t6 151.5t2 108.5q0 19 -13 55q-12 37 -12 58q0 14 6 28q23 20 91 35q55 12 99 12q41 0 58 -20q10 -11 26 -87q7 -32 12 -56t8 -41q14 -57 39 -128l10 -3l5 1q6 30 6 58q0 34 -9 105q-4 35 -6 61.5t-2 43.5q0 45 52 58
q34 8 90 8q34 0 34 -57q0 -26 -1 -58.5t-3 -71.5q-2 -38 -3 -71t-2 -61q-6 -294 -6 -350q0 -88 -32 -111q-25 -17 -119 -17q-47 0 -70 20q-18 16 -28 55q-5 22 -9.5 43t-9.5 42q-40 155 -59 174q-7 -14 -7 -39q0 -42 6 -124q4 -42 5.5 -73t1.5 -51q0 -49 -100 -49
q-30 0 -47 7h-5zM31 92v-51l1 -11q6 -31 29 -31h1q6 -30 29 -30h5q18 -7 49 -7q110 0 110 58q0 22 -1.5 52.5t-5.5 71.5q-2 20 -3 38t-2 32q7 -26 15 -54q41 -153 64 -160l9 -2q12 -24 21 -27q18 -7 63 -7q99 0 125 19q36 25 36 118l6 350q2 44 3 76.5t2 54.5v-1q2 37 3 70
t1 62q0 59 -34 66q-9 31 -40 31q-61 0 -93 -8h1q-60 -15 -60 -68q0 -19 1.5 -45t5.5 -58q5 -37 7 -63t3 -40q-23 93 -30 137q-20 83 -28 92v-1q-8 9 -23 16q-1 4 -3 7.5t-4 7.5v-1q-20 24 -66 24t-101 -12q-70 -15 -97 -39q-8 -21 -8 -34q0 -23 12 -60q13 -36 13 -53
q0 -44 -2 -108.5t-6 -151.5t-6 -151.5t-2 -108.5z" />
    <glyph glyph-name="O" unicode="O" horiz-adv-x="577" 
d="M334 447q0 114 -63 114q-18 0 -33 -19q-20 -26 -20 -141q0 -55 7 -79q13 -48 52 -48q37 0 49 34q8 24 8 65v74zM517 410q0 -286 -140 -381q-44 -29 -121 -29q-65 0 -106 29q-98 71 -116 252q-2 26 -3.5 43t-1.5 26q0 171 58 308q60 142 203 142q81 0 123 -43
q66 -69 88 -161q16 -64 16 -186zM557 380q0 124 -16 188q-22 94 -91 166q-4 3 -7 6t-7 6q-4 5 -8 9t-8 9q-45 46 -130 46q-151 0 -212 -148q-30 -70 -44.5 -148t-14.5 -164q0 -10 1.5 -27t3.5 -43q17 -177 108 -250q18 -23 42 -39q45 -31 112 -31q78 0 126 31
q145 98 145 389zM324 373q0 -22 -2 -37t-5 -25q-9 -27 -40 -27q-6 0 -9 1q-2 6 -3 10q-7 24 -7 76q0 111 18 135q12 15 25 15q4 0 12 -2q11 -27 11 -72v-74z" />
    <glyph glyph-name="P" unicode="P" horiz-adv-x="539" 
d="M303 506q0 65 -37 65q-21 0 -25 -9q-3 -5 -3 -29v-14q0 -9 -1 -24t-1 -25v-14q0 -28 26 -28q18 0 24 10q17 29 17 68zM483 482q0 -136 -69 -220q-52 -62 -153 -64q-10 -9 -10 -28q0 -3 1 -15t1 -16v-6q-1 -2 -1 -6q0 -9 4 -32t4 -33q0 -18 -7 -31q-48 -30 -119 -30
q-25 0 -41 1t-25 5t-13 10.5t-5 17.5t-1.5 36.5t-0.5 65.5q0 34 0.5 74.5t1.5 89.5l3 164v20q0 10 -1 19q-2 18 0 38l2 34q0 16 -3 48q-3 33 -3 49q0 11 -9 34q-8 24 -8 27q0 10 8 21q2 2 6 4.5t9 6.5q55 34 180 34h9q62 0 120 -32q57 -31 83 -87q37 -78 37 -199zM523 452
q0 60 -9 110.5t-29 92.5q-19 42 -55 70q-23 30 -62 52q-59 33 -125 33h-9q-128 0 -188 -38l-4 -2l-4.5 -3t-6.5 -6q-10 -15 -10 -27q0 -6 9 -31q8 -22 8 -30q0 -17 3 -50q3 -32 3 -46l-2 -34q-1 -5 -1 -10v-10v-11q0 -5 1 -10v1q1 -9 1 -19v-19l-3 -164q0 -8 -0.5 -16
t-0.5 -16q-1 -38 -1 -71v-61q0 -40 0.5 -66t1.5 -37q2 -17 8 -26t23 -13q2 -11 7 -17.5t15.5 -10.5t27.5 -5t43 -1q75 0 128 34q8 13 8 37q0 5 -1 13.5t-3 21.5q-4 23 -4 30q0 2 1 4v8v7q0 6 -1 11q0 4 -0.5 7.5t-0.5 5.5q0 13 5 18q103 3 156 68q71 86 71 226zM293 506
q0 -34 -16 -63l-1 -1v10t1 13q1 15 1 24v14q0 22 1 23q2 4 12 5q1 -5 1.5 -11.5t0.5 -13.5z" />
    <glyph glyph-name="Q" unicode="Q" horiz-adv-x="585" 
d="M322 383q0 125 -25 159q-4 22 -33 22q-53 0 -53 -133q0 -60 14 -104q8 -5 15 -5q4 0 11.5 4.5t13.5 4.5q3 0 9 -2t13 -4t12.5 -4t7.5 -2q5 0 10 3q2 17 3.5 32t1.5 29zM525 115q0 -56 -33 -105t-83 -75h-4q-29 0 -60 26q-39 35 -53 40h-9h-11q-7 0 -19 -1q-11 -1 -19 -1
h-11q-7 0 -13 0.5t-12 1.5q-103 25 -147 190q-2 10 -5.5 24l-8.5 34q-4 23 -6 56.5t-2 78.5q0 165 46 270q63 147 204 147q121 0 169 -99q59 -123 59 -286q0 -44 -21 -129q-21 -84 -21 -125q0 -13 30 -23q30 -11 30 -24zM565 85q0 18 -30 30q-1 19 -30 30q3 40 21 110
q21 85 21 131q0 167 -60 290q-20 40 -53 67q-53 68 -155 68q-147 0 -213 -153q-47 -107 -47 -274q0 -47 2 -82t6 -58q3 -11 5 -20t4 -17v1q2 -6 3 -11t2 -9q16 -59 38.5 -101t54.5 -67q38 -45 91 -59q6 -1 12.5 -1.5t15.5 -0.5h12t19 1q12 1 19 1h10h7q14 -7 48 -38
q33 -28 67 -28h7q52 26 88 79q35 53 35 111zM312 383q0 -13 -1 -26.5t-3 -27.5h-1q-2 0 -5.5 1t-8.5 3q-9 2 -17.5 5t-10.5 3q-4 0 -10 -2q-2 14 -3 29.5t-1 32.5q0 123 43 123h1q17 -43 17 -141zM319 -38h-1h1z" />
    <glyph glyph-name="R" unicode="R" horiz-adv-x="599" 
d="M334 523q0 58 -53 58q-13 0 -15 -1q-26 -8 -26 -59v-27q0 -25 48 -25q21 0 33.5 15.5t12.5 38.5zM539 204q0 -81 -27 -133q-36 -70 -108 -70q-25 0 -41 9q-49 27 -66 92q-4 19 -10.5 47.5t-14.5 66.5l-11 19q-8 12 -16 12q-14 0 -18 -27q-1 -6 -1.5 -14.5t-0.5 -19.5
q0 -18 3 -54q3 -35 3 -53q0 -26 -3 -39q-6 -26 -76 -26q-3 0 -10.5 -0.5t-20.5 -1.5q-12 -1 -19.5 -1.5t-11.5 -0.5q-40 0 -44 28q-1 1 -1 69q0 42 1 103t3 144t3.5 144t1.5 103q0 14 -12 49q-11 36 -11 52q0 22 17 39q25 25 68 37q5 2 24.5 5.5t53.5 8.5l11 2l12 2t11 2
q20 1 31.5 1.5t14.5 0.5q15 0 54 -6q96 -15 148 -66q58 -55 58 -147q0 -83 -43 -147q-7 -10 -19.5 -23t-31.5 -29q-23 -20 -23 -30q0 -18 18 -32t38 -14q4 0 12.5 2.5t12.5 2.5q22 0 33 -44q8 -34 8 -63zM579 174q0 31 -8 65q-12 47 -37 51q-14 31 -36 31l-25 -5q-9 0 -16 3
v3q0 5 20 22h-1q20 17 32.5 30t20.5 24q45 67 45 153q0 96 -61 154q-5 5 -13 11q-4 5 -8 9.5t-9 9.5q-28 27 -66.5 44t-86.5 25q-39 6 -56 6h-12q-6 0 -14.5 -0.5t-19.5 -1.5q-2 0 -6 -1t-7 -2l1 1q-3 -1 -7 -1q-3 0 -6 -1l-11 -2q-68 -10 -79 -14q-44 -12 -72 -40
q-20 -20 -20 -46q0 -19 11 -55q12 -36 12 -46q0 -42 -1.5 -103t-3.5 -144t-3 -144t-1 -103v-50t2 -24l-1 3q4 -26 30 -34q8 -32 54 -32q2 0 5.5 0.5t8.5 0.5q4 0 8 0.5t9 0.5q6 0 11 0.5t9 0.5q5 0 7 0.5t4 0.5q78 0 86 34q3 15 3 41q0 19 -3 54q-3 36 -3 53q0 11 0.5 19
t1.5 14v-1v1q4 -20 9 -36q4 -16 6.5 -29t4.5 -24q15 -61 57 -91q19 -26 44 -38q17 -10 46 -10q79 0 117 75q28 53 28 138zM324 523q0 -19 -9.5 -31.5t-26.5 -12.5h-8v12q0 43 17 48q4 2 14 2q3 0 5.5 -0.5t5.5 -0.5q2 -10 2 -17z" />
    <glyph glyph-name="S" unicode="S" horiz-adv-x="547" 
d="M487 251q0 -54 -20 -108q-23 -61 -61 -91q-62 -52 -222 -52q3 0 -0.5 0.5t-11.5 1.5q-12 1 -30 2t-41 3q-41 3 -57 36q-2 17 -4 36t-4 39q-6 45 -6 74q0 50 20 96q13 12 34 12q13 0 62 -37q49 -36 80 -36q9 0 11 1q15 9 15 34q0 29 -54 76q-41 35 -66 58t-35 36
q-54 67 -54 145q0 74 34 120q55 75 157 97q28 6 36 6h8t14 -1q9 -1 14 -1h8q86 0 113 -6q40 -27 40 -115q0 -44 -8 -82q-9 -40 -37 -40q-23 0 -67 29t-64 29q-15 0 -29 -8q-4 -7 -4 -18q0 -26 59 -79q92 -80 111 -104q59 -74 59 -153zM527 221q0 81 -61 159q-5 7 -15 17
t-25 24q-14 15 -39 38.5t-63 56.5v-1q-2 1 -6 5q-20 23 -20 37q0 7 1 10q6 2 11.5 4t10.5 2q18 0 59 -27q48 -31 72 -31q36 0 47 48q8 38 8 84q0 94 -46 125q-1 0 -2 0.5t-2 0.5q-5 9 -11.5 16t-14.5 13q-27 6 -117 6h-7t-14 1q-8 1 -15 1h-8q-10 0 -38 -6
q-104 -22 -163 -101q-36 -50 -36 -126q0 -82 56 -151q10 -15 37 -39q12 -14 36.5 -36t59.5 -51h-1q1 -1 1.5 -2t2.5 -2q17 -20 17 -34q0 -19 -10 -25h-6q-28 0 -74 34q-51 39 -68 39q-25 0 -42 -16q-22 -52 -22 -102q0 -31 6 -76q1 -5 1 -9t1 -9q2 -15 3 -29.5t3 -27.5
q11 -24 32 -35q21 -36 64 -39q25 -2 45 -3q7 -1 13.5 -1.5t12.5 -0.5q6 -1 7 -1t5 -1l1 10v-10q162 0 228 54q21 17 37 41t27 54q21 55 21 112z" />
    <glyph glyph-name="T" unicode="T" horiz-adv-x="570" 
d="M512 722q0 -6 -0.5 -16.5t-1.5 -21.5t-1.5 -21.5t-0.5 -16.5v-34v-10t1 -10v-14q0 -75 -40 -75q-14 0 -42 24q-28 23 -43 25q-17 -6 -17 -28v-70q0 -41 1 -98q1 -56 1 -98v-69q0 -20 6 -57q7 -35 7 -55q0 -61 -61 -73q-14 -3 -112 -3h-34q-32 17 -32 64q0 2 0.5 8t0.5 13
q0 8 0.5 15t0.5 10q0 4 -1 8v8q0 15 3 51q2 24 3 42t2 29q2 42 6 103.5t9 143.5q-4 6 -2 31q2 20 -10 28q-19 0 -50 -28q-30 -27 -48 -27q-29 0 -29 70v4q0 4 1 9v20v69v21q-1 6 -1 9v6q0 64 19 77q9 15 213 15q193 0 231 -15q21 -9 21 -63zM552 692q0 60 -27 72l-9 3
q-6 19 -21 27q-39 16 -235 16q-205 0 -222 -19q-20 -17 -20 -83v-6t1 -10v-108q-1 -5 -1 -9v-5q0 -77 35 -80q9 -30 34 -30q22 0 55 30q3 3 6 5.5t6 4.5q1 -2 1.5 -3.5t1.5 -3.5q-5 -81 -9 -141.5t-6 -102.5q0 -3 -0.5 -6t-0.5 -6q-1 -11 -1.5 -25.5t-2.5 -32.5
q-3 -36 -3 -52v-10q1 -3 1 -5v-1v-11t-1 -16q0 -7 -0.5 -12t-0.5 -7q0 -55 39 -74q9 -20 30 -30h37q100 0 114 3q69 13 69 83q0 22 -7 57q-6 37 -6 55v69q0 42 -1 98q-1 57 -1 98v70q0 12 8 18q6 -2 14.5 -7.5t21.5 -15.5q30 -26 48 -26q50 0 50 85v15q-1 5 -1 9v10v34
q0 6 0.5 16t1.5 21t1.5 21.5t0.5 17.5z" />
    <glyph glyph-name="U" unicode="U" horiz-adv-x="586" 
d="M524 736q0 -18 -9 -63q-3 -29 -3 -118v-40t1 -56t1 -56v-40q0 -52 -1.5 -95.5t-5.5 -78.5q-13 -144 -113 -171q-68 -18 -134 -18q-195 0 -210 188q-6 75 -6 173q0 19 1 46.5t3 64.5q2 38 3 65.5t1 46.5q0 69 -7 104q-1 3 -2.5 9.5t-5.5 16.5q-6 16 -6 26q0 42 86 51
q4 1 12.5 2t21.5 3q19 4 34 4q54 0 61 -37q1 -2 1 -48q0 -23 -1 -56.5t-3 -79.5q-3 -92 -3 -136q0 -16 0.5 -37.5t1.5 -48.5q4 -11 4 -42q0 -41 32 -41q41 0 47 30l5 62q6 82 6 150q0 39 -2 75t-6 70q-2 6 -3 21q-11 41 -11 45q0 11 3 25q24 29 98 38q17 2 27.5 3t12.5 1
q36 0 52.5 -12t16.5 -46zM564 706q0 26 -8.5 40.5t-25.5 21.5q-7 20 -25 28t-50 8q-2 0 -13 -1t-28 -3q-78 -11 -107 -44q-3 -14 -3 -29q0 -5 3 -16.5t8 -31.5q2 -16 3 -20v1q4 -34 6 -70t2 -74q0 -67 -6 -149q-1 -9 -1 -18q0 -8 -1 -14q-2 -26 -3 -27q-4 -21 -29 -24v1
q0 31 -4 44q0 5 -0.5 10t-0.5 10q-1 20 -1 35v29q0 44 3 136q2 46 3 79.5t1 56.5v33t-2 17h1q-6 28 -33 39q-14 36 -68 36q-17 0 -36 -4q-8 -2 -14 -2.5t-11 -1.5q-4 -1 -8 -1q-95 -11 -95 -61q0 -12 7 -30q3 -8 4.5 -14t2.5 -9v-1q7 -35 7 -102q0 -19 -1 -46t-3 -65
q-2 -37 -3 -65t-1 -47q0 -99 6 -174q9 -107 73 -156q54 -71 177 -71q69 0 137 18q107 29 120 180q4 35 5.5 78.5t1.5 96.5v40t-1 56t-1 56v40q0 88 3 117v-1q9 45 9 65z" />
    <glyph glyph-name="V" unicode="V" horiz-adv-x="632" 
d="M574 755q0 -67 -58 -330l-77 -351q-7 -36 -28 -52q-29 -22 -116 -22q-86 0 -110 8q-28 10 -37 57q-5 23 -18 112.5t-36 245.5q-5 28 -12.5 77t-18.5 121q-1 7 -4.5 18t-8.5 28q-22 37 -22 60q0 40 63 57q17 5 96 13q30 3 36 3q40 0 49 -34q6 -24 12 -121q2 -35 6.5 -96
t12.5 -151q8 -62 20 -62q15 0 19 25q1 1 3 19l8 70q15 121 15 194q0 30 -8 57q-4 12 -4 25q0 34 32 48q48 22 133 22q53 0 53 -41zM614 725q0 36 -32 47q-9 34 -61 34q-42 0 -76.5 -5.5t-60.5 -17.5q-38 -15 -38 -57q0 -14 5 -28h-1q8 -27 8 -54q0 -72 -15 -193l-4 -35
q-12 139 -15 200q-6 98 -12 122q-8 29 -33 38q-12 34 -56 34q-7 0 -37 -3q-82 -8 -98 -13q-70 -18 -70 -67q0 -28 23 -65v1q1 -2 1 -3t1 -3l-1 1q9 -30 11 -38q5 -35 10 -65t9 -55t7 -45t5 -34v1q23 -156 36 -246t18 -113q9 -49 41 -63q12 -23 33 -31q25 -9 113 -9
q89 0 122 24q23 19 32 58l77 351q29 134 43.5 216.5t14.5 115.5z" />
    <glyph glyph-name="W" unicode="W" horiz-adv-x="880" 
d="M820 757q0 -11 -1 -15l-48 -282q-8 -52 -23 -144t-38 -226q-2 -8 -4 -17.5t-4 -20.5q-1 -2 -3.5 -6.5t-7.5 -9.5q-32 -35 -117 -35h-24q-5 -1 -11 -1h-13q-39 0 -50 23q-25 52 -46 227q-1 10 -3.5 30t-7.5 50q-2 5 -4 5q-13 0 -23 -67q-7 -47 -14 -93t-15 -92
q-9 -50 -37 -63q-5 -2 -25 -5.5t-54 -7.5q-4 -1 -10 -1.5t-16 -2.5h-41q-53 0 -62 33q-2 10 -9.5 90t-19.5 233q-2 31 -5 76t-8 106q-9 99 -43 177q-3 7 -3 13q0 36 70 55q53 14 100 14h19q9 0 15 -1q2 -1 16 -12q5 -4 10 -18q1 -51 12 -286l2 -48q1 -30 17 -30q10 0 17 55
q2 17 10.5 67.5t24.5 136.5q2 13 6.5 34t9.5 50q8 32 64 42q11 1 26 2t35 3q16 -2 45 -12q12 -11 15 -45q4 -37 11 -102.5t18 -161.5q6 -45 6 -46q0 -25 13 -25q1 0 2 1t2 1q9 4 17 61q1 13 3 45q4 52 6 81t2 36q0 16 -8 53q-7 34 -7 54q0 25 38.5 43.5t99.5 18.5
q37 0 48 -4q25 -9 25 -36zM860 727q0 35 -32 45h1h-1q-6 21 -30 30h1q-7 3 -20 4t-32 1q-66 0 -107 -21.5t-41 -50.5q0 -22 7 -56q8 -37 8 -51q0 -5 -1.5 -25t-3.5 -55q-1 -8 -1.5 -17.5t-1.5 -19.5v-7q-8 72 -13.5 123t-8.5 82q-3 39 -17 51q-5 2 -9 3t-9 3q-5 16 -12 24
q-19 8 -32 11t-21 4q-16 -2 -29.5 -2.5t-23.5 -1.5q-2 0 -5 -0.5t-5 -0.5q-63 -12 -72 -50q-3 -17 -6 -31.5t-5 -25.5q-2 -8 -3 -15t-2 -12q-8 -44 -14 -78t-11 -60q-4 84 -5.5 136.5t-2.5 74.5q-6 20 -14 26q-2 1 -4 3q-5 3 -9.5 6t-6.5 5q-4 10 -10 16q-2 1 -4 3
q-5 4 -9.5 7t-6.5 4q-6 1 -15 1h-21q-50 0 -103 -14q-77 -21 -77 -65q0 -9 4 -17q33 -78 42 -174q6 -75 9 -126q2 -17 2.5 -30.5t1.5 -25.5q12 -155 19.5 -235.5t9.5 -89.5q6 -24 31 -33q12 -37 71 -37h43q4 1 7 1t6 1l3 1q1 0 11 2l-2 -1q69 7 82 14q33 16 43 70
q6 36 12 73t11 74q18 -131 41 -179q7 -17 27 -24l3 -6q14 -29 59 -29h14t11 1h23q89 0 124 38q6 6 9 12.5t5 11.5q1 5 2 7.5t2 7.5q2 5 2.5 10t1.5 10q23 134 38 226t23 144l48 282q1 4 1 17z" />
    <glyph glyph-name="X" unicode="X" horiz-adv-x="682" 
d="M621 754q0 -3 -2 -11q-21 -63 -72 -144l-85 -138q-6 -11 -6 -24q0 -15 23 -73q4 -8 10 -22t15 -34q28 -63 51.5 -109t42.5 -75q21 -15 21 -41q0 -20 -19 -38q-47 -45 -150 -45q-28 0 -33 1q-25 3 -47 64l-14 42l-14 42q-2 7 -6.5 17t-10.5 24q-13 22 -23 22
q-21 0 -40 -69q-11 -42 -11 -67q0 -4 0.5 -10t1.5 -14q-8 -32 -41 -44q-15 -5 -62 -7l-45 -1q-74 0 -74 36t88 208q45 88 67 146q-23 91 -90 230l-50 105q-1 2 -1 9q0 31 83 51q63 15 110 15q22 0 36 -12q8 -16 17 -41.5t18 -62.5q18 -71 36 -103q4 -7 9 -7q4 0 10 3
q32 75 32 121q0 3 -1 13t-1 12q0 6 3 15q17 53 155 53q69 0 69 -37zM661 724q0 30 -31 40q-9 37 -78 37q-146 0 -165 -60h1q-4 -11 -4 -18q0 -1 0.5 -5t0.5 -8q1 -5 1 -8v-4q0 -38 -22 -96q-8 22 -15 54q-19 73 -36 107q-12 10 -23 13q-2 5 -3.5 9t-3.5 8q-18 17 -45 17
q-49 0 -112 -15q-91 -23 -91 -61q0 -9 2 -13l50 -105q32 -69 54.5 -125t33.5 -101q-11 -27 -26.5 -61.5t-38.5 -79.5q-89 -172 -89 -213q0 -29 31 -39q7 -37 83 -37l45 1q44 1 65 8q39 13 48 51q0 2 -0.5 6.5t-0.5 6.5q-1 5 -1 8v5q0 22 11 64q6 22 11.5 36t10.5 21
q4 -8 5.5 -13t3.5 -8h-1q3 -11 7 -21t8 -21t7 -21t7 -21q22 -58 48 -69q18 -29 37 -32h-1q4 -1 12 -1h23q107 0 157 48q22 21 22 45q0 31 -25 49l2 -3q-18 28 -41.5 73.5t-51.5 109.5q-9 20 -15 34t-10 22q-11 28 -16.5 44.5t-5.5 24.5q0 9 5 19l85 138h-1q52 82 73 146
q1 5 2 8.5t1 5.5z" />
    <glyph glyph-name="Y" unicode="Y" horiz-adv-x="620" 
d="M564 758q0 -21 -26 -93l-3 -9t-5 -14q-1 -2 -10.5 -22.5t-28.5 -62.5t-39.5 -86t-43.5 -92q-24 -51 -24 -120q0 -14 1.5 -36t3.5 -51t3.5 -51t1.5 -36q0 -26 -1 -31q-5 -32 -36 -42q-17 -6 -59 -6q-14 0 -42 -3q-14 -1 -24.5 -1.5t-17.5 -0.5q-38 0 -51 22
q-4 19 -5.5 30.5t-1.5 16.5q0 4 1.5 16.5t5.5 35.5q2 17 3.5 32.5t1.5 29.5v70q0 91 -21 153q-5 12 -12 33t-18 52q-8 23 -15.5 47t-15.5 48q-20 55 -42 90q-17 26 -17 43q0 11 8 22q12 16 89 39q64 19 99 19q28 0 33 -20q13 -11 31 -119q16 -99 30 -99q15 0 25 49
q10 41 10 63q0 24 -8 50q3 50 118 63q17 2 30 3t23 1q49 0 49 -33zM604 728q0 31 -31 40q-6 33 -58 33q-11 0 -24 -1t-30 -3q-122 -13 -127 -75q8 -26 8 -48q0 -20 -10 -61q-1 -2 -1 -5q-2 6 -2.5 12t-1.5 13q-17 99 -32 121q-5 19 -26 24q-1 2 -2 3t-2 3q-7 26 -42 26
q-38 0 -102 -19q-79 -22 -94 -43q-10 -15 -10 -28q0 -18 19 -48q11 -17 21 -39t20 -49l24 -72l-1 1q2 -6 2.5 -8t2.5 -8q11 -31 19.5 -56.5t13.5 -37.5v1q20 -60 20 -150v-70q0 -14 -1.5 -29t-3.5 -32v1q-4 -23 -5.5 -36t-1.5 -18q0 -6 1.5 -19t5.5 -32q11 -17 28 -23
q1 -2 1 -3q0 -2 1 -4q18 -28 61 -28h12t16 1q4 0 7.5 0.5t7.5 0.5q30 3 41 3q45 0 62 7q38 14 43 49q1 5 1 33q0 14 -1.5 36.5t-3.5 51.5t-3.5 50.5t-1.5 35.5q0 65 23 116l21 45q17 35 32.5 68t29.5 65q19 42 28.5 62.5t10.5 22.5t0.5 1.5t0.5 1.5l7 21q27 73 27 96z" />
    <glyph glyph-name="Z" unicode="Z" horiz-adv-x="537" 
d="M475 254q0 -8 -1 -21t-3 -30q-3 -33 -3 -50q0 -106 -38 -136q-32 -9 -131 -15q-7 -1 -13 -1h-10h-14q-6 0 -11 1h-25h-18t-25 -1t-25 -1h-17q-55 0 -76 8q-34 15 -34 62v11t1 18t1.5 18t0.5 10v9q-1 2 -1 8q0 77 30 121q26 37 58.5 80.5t74.5 94.5q10 11 26.5 31.5
t39.5 50.5q10 13 10 27q0 24 -21 24q-11 0 -30 -4q-39 -8 -87 -39q-26 -26 -50 -26q-13 0 -23 7q-17 29 -17 77v10t1 18t1.5 18.5t0.5 11.5q0 36 0.5 57t1.5 27q8 51 50 59q3 1 16 2t36 3q72 6 163 6h67q2 0 11 -1.5t12 -1.5q57 0 68 -30v-95q0 -100 -24 -149
q-17 -35 -91 -126q-6 -8 -24 -27q-3 -5 -13.5 -23.5t-29.5 -51.5v-2q0 -28 36 -28q29 0 70 26q42 27 52 27q27 0 27 -64zM515 224q0 71 -35 74q-8 30 -32 30q-11 0 -57 -29q-29 -19 -54 -24l6 12q12 20 19.5 32t9.5 16q17 19 23 26q76 94 92 128q25 51 25 153v95
q-8 23 -31 32q-13 38 -77 38q-1 0 -11 2q-3 1 -7 1h-5h-67q-92 0 -164 -6q-18 -1 -31 -3q-9 -1 -16.5 -2l-7.5 -1l2 1q-49 -9 -58 -68q-1 -6 -1.5 -27t-0.5 -58v-6q0 -3 -1 -8q0 -3 -0.5 -7t-0.5 -8q-1 -11 -1 -19v-10q0 -48 19 -83q10 -8 21 -10q3 -11 9 -20q15 -11 31 -11
q28 0 57 29l-2 -1q47 30 84 37h2l-1 -1q-23 -30 -39.5 -50.5t-26.5 -31.5q-42 -51 -74.5 -94.5t-58.5 -80.5q-32 -46 -32 -127q0 -7 1 -10v-7q0 -2 -0.5 -4.5t-0.5 -6.5q0 -3 -0.5 -7.5t-0.5 -9.5v1q-1 -11 -1 -19v-11q0 -54 37 -70q11 -23 33 -31q21 -9 80 -9h18t25 1t24 1
h18h24q5 -1 11 -1h15h11t13 1q104 6 134 15q44 35 44 146q0 16 3 49q2 17 3 30t1 22z" />
    <glyph glyph-name="bracketleft" unicode="[" horiz-adv-x="361" 
d="M222 324q0 -14 0.5 -36.5t1.5 -51.5q3 -59 3 -88q0 -7 -1 -20t-1 -14q0 -16 33 -16q37 0 37 -32v-118q0 -33 -34 -33q-8 0 -38 3q-15 1 -24.5 1.5t-14.5 0.5q-16 0 -47 -3q-30 -3 -46 -3q-59 0 -59 36q0 13 1 32t3 45t3.5 45t1.5 32v199q0 9 -0.5 22.5t-1.5 31.5t-1 31
v23v59q0 28 1 53l2 112q0 15 -3 47q-1 16 -1.5 27.5t-0.5 19.5q0 39 7 50q10 19 45 19q9 0 39 -3q15 -1 24.5 -1.5t13.5 -0.5q15 0 47 3q16 2 28 3t20 1q39 0 39 -35l-1 -103q0 -35 -11 -41q-8 -2 -40 -2q-23 0 -23 -28q0 -2 0.5 -7.5t0.5 -11.5t0.5 -11.5t0.5 -6.5v-80v-46
q-1 -14 -1 -22v-12t-0.5 -12.5t-1.5 -22.5t-1 -23v-12zM262 294v12t1 22q0 7 0.5 12t0.5 10t0.5 8.5t0.5 5.5v11q0 8 1 22v127q0 2 -0.5 7t-0.5 11q-1 7 -1 12v7q0 18 13 18q35 0 44 3q17 9 17 50l1 103q0 36 -31 43q-6 32 -48 32q-9 0 -21 -1t-28 -3q-32 -3 -46 -3
q-2 0 -6 0.5t-10 0.5q-5 0 -10 0.5t-11 0.5q-30 3 -40 3q-41 0 -54 -24h1q-5 -8 -7 -21.5t-2 -33.5v-14t1 -18q0 -4 0.5 -8t0.5 -8q3 -32 3 -46l-2 -112q-1 -25 -1 -53v-59v-23q0 -13 1 -31q0 -5 0.5 -9.5t0.5 -9.5q1 -11 1 -20v-15v-199q0 -12 -1.5 -31t-3.5 -45t-3 -45
t-1 -33q0 -31 31 -41q8 -35 68 -35q17 0 47 3q31 3 46 3q3 0 7.5 -0.5t10.5 -0.5q4 0 9 -0.5t11 -0.5q30 -3 39 -3q44 0 44 43v118q0 34 -31 40q-5 29 -37 32v10q0 30 -3 89q0 7 -0.5 14t-0.5 14q-1 19 -1 33v26z" />
    <glyph glyph-name="backslash" unicode="\" 
d="M397 691q0 -66 -55 -88q-29 -12 -52 -12q-52 0 -52 27q3 6 3 15q0 8 -1 11q-5 9 -14 9q-5 0 -7 -1q-12 -11 -12 -30q0 -3 0.5 -8t1.5 -11t1.5 -11t0.5 -6q10 -13 26 -149v-3q0 -6 3 -29t8 -63q2 -14 3 -21.5t1 -9.5q0 -23 1 -57.5t3 -80.5t3 -80t1 -57q-17 -35 -72 -35
h-35h-21q-6 -1 -10 -1h-5q-12 0 -22 10q-13 27 -13 74v65q0 32 1 63l2 129q-6 11 -31 18q-22 8 -23 26q-3 36 -3 85q0 56 10 75q3 7 18 15q14 7 16 9q7 231 192 231q55 0 92 -26q41 -29 41 -83zM437 661q0 59 -45 91q-1 0 -1.5 0.5l-0.5 0.5q-10 16 -28 29q-40 28 -98 28
q-193 0 -202 -236l-4 -2l-6 -3q-19 -10 -23 -20v1q-11 -19 -11 -80q0 -50 3 -86q1 -25 30 -35q4 -19 23 -28l-1 -109q-1 -31 -1 -63v-65q0 -23 3.5 -43t11.5 -37q12 -12 23 -13q3 -9 7 -17q14 -14 30 -14h6t10 1h55q60 0 82 43q0 23 -1 58t-3 81t-3 80.5t-1 57.5q0 3 -1 11
t-3 22v-1q-5 40 -8 63t-3 28v4q-15 126 -26 150q-1 3 -1 6q0 4 -1 8v-1q-1 5 -1.5 9.5t-0.5 7.5q2 -1 5 -2l6 -2q3 -33 62 -33q12 0 26.5 3t29.5 10q61 25 61 97z" />
    <glyph glyph-name="bracketright" unicode="]" horiz-adv-x="360" 
d="M293 139q0 -4 -0.5 -11.5t-1.5 -20.5t-1.5 -21t-0.5 -12q0 -15 3 -45q3 -29 3 -44q0 -39 -7 -50q-10 -19 -44 -19q-13 0 -40 3q-14 1 -24 1.5t-17 0.5q-17 0 -48 -3q-16 -2 -28 -3t-20 -1q-35 0 -35 32q0 3 0.5 10t1.5 18t1.5 18t0.5 9q0 3 -0.5 9t-1.5 16t-1 16v8
q0 33 13 40q8 2 43 2q16 0 17 7q-1 -2 -1 17v22q0 14 1 33t1.5 32.5t0.5 22.5q0 10 -0.5 56t-1.5 129l-2 187q0 15 -11 17q3 -1 -26 -1q-28 0 -32 28q-1 3 -1 50v48q0 59 36 59q8 0 37 -3q14 -1 23.5 -1.5t14.5 -0.5q17 0 55 3q37 3 55 3q43 0 43 -35q0 -14 -1.5 -34
t-3.5 -48t-3 -48.5t-1 -34.5q0 -8 0.5 -44t1.5 -100l2 -144v-173zM333 109v173l-2 144q-1 38 -1.5 65.5t-0.5 45.5v33q0 14 1 34t3 48t3.5 48.5t1.5 34.5q0 35 -31 42q-8 33 -52 33q-19 0 -56 -3q-38 -3 -54 -3h-7t-11 1q-4 0 -9.5 0.5t-10.5 0.5h1q-29 3 -38 3
q-46 0 -46 -69v-48v-36q0 -12 2 -17l-1 1q5 -30 31 -35q7 -29 38 -31l2 -163q1 -50 1.5 -86.5t0.5 -59.5v-39v-15t-1 -20q0 -5 -0.5 -10t-0.5 -10q-1 -19 -1 -33v-22v-14h-6q-19 0 -30.5 -1t-16.5 -2q-19 -12 -19 -49v-9q0 -6 1 -16q0 -4 0.5 -7.5t0.5 -5.5q0 -4 0.5 -6.5
t0.5 -4.5t-0.5 -4t-0.5 -5q0 -4 -0.5 -8.5t-0.5 -9.5t-0.5 -9.5t-0.5 -7.5q0 -4 -0.5 -6.5t-0.5 -4.5q0 -35 30 -41q6 -31 45 -31q9 0 21 1t28 3q31 3 47 3h11q7 0 16 -1q2 0 5.5 -0.5t7.5 -0.5q27 -3 41 -3q40 0 53 24h-1q5 8 7 21.5t2 33.5q0 16 -3 45q-3 30 -3 44
q0 2 0.5 6t0.5 9q0 4 0.5 8.5t0.5 9.5t0.5 10t0.5 9q0 5 0.5 8t0.5 5z" />
    <glyph glyph-name="asciicircum" unicode="^" horiz-adv-x="554" 
d="M205 698h114l173 -365h-122l-108 227l-108 -227h-122zM16 323h44l-14 -30h144l94 197l80 -167h15l15 -30h144l-183 385h-16l-14 30h-126z" />
    <glyph glyph-name="underscore" unicode="_" horiz-adv-x="595" 
d="M32 -73h500v-50h-500v50zM22 -133h30v-30h520v70h-30v30h-520v-70z" />
    <glyph glyph-name="grave" unicode="`" horiz-adv-x="278" 
d="M215 718q-5 -4 -88 -4h-2q-1 0 -5 1q-95 86 -95 101q0 13 44 13h15l23 -1l5 -1h2h-1q9 0 26 2t26 2q18 0 54 -103zM259 697q-23 64 -23 65q-19 46 -39 49q-17 30 -32 30q-8 0 -24.5 -2t-24.5 -2q-5 0 -16 1t-16 1h-14q-55 0 -55 -23q0 -25 131 -141q5 -1 7 -1h3
q87 0 97 7z" />
    <glyph glyph-name="a" unicode="a" horiz-adv-x="515" 
d="M264 269q0 13 -7 24.5t-18 11.5q-2 0 -8.5 -1t-8.5 -1q-26 -12 -26 -50q0 -21 17 -41q5 -1 9 -1.5t7 -0.5q19 0 23 10q12 25 12 49zM455 180q0 -143 -76 -171q-17 -6 -36 -9h-3q-14 0 -37 20q-23 21 -32 21q-8 0 -33 -20q-28 -19 -77 -19q-13 0 -22.5 0.5t-16.5 1.5
q-45 7 -71 63q-21 45 -21 98q0 125 101 196q12 10 60 28q40 16 55 31q23 23 23 64q0 4 -6 15l-6 12q-11 3 -18 3q-21 0 -21 -19q0 -3 2.5 -9t5.5 -12l5.5 -11t2.5 -7q0 -4 -11 -18q-33 -37 -91 -37q-70 0 -85 39q-6 16 -6 49q0 37 16 59q63 87 243 87q129 0 129 -129
q0 -14 -2 -34.5t-6 -48.5q-4 -27 -6 -47.5t-2 -34.5q0 -29 6 -53l34 -37zM495 150l-2 75l-35 37q-3 11 -4 23.5t-1 25.5q0 14 2 34t6 47q4 28 6 48.5t2 35.5q0 85 -51 118q-33 51 -118 51q-185 0 -251 -91q-18 -26 -18 -65q0 -35 7 -53q8 -23 31 -34q12 -28 51 -37
q-100 -72 -100 -200q0 -27 5.5 -53t16.5 -49q17 -39 44 -56q25 -36 64 -43q7 -1 17 -1.5t24 -0.5q51 0 83 21q21 18 27 18t25 -19q25 -22 44 -22h5q18 3 37 10q83 31 83 180zM243 224q-1 -3 -7 -4v3q0 29 18 40q-1 -10 -3.5 -19t-7.5 -20z" />
    <glyph glyph-name="b" unicode="b" horiz-adv-x="519" 
d="M298 326q0 94 -48 94q-43 0 -43 -75q0 -34 13 -64q16 -40 44 -40q16 0 27 35q7 24 7 50zM462 320q0 -123 -59 -238q-44 -83 -182 -83q-32 0 -53.5 0.5t-32.5 1.5q-63 7 -69 37q-5 27 -8 66.5t-3 91.5q0 51 3 152q2 51 3 88.5t1 63.5q0 107 -9 166q-2 8 -13 31
q-10 19 -10 34q0 11 6 20q1 1 12 9q56 35 138 35q19 0 32 -5l11 -13q1 -5 1 -12v-15q0 -10 -0.5 -24t-1.5 -33t-1.5 -33t-0.5 -24v-16q0 -6 1 -11q7 -3 15 -3q10 0 32 7t31 7h13q59 0 90 -61q54 -104 54 -239zM502 290q0 140 -55 244q-19 33 -42 49q-33 47 -87 47h-13
q-12 0 -34 -7q-2 -1 -3 -1t-2 -1v10q0 6 1 13q0 5 0.5 9.5t0.5 9.5q0 4 0.5 8t0.5 9q1 12 1 22v18v18q0 8 -1 13l-15 17q-4 1 -7.5 2t-6.5 2q0 2 -0.5 4.5t-0.5 4.5l-15 17q-9 3 -18.5 5t-19.5 2q-82 0 -144 -37q-11 -8 -14 -11q-8 -13 -8 -26q0 -8 2.5 -18t8.5 -21v1
q11 -23 12 -29q9 -59 9 -164q0 -26 -1 -63.5t-3 -88.5q-3 -101 -3 -152q0 -53 3 -93t8 -67q5 -21 31 -33q5 -16 24 -27t53 -15q11 -1 33 -1.5t54 -0.5q145 0 191 88q60 115 60 243zM288 326q0 -23 -7 -47q-9 -28 -17 -28h-4q0 1 -0.5 1.5t-0.5 2.5q-12 30 -12 60q0 65 33 65
h2q6 -21 6 -54z" />
    <glyph glyph-name="c" unicode="c" 
d="M392 231q0 -120 -66 -187q-42 -43 -116 -43q-181 0 -181 269q0 290 158 356q22 9 63 9q59 0 90 -31q48 -48 48 -122q0 -122 -112 -122q-13 0 -28 5q-19 6 -19 17q0 3 1 4q10 10 10 27q0 19 -22 25q-31 -4 -31 -58q0 -126 66 -126q53 0 102 52l8 2q8 0 25 -26q4 -20 4 -51
zM432 201q0 15 -1 28.5t-3 24.5q-21 30 -32 33q-20 31 -33 31q-3 0 -6 -1q-2 -1 -6 -1q-49 -52 -98 -52q-5 0 -13 2q-13 27 -13 84v13q7 -5 18 -8v1l4 -2v-2q0 -20 26 -27v1q16 -6 31 -6q122 0 122 132q0 78 -51 129q-3 3 -6.5 5.5t-7.5 5.5q-4 5 -7.5 9.5t-8.5 9.5
q-34 34 -97 34q-43 0 -67 -10q-164 -69 -164 -365q0 -186 83 -247q48 -62 138 -62q78 0 123 46q69 72 69 194z" />
    <glyph glyph-name="d" unicode="d" horiz-adv-x="514" 
d="M268 303q0 36 -11 75q-13 49 -43 49q-19 0 -29 -21q-9 -17 -9 -37q0 -16 1.5 -32t3.5 -33l1.5 -3.5t3.5 -11.5q16 -49 48 -49q34 18 34 63zM453 176q0 -116 -55 -159q-15 -12 -35 -12h-23t-16.5 2t-13.5 5.5t-14 11.5q-15 16 -18 16q-7 0 -29 -19q-32 -21 -88 -21
q-54 0 -91 60q-28 44 -37 110q-6 42 -6 124q0 178 83 282q31 40 94 40q12 0 26.5 -2t31.5 -6q15 10 15 28q0 22 -13 52q-2 5 -15 23q-9 13 -9 25q0 6 5 18q28 19 74 32q48 14 80 14q11 0 19 -3q4 -4 13 -16q5 -7 5 -56q0 -66 -6 -198q-6 -131 -6 -197q0 -39 1 -42
q4 -16 25 -35zM493 146l-3 81q-21 20 -26 34v39q0 66 6 197q6 132 6 198q0 53 -7 62q-9 12 -15 18l-12 3l-3 9q-9 12 -15 18q-13 5 -25 5q-35 0 -83 -14q-24 -7 -44 -16t-35 -19q-7 -16 -7 -25q0 -15 11 -31q14 -20 14 -21q12 -30 12 -48q0 -9 -8 -17q-16 3 -29 5t-26 2
q-68 0 -102 -44q-85 -108 -85 -288q0 -83 6 -125q9 -66 39 -114q17 -28 41 -46q38 -49 88 -49q60 0 98 26q15 14 19 14q-1 0 11 -13q16 -16 28.5 -19t36.5 -3h9q22 0 41 14q59 46 59 167zM258 303q0 -38 -27 -53h-2q-2 2 -2.5 5.5t-1.5 6.5h1q-1 2 -1.5 4t-3.5 10
q-2 16 -3.5 32t-1.5 31q0 16 8 32q7 16 19 16q2 -4 4 -12q11 -39 11 -72z" />
    <glyph glyph-name="e" unicode="e" horiz-adv-x="486" 
d="M254 428q0 3 -1 8q-2 11 -3 19.5t-2 15.5q-6 19 -25 19h-4q-27 0 -35 -41l-3 -15q0 -21 29 -21h13q4 1 13 1q18 0 18 14zM425 217q0 -39 -13 -87q-15 -57 -36 -79q-47 -51 -136 -51q-170 0 -204 223q-4 23 -5.5 44.5t-1.5 41.5q0 163 89 264q22 25 41 38q34 24 98 24
q69 0 98 -27q7 -8 21 -27q47 -71 47 -167q0 -46 -10 -83q-11 -15 -66 -18q-5 -1 -9 -1h-9h-13t-23 1t-23 1h-13q-54 0 -61 -12q-1 -2 -1 -8q0 -27 25 -49t51 -22q9 0 25 4q25 6 59 35q23 20 42 20q8 0 11 -1q17 -14 17 -64zM465 187q0 55 -21 72q-11 3 -14 3q-2 5 -4 9l-4 8
q22 7 31 19q10 37 10 86q0 98 -49 173q-14 19 -22 28q-3 3 -6.5 5.5t-7.5 4.5q-5 7 -9 11.5t-7 8.5q-32 30 -105 30q-68 0 -104 -26q-21 -14 -43 -39q-91 -103 -91 -271q0 -21 1.5 -43t5.5 -45q21 -137 93 -193q54 -68 151 -68q93 0 143 54q24 25 39 83q13 48 13 90z
M348 270q-16 -14 -29.5 -22.5t-24.5 -10.5q-16 -4 -23 -4q-15 0 -30 9q-6 10 -6 22v4q6 6 52 6h12q9 0 23 -1q10 -1 16 -1h12zM244 428q0 -4 -8 -4h-11q4 18 15 24q0 -4 1 -7.5t2 -6.5q1 -4 1 -5v-1z" />
    <glyph glyph-name="f" unicode="f" horiz-adv-x="453" 
d="M397 691q0 -64 -55 -88q-29 -12 -52 -12q-52 0 -52 27q3 6 3 15q0 8 -1 11q-6 9 -14 9q-5 0 -7 -1q-12 -12 -12 -30q0 -2 0.5 -7t1.5 -11t1.5 -11.5t0.5 -6.5q13 -18 45 -18q2 0 7.5 0.5t11.5 0.5t11.5 0.5t8.5 0.5q44 0 50 -49v-59q0 -56 -9 -89q-10 -8 -43 -11
q-30 -3 -39 -17q-2 -8 -2 -34q0 -23 1 -57.5t3 -80.5t3 -80t1 -57q-17 -35 -72 -35h-35h-21q-6 -1 -10 -1h-5q-12 0 -22 10q-13 27 -13 74v65q0 32 1 63l2 129q-5 8 -31 17q-21 9 -23 27q-3 60 -3 85q0 54 10 75q3 7 18 14q15 9 16 10q9 231 192 231q55 0 92 -26
q41 -29 41 -83zM437 661q0 59 -45 91q-1 0 -1.5 0.5l-0.5 0.5q-10 16 -28 29q-40 28 -98 28q-192 0 -202 -236q-2 -1 -11 -6h1q-18 -9 -23 -19q-11 -23 -11 -79q0 -26 3 -86q1 -23 29 -35l1 -1q5 -17 23 -27l-1 -109q-1 -31 -1 -63v-65q0 -23 3.5 -43t11.5 -37
q12 -12 23 -13q3 -9 7 -17q14 -14 30 -14h6t10 1h55q60 0 82 43q0 23 -1 58t-3 81t-3 80.5t-1 57.5q0 24 1 29q9 9 31 12q36 3 51 16q10 36 10 94v60q-6 43 -36 54q-2 4 -4 7q8 2 15.5 4.5t15.5 6.5q61 25 61 97zM256 578h-8q-1 3 -1 5v5q2 -1 5 -2l6 -2q0 -2 2 -6h-4z" />
    <glyph glyph-name="g" unicode="g" horiz-adv-x="550" 
d="M300 -11q0 27 -43 42q-26 8 -38 8q-45 0 -45 -33q0 -23 33 -36q23 -10 53 -10q27 0 39 18q1 3 1 11zM313 432q0 21 -5 44q-3 13 -16.5 22.5t-27.5 9.5q-32 0 -32 -46q0 -71 42 -71q39 0 39 41zM490 28q0 -35 -10 -59q-41 -101 -186 -129q-32 -6 -46 -6q-170 0 -213 88
q-8 18 -8 42q0 39 19 65q1 1 9 13q2 2 20 13q14 9 12 17v3q-34 55 -34 87q0 22 13 38q5 5 19.5 20.5t40.5 41.5q-13 16 -21 26.5t-13 16.5q-9 13 -15 25.5t-10 23.5q-11 36 -11 70q0 89 74 160q53 50 142 50q27 0 53 -3q22 8 52 56q29 44 54 44q9 0 18 -3q26 -38 26 -51
q0 -17 -27 -45q-26 -29 -26 -44q0 -2 2 -12q54 -71 54 -145q0 -35 -11 -74q-27 -92 -123 -123q-29 -9 -36 -9l-69 3l-10 -11q-2 -15 48 -23q11 -2 26.5 -4t36.5 -4q69 -9 109.5 -50.5t40.5 -107.5zM530 -2q0 42 -16.5 75t-45.5 55q-34 46 -101 63q6 2 10 3q101 33 130 130
q11 39 11 77q0 77 -55 149v1q-1 4 -1 7q0 11 23 37q30 33 30 52q0 16 -29 59q-10 2 -14 3q-3 6 -7 12.5t-9 14.5q-17 5 -25 5q-30 0 -62 -49q-25 -40 -45 -51q-26 3 -52 3q-93 0 -149 -53q-77 -74 -77 -167q0 -37 11 -73q8 -24 27 -52q4 -5 10.5 -14t17.5 -23
q-22 -23 -36 -37t-18 -19q-15 -18 -15 -44q0 -34 34 -89v-3q0 -3 -7 -7v1q-18 -11 -23 -16q-1 -2 -3 -4q-2 -3 -4 -5.5t-3 -4.5q-20 -31 -20 -70q0 -28 9 -46q7 -15 17.5 -27t24.5 -23q54 -74 210 -74q16 0 48 6q150 29 193 135q11 26 11 63zM303 432q0 -31 -28 -31
q-3 12 -3 31q0 36 22 36q3 0 5 -1q4 -16 4 -35zM290 -11v-6q-10 -13 -30 -13q-24 0 -46 8q0 21 35 21q9 0 35 -8v1q2 0 6 -2v-1z" />
    <glyph glyph-name="h" unicode="h" horiz-adv-x="538" 
d="M481 178q0 -76 -15 -118q-10 -27 -34.5 -43.5t-54.5 -16.5q-57 0 -74 59q-8 29 -8 107v40v10q0 6 1 13v16q0 37 -3 69l-0.5 4t-1 9.5t-1 10.5t-0.5 8q0 36 -29 36q-41 0 -41 -122q0 -16 1 -40.5t3 -56.5l3.5 -56t1.5 -40q0 -5 -0.5 -10t-1.5 -10q-8 -41 -121 -41
q-20 0 -28.5 4t-17.5 20q-4 1 -4 33q0 7 1.5 44t3.5 106q6 163 6 260q0 63 -1.5 108t-5.5 72q-2 13 -16 37q-14 23 -14 37q0 11 4 18q23 22 74 38q53 17 85 17q31 0 39 -27q1 -4 1.5 -10t0.5 -16q0 -8 -1 -21t-3 -30q-3 -35 -3 -52q0 -52 20 -52q1 0 36 18q35 19 65 19
q46 0 68 -19q42 -35 42 -128q0 -26 -6 -75q-6 -50 -6 -75q0 -49 28 -65q4 -20 5.5 -42.5t1.5 -46.5zM521 148q0 25 -1.5 49t-6.5 47q-27 16 -27 58q0 24 6 74q6 51 6 76q0 99 -46 136h1q-2 2 -5 3.5t-6 3.5q-5 7 -10 12.5t-10 10.5h1q-24 21 -75 21q-34 0 -70 -20
q-4 -2 -6.5 -3t-4.5 -3v1q0 16 3 51q2 17 3 30t1 22q0 11 -0.5 17.5t-1.5 10.5q-7 25 -31 33q-12 32 -48 32q-35 0 -88 -17q-52 -16 -80 -43q-5 -8 -5 -23q0 -18 15 -42q8 -12 11 -20.5t4 -12.5q4 -27 5.5 -71.5t1.5 -107.5q0 -97 -6 -260q-2 -60 -3 -96q-1 -23 -1.5 -36.5
t-0.5 -17.5q0 -32 7 -40l-2 2q8 -13 14 -19t15 -8q1 -1 1.5 -2t1.5 -2l-2 1q11 -19 21 -24t34 -5q122 0 131 49q1 5 1.5 10.5t0.5 11.5q0 16 -1.5 40.5t-3.5 56.5t-3 56t-1 40q0 89 20 107q0 -9 2 -19q0 -5 1 -7q3 -30 3 -66v-15q-1 -7 -1 -13v-11v-40q0 -81 8 -110
q12 -41 41 -56q22 -40 73 -40q33 0 60 18.5t38 48.5q16 44 16 121z" />
    <glyph glyph-name="i" unicode="i" horiz-adv-x="328" 
d="M237 165q0 -20 -0.5 -44.5t-1.5 -54.5q1 -4 0.5 -12t-1.5 -22q-8 -32 -110 -32q-63 0 -68 26v26q0 25 2 61t6 85q9 97 9 146q0 26 -2 52.5t-6 52.5q-1 5 -1.5 10t-1.5 10q-1 2 -4 10.5t-10 22.5q-9 19 -9 34q0 16 7 26l3 3t7 6q31 23 118 34q25 3 32 3q23 0 30 -16
q-3 -56 -3 -129q0 -8 0.5 -45.5t1.5 -103.5zM269 719q0 -43 -34 -71q-34 -29 -75 -29q-50 0 -72 5q-22 6 -40.5 28t-18.5 44q0 51 46 79q40 25 93 25q43 0 69 -19q32 -23 32 -62zM277 135l-2 149q-1 39 -1.5 68t-0.5 48v33q0 75 3 131q-10 20 -31 23q0 2 0.5 3t0.5 2
q15 8 26 18h-1q38 31 38 79q0 44 -36 70q-4 2 -5 3q-9 16 -25 27q-30 21 -75 21q-55 0 -98 -27v1q-51 -32 -51 -88q0 -20 13 -40t32 -32q5 -8 11 -14.5t13 -11.5q-26 -10 -38 -19q-5 -4 -8 -7l-4 -4q-9 -14 -9 -32q0 -8 2.5 -17.5t7.5 -20.5q6 -14 8.5 -21t4.5 -10
q0 -5 1 -8q0 -7 2 -11q4 -26 6 -52t2 -52q0 -48 -9 -145q-4 -49 -6 -85.5t-2 -61.5v-28q3 -21 30 -28v-2q6 -34 78 -34q109 0 120 40q0 3 0.5 6.5t0.5 5.5q0 5 0.5 8.5t0.5 6.5t-0.5 5t-0.5 4q0 5 0.5 10.5t0.5 10.5q1 23 1 42v36z" />
    <glyph glyph-name="j" unicode="j" horiz-adv-x="488" 
d="M418 101q0 -115 -33 -185q-20 -41 -59 -73q-42 -35 -85 -39q-5 -1 -14 -1h-23q-83 0 -129 40q-51 43 -51 123q0 110 85 147q17 10 65 10q56 0 56 -38q0 -8 -14 -28t-14 -28q0 -10 7 -19t16 -9q20 0 26 23q1 6 1.5 15.5t0.5 22.5q0 259 -34 414q-19 22 -19 47q0 12 1 14
q8 25 79 44q55 16 99 16q19 0 30 -12q2 -17 3.5 -36.5t1.5 -39.5q0 -30 -3 -91q-3 -60 -3 -90q0 -19 1.5 -47.5l3.5 -66.5t3.5 -66t1.5 -47zM427 717q0 -44 -34 -72q-34 -29 -77 -29q-27 0 -45 1.5t-28 3.5q-11 3 -21.5 11t-19 18.5t-14 22t-5.5 22.5q0 52 47 81
q40 24 96 24q41 0 70 -20q31 -22 31 -63zM458 71q0 19 -1.5 47.5l-3.5 66.5t-3.5 66t-1.5 47q0 30 3 90q3 61 3 91q0 39 -6 81q-13 13 -28 16q-2 8 -2 14q-2 1 -2.5 2t-2.5 2q5 3 9 6t8 7h-1q38 31 38 80q0 46 -35 71q-2 1 -3 2t-3 2q-8 13 -24 26q-33 22 -76 22
q-60 0 -101 -25q-52 -32 -52 -90q0 -20 13.5 -41t32.5 -33q8 -11 18 -20.5t21 -15.5q-59 -19 -67 -45l1 1q-2 -4 -2 -18q0 -32 20 -53q16 -73 23.5 -166t9.5 -207q-2 0 -2.5 0.5t-2.5 0.5q-8 35 -64 35q-52 0 -70 -11h1q-91 -40 -91 -156q0 -85 55 -131h-1q6 -4 9 -7l10 -12
t12 -11h-1q48 -42 136 -42h24q10 0 15 1q45 4 89 41q41 33 62 77q34 72 34 189z" />
    <glyph glyph-name="k" unicode="k" horiz-adv-x="530" 
d="M473 179v-25q0 -9 -1 -13q-2 -47 -19 -83q-22 -49 -59 -56q-5 -1 -12 -1.5t-17 -0.5q-32 0 -51 17q-33 33 -58 118q-26 89 -37 99q-13 -1 -13 -51q0 -24 6 -67q4 -22 5.5 -38t1.5 -27q0 -23 -9 -27q-34 -22 -109 -22h-12q-43 4 -43 69q0 19 1 54t3 88q4 93 5.5 162.5
t1.5 117.5q0 51 -0.5 87.5t-1.5 61.5q-2 15 -13 42q-11 31 -11 47q0 13 4 21q46 34 126 45q22 3 27 3q12 0 26 -15q4 -20 5.5 -46t1.5 -57q0 -20 -1 -49t-3 -67t-3 -67t-1 -49l6 -5q6 10 15 24.5t20 34.5q12 20 21 34t14 24q47 65 112 65h4q67 -19 67 -120q0 -43 -14 -88
q-18 -56 -56 -56q-11 0 -21 18q-10 19 -18 19q-7 0 -14 -15q16 -55 33 -82q27 -44 70 -45q21 -26 21 -79zM513 149q0 57 -26 89q-9 0 -14 1q-3 8 -7 15t-9 14q-21 0 -37 9v1h1q-15 22 -31 77v1q2 -1 3.5 -1.5t3.5 -1.5q1 -2 2 -3.5t3 -3.5q14 -23 30 -23q46 0 66 63
q14 45 14 91q0 91 -50 120q-17 29 -54 40h-7q-71 0 -122 -72q-8 -12 -23 -36q0 2 0.5 3t0.5 3q2 38 3 67.5t1 49.5q0 33 -1.5 60t-5.5 47q-16 17 -29 20q0 2 -0.5 5t-0.5 5q-18 21 -36 21q-6 0 -28 -3q-82 -10 -133 -48q-4 -7 -5 -13.5t-1 -14.5q0 -18 12 -51q5 -14 8 -23
t4 -15q1 -25 1.5 -61.5t0.5 -87.5q0 -48 -1.5 -117.5t-5.5 -162.5q-2 -53 -3 -88t-1 -54q0 -64 37 -76q12 -30 45 -33h13q76 0 114 24l-1 -1q15 7 15 36q0 11 -1.5 28t-5.5 39v-1q-2 11 -3 22t-2 19q25 -85 60 -118q5 -6 13 -10q5 -5 8.5 -10t8.5 -10q22 -20 58 -20
q11 0 18 0.5t12 1.5q43 9 67 62q19 39 20 85q1 4 1 14v26z" />
    <glyph glyph-name="l" unicode="l" horiz-adv-x="292" 
d="M229 784q0 -8 -0.5 -66t-1.5 -168l-2 -233v-106q0 -44 1 -73v-16q0 -10 1 -27q1 -13 1 -24v-18q0 -52 -129 -52q-40 0 -50 22q-6 13 -6 59q0 8 1 34t3 69q7 140 10 220t3 102q0 31 -1 61t-3 60q0 4 -0.5 11t-1.5 17q-2 11 -13 32q-11 25 -11 40q0 43 83 61q52 11 81 11
q21 0 29 -4zM269 756l-9 17q-11 4 -21 6v7l-9 17q-15 7 -36 7q-31 0 -83 -11q-91 -20 -91 -71q0 -20 12 -45q10 -21 12 -29v1q0 -3 0.5 -6t0.5 -5q1 -6 1 -10v-7q2 -30 3 -59.5t1 -60.5q0 -22 -3 -102t-10 -220v1q-2 -43 -3 -69.5t-1 -34.5q0 -48 7 -63q7 -17 27 -23
q1 -3 3 -7q13 -28 59 -28q139 0 139 62v19t-1 24v-1q-1 17 -1 27v16q-1 29 -1 73v106l2 233q1 75 1.5 126t0.5 78v32z" />
    <glyph glyph-name="m" unicode="m" horiz-adv-x="787" 
d="M726 187q0 -187 -109 -187q-45 0 -68 29q-15 21 -23 76q-2 16 -3 22.5t-1 3.5q0 26 3 79q2 26 3 46t1 33v68q-6 42 -38 42q-23 0 -33 -36q-7 -24 -7 -87q0 -28 3 -83q3 -54 3 -82q0 -54 -5 -77q-7 -28 -81 -28q-24 0 -49 6q-36 7 -36 23q0 4 1 7v6l-3 323q-13 31 -29 31
q-31 0 -39 -56q-1 -8 -1.5 -27t-0.5 -51q0 -14 0.5 -35t1.5 -49q3 -56 3 -84q0 -37 -3 -68q-16 -25 -89 -25q-27 0 -60 3q-21 16 -21 48q0 5 0.5 13t1.5 20q1 13 1.5 20t0.5 9q1 16 2 45t3 72q3 64 3 117q0 86 -11 147q-2 11 -6 27.5t-9 39.5q0 22 21 34q43 23 108 23
q6 0 14.5 -0.5t19.5 -1.5q1 -1 9 -23q7 -21 14 -21q4 0 11 7q48 48 112 48q69 0 101 -51q22 4 63 30q35 22 79 22q116 0 116 -156q0 -28 -6 -80q-6 -53 -6 -79q0 -35 13 -48q20 -6 24 -37q1 -1 1 -48zM766 157v32q0 13 -2 18l1 -1q-4 37 -29 45q-8 11 -8 39q0 25 6 78
q6 51 6 81q0 110 -57 148q-32 48 -99 48q-45 0 -84 -24q-33 -21 -54 -27q-35 50 -105 50q-64 0 -111 -43q0 1 -1 1v1q-3 0 -8 0.5t-7 0.5h1h-3q-4 11 -6.5 18t-6.5 11q-3 0 -7.5 0.5t-6.5 0.5q-7 1 -13 1h-11q-70 0 -113 -24q-26 -15 -26 -45q5 -23 9 -39.5t6 -27.5
q5 -29 8 -65t3 -80q0 -53 -3 -117v1q-2 -29 -2.5 -51.5t-1.5 -39.5q0 -8 -0.5 -15t-0.5 -12q0 -1 -0.5 -3t-0.5 -5v-9q0 -4 -1 -11q0 -5 -0.5 -8.5t-0.5 -6.5q-1 -6 -1 -11v-8q0 -37 27 -58q2 0 4 -0.5t4 -0.5q6 -16 22 -29q33 -3 64 -3q79 0 99 33q3 31 3 70q0 29 -3 85
q0 7 -0.5 13.5t-0.5 12.5q-1 18 -1 32v25q0 31 0.5 50t1.5 27q5 36 18 44l3 -311v-6l1 3q-2 -5 -2 -7v-3q0 -20 30 -30q0 -24 44 -33q24 -6 51 -6q82 0 91 35q5 23 5 80q0 29 -3 83q-3 55 -3 82q0 60 7 84q6 26 20 29q0 -1 0.5 -1.5t0.5 -1.5v-67q0 -12 -1 -32t-3 -46
q-3 -53 -3 -80h10l-10 -1q1 -2 1 -4q0 -1 1 -8q1 -3 1 -7q0 -3 1 -8v1q8 -56 25 -81q10 -14 24 -21l6 -9q25 -33 76 -33q119 0 119 197z" />
    <glyph glyph-name="n" unicode="n" horiz-adv-x="559" 
d="M498 235q0 -3 -0.5 -9.5t-1.5 -17.5t-1.5 -17.5t-0.5 -9.5q0 -61 -18 -107q-24 -63 -73 -72q-4 -1 -19 -1q-56 0 -77 42q-15 28 -15 90q0 5 0.5 15t1.5 26t1.5 26t0.5 15v33v19q-1 5 -1 8v5q0 3 0.5 9.5t0.5 13.5t0.5 13t0.5 8q0 43 -24 60q-2 1 -9 1q-27 0 -35 -29
q-12 -48 -12 -97q0 -2 1.5 -29t3.5 -79q1 -13 1 -23v-17v-21q-1 -5 -1 -10v-11q0 -2 1 -4v-5q0 -30 -49 -45q-38 -11 -75 -11q-21 0 -41 11q-12 27 -12 87q0 50 6 149q4 50 5.5 87t1.5 62q0 78 -16 129l-12 40q0 32 50 49q36 12 77 12q14 0 21.5 -0.5t12 -3.5t7 -8.5
t5.5 -14.5q6 -18 18 -21q23 23 66 38t78 15q70 0 93 -60q10 -24 10 -75q0 -13 -1.5 -32t-3.5 -45q-2 -25 -3 -44t-1 -32q0 -15 1.5 -29.5t3.5 -28.5q33 -15 33 -54zM538 205q0 42 -34 60q-2 14 -3 26.5t-1 25.5q0 12 1 31t3 44q2 26 3.5 45t1.5 33q0 53 -11 79
q-13 34 -40 50q-28 46 -92 46q-36 0 -81 -16q-17 -6 -30 -12t-24 -14q-6 5 -18 6q-3 10 -6 16.5t-8.5 9.5t-15 4t-25.5 1q-42 0 -80 -13q-57 -20 -57 -61l12 -40q16 -51 16 -126q0 -25 -1.5 -61.5t-5.5 -86.5q-6 -99 -6 -150q0 -61 15 -95q10 -6 23 -9q3 -14 7 -21
q12 -6 23.5 -9.5t24.5 -3.5q40 0 78 11q56 16 56 55v7l-1 2v9q0 5 1 10v23v18t-1 23v-1q-2 32 -2.5 55t-1.5 36q-1 8 -1 12v5q0 47 12 95v-1q5 17 16 21q1 -5 1.5 -10t0.5 -10q0 -2 -0.5 -7t-0.5 -10q-1 -8 -1 -16v-11v-5t1 -9v-51q0 -3 -0.5 -7.5t-0.5 -11.5q0 -5 -0.5 -10
t-0.5 -12t-0.5 -12t-0.5 -10q0 -7 -0.5 -11.5t-0.5 -7.5q0 -66 16 -95v1q12 -24 33 -36q24 -42 83 -42q17 0 21 1q55 11 80 78q19 47 19 111q0 2 0.5 4.5t0.5 7.5q0 3 0.5 6.5t0.5 8.5t0.5 8.5t0.5 6.5q0 5 0.5 7.5t0.5 4.5z" />
    <glyph glyph-name="o" unicode="o" horiz-adv-x="496" 
d="M291 314q0 34 -17 76q-19 46 -54 46q-44 0 -44 -84q0 -66 39 -97q11 -8 22 -8q10 0 28 6q26 20 26 61zM436 332q0 -120 -23 -192q-35 -104 -127 -133q-21 -7 -52 -7q-80 0 -125 45q-9 8 -22 28q-58 85 -58 219q0 101 31 194q20 63 66 103q49 46 111 46q199 0 199 -303z
M476 302q0 206 -91 276q-53 67 -148 67q-66 0 -118 -49v1q-47 -41 -69 -108h1q-17 -49 -24.5 -98t-7.5 -99q0 -137 60 -225q12 -18 23 -29q7 -8 17 -15q3 -5 6.5 -8.5l6.5 -6.5q48 -48 132 -48q32 0 55 8v-1q95 30 133 140q24 73 24 195zM281 314q0 -36 -22 -53l3 1
q-17 -5 -25 -5q-5 0 -7 1q-14 26 -14 64q0 74 34 74q5 0 11 -2q3 -4 4 -8q16 -40 16 -72z" />
    <glyph glyph-name="p" unicode="p" horiz-adv-x="522" 
d="M307 308q0 44 -10 74q-15 47 -45 47q-34 0 -34 -76q0 -39 10 -66q14 -41 44 -41q35 0 35 62zM465 337q-1 -6 -1.5 -24t-2.5 -49q-4 -94 -21 -145q-25 -82 -88 -112q-21 -9 -69 -9q-27 0 -46 3q-16 -16 -16 -47q0 -5 1 -14.5t3 -24.5q2 -16 3 -25.5t1 -13.5t-0.5 -9
t-1.5 -12q-31 -46 -128 -46q-43 0 -55 26q-6 13 -6 65q0 18 1.5 42t3.5 55q3 36 4.5 60t2.5 36q2 36 3.5 73.5t3.5 77.5q2 49 3.5 86.5t1.5 65.5q0 31 -1.5 55.5t-5.5 44.5q-1 5 -4.5 14t-9.5 23q-10 23 -10 37q0 28 49 47q39 16 74 16q18 0 24 -3t15 -19t12 -16
q61 46 108 46q23 0 41 -8q94 -47 107 -232q2 -27 3 -43t1 -21zM505 307q0 5 -1 21.5t-3 43.5q-12 165 -90 225q-11 15 -24.5 26t-28.5 19q-18 9 -45 9q-46 0 -103 -40q-2 0 -3 0.5t-3 0.5q-2 2 -2 4q-5 10 -9 15.5t-9 8t-12 3t-18 0.5q-37 0 -78 -17q-55 -22 -55 -56
q0 -8 2.5 -18t8.5 -23q5 -13 8.5 -21.5t4.5 -13.5q4 -20 5.5 -44t1.5 -54q0 -28 -1.5 -65.5t-3.5 -86.5v1q-2 -36 -3 -71t-3 -68q0 -3 -0.5 -6.5t-0.5 -6.5q-1 -13 -2.5 -36.5t-4.5 -58.5q-2 -31 -3.5 -55.5t-1.5 -42.5q0 -54 7 -69q9 -19 28 -26l2 -4q15 -32 64 -32
q103 0 138 53q0 5 1 8v-1q1 5 1 9v8t-1 14t-3 26q-2 15 -3 24t-1 14q0 24 9 36q9 -1 20 -1.5t23 -0.5q52 0 73 10q67 31 94 118q17 51 21 148q0 6 0.5 11.5t0.5 10.5q1 38 3 49v2zM297 308q0 -52 -25 -52h-4q-1 1 -1 4q-9 25 -9 63q0 66 24 66h1q2 -2 2.5 -5t1.5 -5
q10 -30 10 -71z" />
    <glyph glyph-name="q" unicode="q" horiz-adv-x="502" 
d="M270 314q0 34 -11 70q-15 45 -43 45q-17 0 -27 -19.5t-10 -38.5q0 -129 52 -129q13 0 24 8q15 25 15 64zM440 616q-5 -57 -7.5 -121.5t-2.5 -138.5q0 -73 3 -215q2 -72 3 -125.5t1 -89.5v-48q0 -35 -44 -55q-34 -14 -75 -14t-51 9q-14 11 -14 51v3l1 7l1 24q1 12 2.5 33
t3.5 50q-8 15 -24 15q-9 0 -27.5 -5t-27.5 -5q-156 0 -156 304q0 131 31 217q46 129 154 129q20 0 66 -11t67 -11q14 0 38 8t30 8q16 0 28 -19zM479 591q-12 20 -29 23v1l-1 6q-15 24 -37 24q-8 0 -33 -9q-10 -3 -18.5 -5t-16.5 -2q-19 0 -65 11t-68 11q-114 0 -163 -136
q-32 -86 -32 -220q0 -228 86 -290q40 -54 110 -54q12 0 30 5h-1q2 1 3 1q2 0 4 1q-3 -38 -3 -55l-1 -24v1l-1 -7v-4q0 -46 18 -59h-1q4 -4 17 -7q4 -15 14 -23h-1q13 -11 58 -11q43 0 79 15q50 21 50 64v48q0 36 -1 89.5t-3 125.5q-3 142 -3 215t2.5 137.5t7.5 121.5z
M260 314q0 -33 -14 -58q-5 -4 -15 -4h-2q-10 29 -10 89q0 16 7 32t20 16h1q1 -2 1.5 -4t1.5 -4h-1q11 -36 11 -67z" />
    <glyph glyph-name="r" unicode="r" horiz-adv-x="467" 
d="M412 485q0 -64 -27 -106q-31 -49 -92 -49q-17 0 -31 11.5t-14 27.5q0 7 3 15q7 3 7 11q0 31 -19 31q-1 -1 -2 -1q-17 -36 -17 -78v-82q0 -80 26 -176q6 -23 6 -31q0 -15 -7 -25q-44 -33 -141 -33q-38 0 -48 22q-8 18 -8 56q0 60 6 149q4 52 5.5 89t1.5 60q0 79 -18 138
q-2 5 -4.5 13t-6.5 19q-1 1 -1 9q0 33 48 56q38 19 77 19q25 0 42 -38q43 43 102 43q43 0 77 -37q8 -9 14.5 -22.5t11 -29t7 -32t2.5 -29.5zM452 455q0 14 -2.5 31t-7.5 33.5t-12 31.5t-16 24q-5 5 -11 9.5t-11 9.5l-4 6t-4 5q-37 40 -84 40q-58 0 -99 -37q-18 32 -45 32
q-20 0 -40.5 -4.5t-40.5 -15.5q-54 -26 -54 -65q0 -12 3 -15q2 -6 3.5 -11t3.5 -9l-1 1q1 -6 4 -11l-1 1q18 -59 18 -135q0 -23 -1.5 -59.5t-5.5 -88.5q-6 -89 -6 -150q0 -42 9 -60q7 -17 27 -23q1 -3 3 -7q13 -28 57 -28q101 0 148 36q10 14 10 32q0 11 -6 34
q-26 96 -26 173v82v13q5 -3 10 -5q6 -15 21 -25t32 -10q65 0 100 54q29 46 29 111z" />
    <glyph glyph-name="s" unicode="s" horiz-adv-x="513" 
d="M453 201q0 -57 -39 -109t-92 -75q-42 -17 -99 -17q-78 0 -122 28q-72 45 -72 125q0 40 20.5 73.5t54.5 47.5q34 15 60 15q22 0 39 -7q25 -10 25 -27q0 -6 -7 -21q-6 -17 -6 -23q0 -20 24 -20q12 0 22 7.5t10 17.5q0 35 -34 63q-23 18 -70 41q-50 24 -69 42
q-47 41 -47 107q0 117 153 155q47 11 67 11q71 0 119 -27q60 -33 60 -98q0 -40 -38 -63q-31 -19 -76 -19q-20 0 -35 7q-24 7 -24 22q0 4 5 15.5t5 14.5q0 12 -21 20q-27 -2 -27 -26q0 -27 47 -62q0 -1 41 -26q99 -62 118 -125q1 -5 2 -13t3 -21q3 -24 3 -33zM493 171
q0 10 -3 34q-2 11 -3 18t-2 12v6q-14 43 -64 86q-13 16 -30.5 31t-40.5 31q4 -1 8 -1h8q50 0 81 20q43 26 43 72q0 62 -50 97q-16 23 -45 40q-49 28 -124 28q-13 0 -29.5 -3t-39.5 -8q-161 -39 -161 -165q0 -71 50 -115v1l3.5 -3.5l3.5 -3.5q5 -7 10.5 -13t12.5 -11v1
q12 -12 37 -26q-26 -2 -58 -16q-37 -15 -59 -51t-22 -79q0 -74 59 -121q18 -24 48 -42q48 -30 127 -30q61 0 103 18q55 24 96 78q41 55 41 115zM294 426q1 -1 3 -1v-1q-3 0 -3 2z" />
    <glyph glyph-name="t" unicode="t" horiz-adv-x="434" 
d="M375 565q0 -70 -15 -113q-9 -25 -38 -25q-2 0 -7.5 0.5t-13.5 1.5t-14 1.5t-8 0.5q-24 0 -32 -17q-3 -8 -3 -37q0 -75 34 -75q11 0 34 14q22 15 30 15q13 0 18 -29q10 -56 10 -117q0 -100 -37 -141l-11 -11t-14 -12q-28 -22 -75 -22q-15 0 -29 1t-27 3q-57 10 -81 99
q-2 5 -4 14t-6 23q-1 7 -1.5 21.5t-0.5 36.5t1.5 54t5.5 76t6 62.5t2 11.5q0 21 -23 26q-5 -1 -8 -1.5t-5 -0.5q-12 0 -26 8q-10 29 -10 69q0 17 3.5 44.5t10.5 66.5q40 58 88 109q70 76 107 76q32 0 32 -47q0 -4 -0.5 -13t-1.5 -23t-1.5 -22t-0.5 -12q0 -23 4 -36
q11 -11 30 -11q2 0 7.5 0.5t13.5 1.5t13.5 1.5t7.5 0.5q23 0 30 -16q5 -13 5 -57zM415 535q0 46 -6 61q-8 16 -28 21q0 3 -2 9q-10 22 -39 22q-2 0 -4 -0.5t-5 -0.5q-2 0 -5 -0.5t-7 -0.5t-7 -0.5t-5 -0.5h-3v6q0 2 0.5 5.5t0.5 8.5q0 4 0.5 9t0.5 11t0.5 11t0.5 10t0.5 9
t0.5 6q0 50 -33 56q-9 31 -39 31q-41 0 -114 -79q-24 -26 -47 -54t-44 -59q-7 -39 -10.5 -67.5t-3.5 -46.5q0 -39 13 -77q5 -3 11.5 -5.5t11.5 -3.5q2 -5 3.5 -10.5t3.5 -10.5q17 -10 30 -10q-6 -21 -9 -57q-4 -44 -5.5 -76t-1.5 -55t0.5 -38.5t1.5 -22.5l3 -11
q2 -8 4 -14.5t4 -12.5l-1 1q18 -69 57 -94q24 -34 62 -42q13 -2 27.5 -3t30.5 -1q51 0 81 24q8 6 14.5 12.5l11.5 11.5q40 46 40 148q0 30 -2.5 60t-7.5 59q-6 37 -28 37h-3q-8 30 -27 30q-12 0 -36 -17l1 1q-7 -4 -12 -6.5l-9 -4.5q-2 7 -2 15v18q0 27 2 33q5 11 23 11
q4 0 9 -1q2 0 6 -0.5t7 -0.5q4 0 7 -0.5t5 -0.5q3 0 5 -0.5t4 -0.5q37 0 47 32q16 45 16 116z" />
    <glyph glyph-name="u" unicode="u" horiz-adv-x="533" 
d="M472 196q0 -112 -40 -167q-20 -27 -66 -27q-41 0 -56 22q-14 23 -24 23q-6 0 -8 -1q-46 -46 -114 -46q-19 0 -31 3q-91 22 -91 218q0 17 1 42t3 58q2 34 3.5 59t1.5 42q0 68 -18 134q-1 4 -1.5 7t-0.5 6q0 22 20 33q59 32 123 32q5 0 13 -0.5t18 -1.5l14 -16
q0 -44 -6 -129q-6 -86 -6 -128q0 -116 36 -116q22 0 31 20q2 4 4 13.5t4 25.5q6 43 6 95q0 57 -6 104q-2 11 -12 35q-11 25 -11 39q0 11 3 19q1 4 12 12q41 29 123 29q47 0 51 -19q1 -5 1.5 -19t0.5 -37q0 -20 -1.5 -49t-5.5 -67q-6 -77 -6 -115t30 -62q2 -21 3.5 -39
t1.5 -32zM512 166q0 17 -1.5 36t-3.5 40q-30 24 -30 57q0 37 6 114q4 38 5.5 67.5t1.5 49.5q0 24 -0.5 38.5t-1.5 19.5q-4 18 -29 24q0 2 -0.5 3t-0.5 3q-6 27 -61 27q-84 0 -129 -31q-12 -9 -15 -17v1q-2 -5 -3 -11t-1 -12q0 -15 9 -37q1 16 1 29v24l-6 6v1l-13 14
q-2 0 -5.5 0.5t-5.5 0.5v8l-19 21q-2 0 -5.5 0.5t-5.5 0.5q-8 1 -14 1h-11q-68 0 -128 -33q-25 -13 -25 -42v-7q0 -3 1 -6v1q0 -2 0.5 -2.5t0.5 -1.5q18 -66 18 -131q0 -17 -1.5 -41.5t-3.5 -58.5q-2 -33 -3 -58.5t-1 -42.5q0 -168 68 -215q25 -34 61 -43q12 -3 33 -3
q69 0 118 46q2 -2 5.5 -3.5t6.5 -3.5q2 -2 3.5 -4.5t3.5 -6.5q17 -26 65 -26q51 0 74 31q42 59 42 173zM261 532q5 -11 7.5 -19t3.5 -13q6 -47 6 -103q0 -51 -6 -94q-3 -30 -5 -32q-7 -13 -15 -16q-5 28 -5 74q0 41 6 127q2 23 3 43.5t2 38.5z" />
    <glyph glyph-name="v" unicode="v" horiz-adv-x="463" 
d="M402 443q0 -7 -1.5 -41t-3.5 -97q0 -18 -3 -63q-9 -92 -44 -157q-45 -84 -126 -84q-62 0 -100 32q-7 6 -22 25q-54 70 -54 205q0 4 0.5 22.5t1.5 50.5l2 73q0 69 -7 93q-1 2 -3.5 8.5t-6.5 17.5q-6 16 -6 28q0 32 66 50q41 11 60 11q50 0 50 -50q0 -3 -0.5 -9t-1 -13
t-1 -13.5t-0.5 -9.5q0 -2 1 -8.5t1 -8.5q0 -8 -0.5 -19t-1.5 -26q-1 -14 -1.5 -25t-0.5 -19q0 -81 16 -128q1 -5 5 -15q8 -11 22 -11q9 0 13 4q24 14 25 50q1 10 1 25t1 35q-5 6 -24 12q-20 6 -27 19t-7 67q0 57 20 102q27 59 78 59q79 0 79 -192zM442 413q0 165 -59 195
q-23 37 -60 37q-57 0 -87 -65q-1 -1 -1 -2l-1 -1q-8 12 -23 16q-10 34 -56 34q-22 0 -63 -11q-73 -19 -73 -60q0 -13 7 -31q2 -7 4 -12t4 -9q0 -2 0.5 -3.5l0.5 -1.5q7 -24 7 -90l-2 -73q-1 -20 -1.5 -34t-0.5 -23v-16q0 -139 56 -211q16 -20 24 -27q2 -2 4.5 -4t4.5 -4
q7 -8 11.5 -13t9.5 -9q40 -34 106 -34q87 0 135 89q36 66 45 161q3 45 3 64q1 51 3 84q1 23 1.5 36.5t0.5 17.5zM249 380q1 -3 2 -4.5t2 -3.5q6 -12 19 -19v-7v-16q0 -7 -1 -13q-1 -31 -20 -42q-6 22 -8.5 49.5t-2.5 59.5q2 -1 4.5 -2t4.5 -2z" />
    <glyph glyph-name="w" unicode="w" horiz-adv-x="678" 
d="M616 378q0 -97 -12 -176q-17 -107 -59 -162q-30 -40 -103 -40q-67 0 -118 86q2 -2 -22 -28q-50 -56 -119 -56q-15 0 -31.5 5.5t-30.5 15.5t-25.5 22.5t-17.5 26.5q-25 57 -25 157q0 14 0.5 35.5t1.5 50.5q3 57 3 86q0 25 -1 45t-3 34q-1 6 -4.5 16.5t-8.5 24.5
q-10 24 -10 41q0 3 2 13q26 38 127 46q6 -3 15 -3q26 0 31 -12q3 -6 3 -35q0 -17 -1 -43t-3 -61q-3 -69 -3 -104q0 -48 10 -77q8 -20 25 -20q23 0 27 25q4 23 6 50t2 56q0 30 -3 89q-3 60 -3 90q0 37 91 37q36 0 50 -6q13 -13 13 -40q0 -29 -6 -84q-2 -28 -3.5 -48.5
t-1.5 -34.5q0 -77 21 -123q8 -17 28 -17t30 25q8 21 8 41t-6 43q-17 10 -39 36q-13 30 -13 77q0 58 18 93q31 61 75 61q64 0 78 -125q2 -15 3.5 -34.5t3.5 -42.5q-1 -5 -1.5 -9t-0.5 -7t1 -16t1 -17v-7zM656 355v8t-1 11q0 5 -0.5 8.5t-0.5 5.5q0 5 1 9q0 2 0.5 4t0.5 4
q-2 12 -2.5 23t-1.5 21q-2 18 -3 33q-12 102 -57 126q-23 38 -61 38q-50 0 -84 -66q-3 3 -4 5q-6 2 -16 4q-3 15 -14 26q-19 8 -56 8q-101 0 -101 -47q0 -31 3 -91q3 -59 3 -88t-2 -55t-6 -49q-1 -10 -8 -15q-2 11 -3 25t-1 30q0 35 3 104v-1q2 35 3 61.5t1 43.5q0 32 -4 39
q-6 14 -27 17q-1 8 -3 13q-8 18 -40 18q-7 0 -13 3q-108 -8 -139 -52q-1 -4 -1.5 -8t-0.5 -9q0 -19 11 -45v1q11 -26 12 -40q2 -14 3 -33.5t1 -43.5q0 -29 -3 -86q0 -8 -0.5 -14.5t-0.5 -13.5q-1 -19 -1 -33v-25q0 -102 26 -161q5 -14 15.5 -26t24.5 -23q17 -23 46.5 -40
t57.5 -17q73 0 126 59q3 3 5.5 6.5t4.5 6.5q5 -5 10 -9.5t10 -8.5q47 -56 103 -56q79 0 111 44q44 59 61 166q12 81 12 178v7zM473 369q6 -6 8 -9q5 -20 5 -34q0 -11 -2 -20t-5 -17q-7 -16 -18 -19q-12 40 -12 100v22q7 -7 13 -12.5t11 -10.5z" />
    <glyph glyph-name="x" unicode="x" horiz-adv-x="521" 
d="M459 185q0 -93 -44 -152q-10 -14 -20 -21q-17 -12 -45 -12q-52 0 -79 67q-5 13 -12 32t-17 44q-9 6 -13 6q-5 0 -9 -4q-12 -30 -18.5 -46.5t-8.5 -20.5q-20 -45 -36 -58q-23 -20 -64 -20h-8q-36 7 -48 52q-6 22 -6 76q0 18 9 80q10 70 44 70q3 0 9 -1t12.5 -2t12 -2
t7.5 -1q33 0 33 47q0 25 -41 87q-2 3 -5.5 9t-8.5 14q-6 9 -37 24q-24 12 -24 35q0 87 64 127q28 18 48 18q14 0 21 -4q35 -17 68 -105q2 -4 5 -11t7 -17q13 -24 20 -24l6 2q6 14 15.5 35.5t22.5 50.5q23 50 59 68q13 7 21 7q58 0 58 -124q0 -60 -16 -88q-1 -1 -7 -6
l-18 -15q-14 2 -22 3.5t-10 1.5q-16 0 -23 -7q-22 -19 -22 -47q0 -7 4 -16q22 -55 62 -67q12 4 24 4q30 0 30 -89zM499 155q0 96 -38 99q-11 30 -32 30q-11 0 -23 -4q-3 2 -6 2.5t-6 2.5q-3 6 -6.5 12t-5.5 14q-3 7 -3 12q0 23 19 39q5 5 15 5q-1 0 3.5 -0.5t9.5 -1.5
q4 -1 11 -2t12 -2q12 10 20.5 17.5t10.5 9.5q17 28 17 93q0 111 -46 130q-16 34 -52 34q-13 0 -26 -8h1q-39 -19 -64 -73q-9 -20 -16.5 -36t-12.5 -29q-33 84 -68 106q-16 23 -34 33h1q-8 5 -26 5q-22 0 -53 -20q-69 -44 -69 -135q0 -29 30 -44q1 -1 2 -1q6 -19 28 -29
q8 -4 11 -6q3 -7 7 -9l-1 2q39 -59 39 -82q0 -37 -23 -37q2 0 -4.5 1t-12.5 2h1q-7 2 -14 2.5t-11 0.5q-42 0 -54 -79q-9 -62 -9 -81q0 -57 6 -79q11 -40 39 -53q15 -28 47 -36h10q46 0 71 22h-1q16 14 38 60q2 2 2.5 4.5t2.5 6.5l-1 -2l16 41q4 -9 6.5 -16t4.5 -13
q16 -45 46 -62q27 -41 72 -41q32 0 51 14q10 7 22 23q46 63 46 158z" />
    <glyph glyph-name="y" unicode="y" horiz-adv-x="526" 
d="M464 576q-4 -35 -6 -72.5t-2 -77.5q0 -45 3 -136q3 -90 3 -135q0 -52 -2.5 -93.5t-7.5 -73.5q-13 -86 -88 -138q-68 -47 -159 -47q-90 0 -136 44q-22 22 -22 72q0 6 4 15q16 43 83 66q3 1 7.5 2t11.5 3q11 1 23 1.5t25 0.5q25 0 39 -7q19 -31 31 -31q16 0 33 27
q0 4 1 13.5t1 14.5q0 16 -7 26q-5 3 -11 3q-4 0 -14.5 -4t-11.5 -4q-32 -27 -81 -27q-45 0 -77 28q-51 43 -51 160v80q0 12 0.5 30t1.5 42q3 48 3 72q0 76 -10 96q-1 2 -3.5 6.5t-7.5 12.5q-7 10 -7 21q0 31 60 52q51 17 88 17q5 0 11.5 -0.5t13.5 -1.5l9 -6q14 -17 14 -47
q0 -5 -1.5 -20t-3.5 -38q-6 -57 -6 -104q0 -80 13 -142q4 -33 29 -33q10 0 18 6q25 19 25 150q0 86 -21 137q-10 23 -10 37q0 29 57 47q47 14 82 14q30 0 38 -3q12 -5 15 -24q2 -5 3 -31zM504 547q-2 27 -4 33l1 -1q-4 25 -21 31q-6 2 -10 2q-4 22 -20 28q-9 4 -42 4
q-38 0 -85 -14q-55 -16 -63 -47q-4 12 -11 21q-7 5 -14 9q-2 0 -3 0.5t-2 0.5q-4 10 -11 20q-7 5 -14 9q-7 1 -13.5 1.5t-13.5 0.5q-39 0 -91 -18q-67 -22 -67 -61q0 -14 9 -27q1 -2 2.5 -4.5t1.5 -1.5l6 -11q9 -20 9 -92q0 -24 -3 -72q0 -7 -0.5 -13t-0.5 -11
q-1 -15 -1 -27v-21v-80q0 -122 55 -168h-1q4 -6 11 -9q8 -11 20 -21h-1q-69 -24 -85 -70q-3 -7 -4 -12t-1 -7q0 -54 25 -79q5 -4 9.5 -8t9.5 -8q4 -8 11 -14q49 -47 143 -47q93 0 165 49q38 26 61.5 62t30.5 82q5 32 7.5 74t2.5 95q0 45 -3 135q-3 91 -3 136q0 39 2 76.5
t6 72.5v2zM270 532q20 -51 20 -133q0 -126 -21 -142q-2 -2 -3 -2q-6 31 -8.5 64t-2.5 69q0 46 6 103q0 2 0.5 3.5t0.5 3.5q2 14 2.5 24.5t1.5 18.5q2 -6 4 -9zM273 -21q-2 1 -3.5 1.5t-3.5 1.5l-4 4q9 4 17 8t16 9q0 -1 -0.5 -1.5t-0.5 -1.5q-11 -18 -21 -21z" />
    <glyph glyph-name="z" unicode="z" horiz-adv-x="457" 
d="M395 559q0 -73 -40 -138q-20 -31 -75 -91q-40 -43 -40 -62q0 -21 32 -21q17 0 46 17t42 17q31 0 31 -55q0 -16 -1 -43t-3 -65l-4 -67q0 -41 -24 -45q-29 -6 -143 -6q-52 0 -90 1.5t-63 5.5q-31 4 -31 75q0 122 35 178q12 20 29 40t39 42q59 59 59 77q0 20 -20 20
q-14 0 -51 -18q-38 -18 -54 -18q-31 0 -31 46q0 115 15 150q15 36 95 36h128q69 0 84 -7q35 -14 35 -69zM435 529q0 60 -39 77q-10 22 -32 31q-17 8 -88 8h-128q-88 0 -104 -42q-16 -35 -16 -154q0 -50 32 -56q7 -30 39 -30q20 0 58 19l2 1q1 0 3 1q-7 -8 -15 -16l-19 -19
q-23 -23 -40.5 -43.5t-29.5 -40.5h1q-37 -62 -37 -183q0 -77 37 -84q10 -26 33 -31q25 -4 63 -5.5t91 -1.5q116 0 145 6q32 6 32 54l4 67q2 38 3 65.5t1 43.5q0 60 -34 64q-9 31 -37 31q-17 0 -47 -18q-7 -4 -12.5 -6.5t-10.5 -4.5q5 6 11.5 13.5t15.5 17.5q51 55 76 93
q42 69 42 143z" />
    <glyph glyph-name="braceleft" unicode="{" horiz-adv-x="507" 
d="M429 799q-97 0 -129 -7q-69 -13 -103 -70q-26 -46 -26 -70q1 -28 1 -42q0 -13 0 -12q0 -11 -2 -35.5t-6 -61.5q-13 -67 -58 -71q-27 -1 -34 -7q-19 -13 -19 -98q0 -31 13 -40q9 -6 30 -7q24 -2 34 -10q7 -8 13 -16t11 -16q15 -20 17 -61v1q-1 -1 -1 -5v-61q0 -87 42 -138
q47 -56 131 -56h8t14 1t13 1h8q3 0 9 -0.5t15 -1.5q10 -1 16 -1.5t8 -0.5q32 0 38 31q1 3 1 55q0 32 -26 35q-45 6 -60 14q-29 18 -35 51q-1 3 -1 64q0 144 -94 178q-11 5 -18.5 8t-11.5 5q81 19 104 62q17 32 17 122q0 4 0.5 12t1.5 21t1.5 21t0.5 12q0 42 31 54q51 7 54 9
q33 10 33 33q0 3 1 9.5t1.5 14t1.5 13.5t1 9q0 52 -46 52zM429 809q56 0 56 -62q0 -8 -2 -23.5t-3 -23.5q-2 -32 -31 -39q-5 -26 -38 -32q-19 -3 -27 -5t-21 -4q-1 -3 -1 -16q0 -5 -0.5 -13.5t-1.5 -18t-1.5 -18.5t-0.5 -15q0 -93 -18 -127q-11 -20 -33 -35q-11 -17 -33 -32
q87 -41 87 -181q0 -59 1 -62q5 -29 31 -45q9 -6 56 -12q34 -4 34 -45q0 -54 -1 -57q-6 -29 -32 -37q-9 -32 -46 -32q-8 0 -24 2t-24 2q2 0 -3 0t-16 -1t-17 -1h-7q-88 0 -138 59q-45 55 -45 145v61q0 5 1 6q-2 36 -16 54t-22 30v-1q-9 7 -29 9q-24 1 -34 8q-16 10 -16 48
q0 90 22 106q4 3 15 6q7 21 20 27q8 3 34 6q6 0 8 1q8 14 11 31q4 37 6 61t2 35l-1 54q-2 28 27 75q17 28 41 46q33 46 99 59q16 4 48.5 5.5t82.5 1.5z" />
    <glyph glyph-name="bar" unicode="|" horiz-adv-x="222" 
d="M33 750h126v-998h-126v998zM23 -258h30v-30h146v1018h-30v30h-146v-1018z" />
    <glyph glyph-name="braceright" unicode="}" horiz-adv-x="508" 
d="M78 799q100 0 129 -7q69 -13 103 -70q26 -44 26 -70q-1 -29 -1 -43q0 -13 0 -11q0 -13 2.5 -41t5.5 -56q2 -11 7.5 -24t15.5 -27q13 -19 35 -20q29 -3 34 -7q19 -13 19 -98q0 -31 -13 -40q-6 -4 -29 -6q-24 -2 -35 -11l-24 -32q-15 -20 -17 -61v1q1 -1 1 -5v-10v-51
q0 -87 -42 -138q-47 -57 -131 -57q-7 0 -21.5 1t-21.5 1q-8 0 -24 -2t-24 -2q-32 0 -38 31q-1 4 -1 56q0 30 26 35q46 4 60 14q29 18 35 51q1 4 1 64q0 144 94 178q10 4 17.5 7.5t12.5 5.5q-81 20 -104 62q-17 32 -17 122q0 6 -0.5 14.5t-1.5 18.5t-1.5 18.5t-0.5 14.5
q0 42 -31 54q-14 2 -28 5t-28 5q-31 6 -31 32q0 8 -2.5 23t-2.5 23q0 52 46 52zM78 809q-56 0 -56 -62q0 -5 0.5 -11t1.5 -13q1 -5 2 -13t1 -10q2 -31 31 -39q5 -26 38 -32q7 -2 14 -2.5t14 -2.5t20 -4q1 -5 1 -15q0 -6 0.5 -15t1.5 -19t1.5 -18.5t0.5 -13.5q0 -94 18 -127
q10 -20 33 -35q10 -17 33 -32q-87 -41 -87 -181q0 -58 -1 -62q-4 -28 -31 -45q-12 -8 -56 -12q-34 -6 -34 -45v-40q0 -15 1 -18q6 -30 32 -37q9 -32 46 -32q5 0 11.5 0.5t13.5 1.5t13 1.5t10 0.5q3 0 8 -0.5t12 -0.5q6 -1 12 -1h11q89 0 139 61q44 53 44 144v61q0 4 -1 6
q2 37 15 53q5 6 8.5 11t6.5 9q4 5 6 8l2 3v-1q9 7 29 9q24 1 34 8q17 11 17 48q0 90 -23 106q-5 3 -15 6q-6 16 -15 24q-7 6 -39 9q-5 0 -8 1q-8 14 -11 31q-3 28 -5.5 56t-2.5 40v15t1 39q0 30 -27 75q-8 14 -18 25.5t-23 20.5q-34 45 -99 59q-16 4 -48.5 5.5t-82.5 1.5z
" />
    <glyph glyph-name="asciitilde" unicode="~" horiz-adv-x="552" 
d="M492 244q-45 -86 -125 -86q-38 0 -113 32t-100 32q-42 0 -88 -69l-36 109q45 86 125 86q37 0 112 -32t101 -32q41 0 88 69zM489 345q-4 -5 -7 -10t-7 -10l-16 50q-56 -81 -91 -81q-24 0 -97 31q-75 33 -116 33q-86 0 -136 -94l44 -133q4 5 7 9.5t6 9.5l17 -49
q55 81 91 81q23 0 96 -31q75 -33 117 -33q86 0 136 94z" />
    <glyph glyph-name="quotesinglbase" unicode="&#x201a;" horiz-adv-x="344" 
d="M285 111q0 -19 -5 -40t-14 -40.5t-21.5 -37.5t-27.5 -31q-22 -20 -66 -31q-10 -2 -12 -2q-21 0 -21 34q0 3 2.5 15t2.5 16q0 18 -20 24q-23 -2 -45 14.5t-28 40.5q-3 10 -3 29q0 47 25 72q49 52 123 52q30 0 58.5 -15.5t39.5 -40.5q12 -24 12 -59zM325 81q0 38 -13 63
q-12 23 -36 40q-15 23 -43.5 37.5t-57.5 14.5q-78 0 -130 -55q-28 -28 -28 -79q0 -22 3 -32q4 -16 14 -29t24 -22q19 -30 52 -38v-2q-1 -5 -1.5 -9t-0.5 -7q0 -44 30 -44q4 -30 31 -30q7 0 11 1h-1q1 1 4 1q46 10 71 34q31 28 51 72t20 84z" />
    <glyph glyph-name="florin" unicode="&#x192;" horiz-adv-x="584" 
d="M114 415h106l19 106q34 189 179 189q36 0 111 -23l-16 -114q-22 19 -48 19q-44 0 -56 -80l-15 -97h87l-4 -126h-104l-50 -303q-16 -99 -67 -152.5t-124 -53.5q-43 0 -107 30l13 113q30 -21 52 -21q25 0 39 24.5t25 87.5l45 275h-89zM100 279h31l-1 -30h52l-38 -233
q-11 -59 -22.5 -81.5t-31.5 -22.5q-19 0 -60 29l-16 -137q9 -4 16.5 -7.5t15.5 -6.5l-2 -16q72 -34 118 -34q78 0 131 55.5t70 158.5l48 295h106l4 146h-31l1 30h-51l9 55q10 72 46 72q22 0 55 -29l20 141q-18 4 -33 9l3 21q-42 13 -72 19.5t-50 6.5q-153 0 -189 -197
l-18 -98h-107z" />
    <glyph glyph-name="quotedblbase" unicode="&#x201e;" horiz-adv-x="643" 
d="M288 111q0 -19 -5 -40t-14 -40.5t-21.5 -37.5t-27.5 -31q-22 -20 -66 -31q-10 -2 -12 -2q-21 0 -21 34q0 3 2.5 15t2.5 16q0 18 -20 24q-23 -2 -45 14.5t-28 40.5q-3 10 -3 29q0 47 25 72q49 52 123 52q30 0 58.5 -15.5t39.5 -40.5q12 -24 12 -59zM582 111q0 -19 -5 -40
t-14 -40.5t-21.5 -37.5t-27.5 -31q-22 -20 -66 -31q-10 -2 -12 -2q-21 0 -21 34q0 3 2.5 15t2.5 16q0 18 -20 24q-23 -2 -45 14.5t-28 40.5q-3 10 -3 29q0 47 25 72q49 52 123 52q30 0 58.5 -15.5t39.5 -40.5q12 -24 12 -59zM622 81q0 38 -13 63q-12 23 -36 40
q-15 23 -43.5 37.5t-57.5 14.5q-78 0 -130 -55q-18 -18 -24 -44q-1 3 -3 7q-12 23 -36 40q-15 23 -43.5 37.5t-57.5 14.5q-78 0 -130 -55q-28 -28 -28 -79q0 -22 3 -32q4 -16 14 -29t24 -22q19 -30 52 -38v-2q-1 -5 -1.5 -9t-0.5 -7q0 -44 30 -44q4 -30 31 -30q7 0 11 1h-1
q1 1 4 1q46 10 71 34q25 23 43 56.5t25 68.5q10 -18 30 -31q19 -30 52 -38v-2q-1 -5 -1.5 -9t-0.5 -7q0 -44 30 -44q4 -30 31 -30q7 0 11 1h-1q1 1 4 1q46 10 71 34q31 28 51 72t20 84z" />
    <glyph glyph-name="ellipsis" unicode="&#x2026;" horiz-adv-x="1081" 
d="M305 113q0 -29 -6 -45q-14 -36 -59 -53q-39 -14 -81 -14q-51 0 -86 20q-41 24 -41 72q0 45 25 70q43 46 121 46q52 0 87 -21q40 -25 40 -75zM662 113q0 -29 -6 -45q-14 -36 -59 -53q-39 -14 -81 -14q-51 0 -86 20q-41 24 -41 72q0 45 25 70q43 46 121 46q52 0 87 -21
q40 -25 40 -75zM1019 113q0 -29 -6 -45q-14 -36 -59 -53q-39 -14 -81 -14q-51 0 -86 20q-41 24 -41 72q0 45 25 70q43 46 121 46q52 0 87 -21q40 -25 40 -75zM1059 83q0 53 -44 82q-5 9 -13 16.5t-18 14.5q-40 23 -92 23q-82 0 -128 -49q-28 -28 -28 -77q0 -51 42 -79
q11 -18 34 -32q36 -21 91 -21q43 0 84 15q50 18 65 58q7 17 7 49zM702 83q0 53 -44 82q-5 9 -13 16.5t-18 14.5q-40 23 -92 23q-82 0 -128 -49q-28 -28 -28 -77q0 -51 42 -79q11 -18 34 -32q36 -21 91 -21q43 0 84 15q50 18 65 58q7 17 7 49zM345 83q0 53 -44 82
q-5 9 -13 16.5t-18 14.5q-40 23 -92 23q-82 0 -128 -49q-28 -28 -28 -77q0 -51 42 -79q11 -18 34 -32q36 -21 91 -21q43 0 84 15q50 18 65 58q7 17 7 49z" />
    <glyph glyph-name="dagger" unicode="&#x2020;" horiz-adv-x="462" 
d="M405 545v-8t1 -16q1 -9 1.5 -15t0.5 -9q0 -18 -18 -18q-3 0 -10 0.5t-18 1.5q-21 3 -27 3q-33 0 -41 -14q-5 -10 -5 -45v-44q0 -26 1 -61t1 -62v-43q0 -3 1 -9.5t1.5 -13.5t1.5 -13t1 -8q0 -3 -1 -9.5t-1.5 -14t-1.5 -13.5t-1 -8v-8q0 -5 1 -13t1.5 -13.5t0.5 -7.5v-54
q-5 -30 -31 -30h-99q-25 0 -25 55q0 6 3 29q3 22 3 28v41q-1 17 -1 31v28v100q0 6 -3 30q-1 12 -1.5 20t-0.5 12q0 8 0.5 20t1.5 28q3 33 3 49q0 8 -23 10q-17 2 -44 0q-14 -1 -22 -1t-10 -1q-20 0 -20 32q0 3 0.5 8.5t0.5 10.5q0 6 0.5 10.5l0.5 4.5q0 4 -1.5 17.5
t-1.5 17.5q0 25 43 25q4 0 10 -0.5t16 -1.5t15 -1h8q28 0 28 22q0 13 -0.5 31.5t-1.5 43.5t-1.5 43.5t-0.5 31.5q0 23 21 26q-3 -1 36 -1h11q8 0 19 1q12 1 19 1h11q23 0 29.5 -8t6.5 -31q0 -3 -0.5 -10t-1.5 -18t-1.5 -18t-0.5 -11q0 -98 6 -102q7 -4 42 -4q5 0 22 3
q18 3 22 3q26 0 26 -28q0 -3 -1 -15.5t-1 -16.5zM445 515v7t1 10q0 5 0.5 9t0.5 6q0 35 -31 38q-3 30 -35 30q-6 0 -24 -3q-17 -3 -20 -3h-8v66q0 2 0.5 5t0.5 8q0 3 0.5 7t0.5 9t0.5 9.5t0.5 7.5q0 4 0.5 6.5t0.5 4.5q0 25 -5.5 35.5t-25.5 12.5q-2 18 -11 24.5t-34 6.5
h-11t-20 -1q-8 -1 -13 -1h-9q5 -1 -2 -4t-36 -13l-4 18q-32 -5 -32 -36v-23q0 -12 1 -28q0 -5 0.5 -11t0.5 -13t0.5 -13t0.5 -11q1 -16 1 -29v-22q0 -12 -18 -12h-8q-5 0 -15 1q-3 0 -6 0.5t-5 0.5q-5 1 -9 1h-6q-53 0 -53 -35v-8t1 -11l2 -16v-5q-1 -6 -1.5 -15.5
t-0.5 -13.5q0 -42 30 -42q4 -30 32 -30q2 1 14 1q4 0 7.5 0.5t8.5 0.5q7 0 13.5 0.5t11.5 0.5h1q-1 -5 -1.5 -9.5t-0.5 -9.5q0 -4 -0.5 -8t-0.5 -8v1q-1 -11 -1 -20v-14v-7t1 -10q0 -4 0.5 -8t0.5 -8q3 -24 3 -29v-100v-28q0 -14 1 -31v-41q0 -5 -3 -27q-3 -24 -3 -30
q0 -64 33 -65q7 -30 32 -30h99q35 0 41 39v55q0 2 -0.5 4t-0.5 5q0 2 -0.5 5.5t-0.5 7.5q-1 8 -1 13v7q0 1 0.5 6t1.5 11q1 8 2 19t1 9q0 2 -0.5 7.5t-1.5 11.5q-1 7 -2 16.5l-1 9.5v43t-1 61t-1 61v44t1 27t3 14v-1q4 9 32 9q5 0 26 -3q5 0 10 -0.5t8 -0.5q4 0 6.5 -0.5
t4.5 -0.5q28 0 28 28v5q0 4 -1 9q-1 2 -1 10q-1 10 -1 16v8z" />
    <glyph glyph-name="circumflex" unicode="&#x2c6;" horiz-adv-x="396" 
d="M338 727q0 -12 -58 -12h-32q-18 0 -37 16q-1 1 -8.5 8t-21.5 21q-8 -11 -16 -19.5t-16 -16.5q-6 -6 -109 -6q-11 0 -11 13q0 7 75 85q15 16 34 16h90q23 0 61 -42q12 -16 24 -31.5t25 -31.5zM376 703l-42 52.5t-29 36.5q-11 17 -37 33q-26 17 -40 17h-91q-22 0 -40 -19
q-78 -81 -78 -92q0 -23 32 -23q-2 -6 -2 -10q0 -20 21 -20q107 0 115 8q9 10 15.5 17t11.5 12q26 -29 40 -35q15 -5 54 -5h43q29 5 29 22q-1 2 -1 3t-1 3z" />
    <glyph glyph-name="Scaron" unicode="&#x160;" horiz-adv-x="545" 
d="M486 251q0 -54 -20 -108q-23 -61 -61 -91q-62 -52 -222 -52q2 0 0 1q-7 0 -12 1l-71 5q-41 3 -57 36q-2 7 -9 75q-2 23 -3.5 41.5t-1.5 32.5q0 48 20 96q13 12 34 12q11 0 61 -37q51 -36 81 -36q10 0 11 1q15 9 15 34q0 29 -54 76q-42 35 -66.5 59t-34.5 35
q-54 67 -54 145q0 74 34 120q55 75 157 97q27 6 36 6q10 0 22 -1t22 -1q86 0 113 -6q40 -27 40 -115q0 -122 -45 -122q-21 0 -68 29t-63 29q-15 0 -29 -8q-4 -7 -4 -18q0 -26 59 -79q93 -81 111 -104q59 -74 59 -153zM526 221q0 82 -61 159q-5 7 -15.5 17t-24.5 24
q-18 19 -43.5 42.5t-58.5 52.5v-1q-4 2 -6 5q-20 23 -20 37q0 8 1 10q16 6 22 6q15 0 62 -29t69 -29q55 0 55 132q0 94 -46 125q-1 0 -2 1h-2q-9 15 -26 29q-27 6 -117 6q-9 0 -21 1t-23 1q-10 0 -38 -6q-105 -23 -163 -101q-36 -50 -36 -126q0 -81 56 -151q10 -15 37 -39
q33 -35 96 -87h-1l4 -4q17 -20 17 -34q0 -19 -10 -25h-6q-27 0 -78 36q-49 37 -64 37q-26 0 -42 -16q-22 -51 -22 -102q0 -16 3.5 -53.5t10.5 -97.5q11 -24 32 -35q21 -35 64 -38q38 -2 55.5 -3.5t15.5 -1.5q5 -1 8 -1.5t4 -0.5l1 10v-10q160 0 228 53q39 31 64 94
q21 55 21 113zM429 976q0 -2 -23 -27q-17 -19 -30.5 -33.5t-21.5 -24.5q-15 -16 -34 -16h-90q-26 0 -60 42q-17 21 -29.5 36.5t-20.5 26.5q0 11 15 11h9q6 0 14 1h25h28q17 0 27 -8t19.5 -17.5l19.5 -19.5q12 16 33 37q8 5 108 5q11 0 11 -13zM469 946q0 23 -21 23h-12
q3 4 3 7q0 23 -21 23q-104 0 -113 -6q-8 -8 -15 -15.5t-14 -15.5q-8 7 -15 13.5t-14 13.5q-16 13 -36 13h-29h-24q-8 -1 -14 -1h-9q-25 0 -25 -25l51 -66q5 -7 12 -13t15 -13q1 -2 3 -4q40 -45 69 -45h90q24 0 40 19q9 10 15.5 17t11.5 12q52 58 52 63z" />
    <glyph glyph-name="OE" unicode="&#x152;" horiz-adv-x="776" 
d="M335 447q0 114 -63 114q-18 0 -33 -19q-20 -26 -20 -141q0 -55 7 -79q13 -48 52 -48q54 0 56 66l1 43v64zM714 641q0 -75 -48 -75q-19 0 -59 21q-41 21 -65 21q-41 0 -44 1q-37 -9 -37 -48q0 -20 7 -45q7 -6 16 -6q14 0 56 17q40 18 59 18q26 0 37 -18q6 -11 6 -43
q0 -8 -0.5 -20t-1.5 -29q-1 -16 -1.5 -28t-0.5 -20v-15q-2 -16 -12 -32q-12 -20 -26 -20q-29 0 -72 22l-45 23q-10 0 -16 -12q-1 -19 -2 -33t-2 -23q3 -53 49 -53q31 0 94 26q63 27 72 27t15.5 -8t11 -19.5t6.5 -24t2 -20.5q0 -4 -0.5 -13t-1.5 -23t-1.5 -22t-0.5 -12
q0 -100 -26 -141q-26 -12 -55 -12h-8q-3 1 -9 1q-48 -1 -94 -1.5t-93 -0.5q-29 0 -51 5q-16 7 -19 10q-8 -4 -14.5 -6t-11.5 -4q-21 -6 -71 -6q-65 0 -106 29q-98 71 -116 252q-2 26 -3.5 43t-1.5 26q0 171 58 308q60 142 203 142q38 0 73 -11q13 4 57 7q6 1 12 1q7 0 14 1
l50 2q4 0 10 -0.5t16 -1.5t15 -1h7q25 0 59 -2t77 -6q21 -7 26 -72q0 -6 3 -21q2 -11 3 -25t1 -30zM754 611q0 17 -1 31.5t-3 25.5q-3 15 -3 19q-4 72 -36 82h-3q-9 24 -27 30q-43 4 -77 6t-59 2h-7t-15 1q-4 0 -7 0.5t-6 0.5h2q-5 1 -9 1h-6l-50 -2q-3 0 -6.5 -0.5
t-6.5 -0.5q-11 0 -15 -1q-40 -3 -55 -6q-16 5 -34.5 7.5t-38.5 2.5q-151 0 -212 -148q-30 -70 -44.5 -148t-14.5 -164q0 -10 1.5 -27t3.5 -43q17 -177 108 -250q18 -23 42 -39q45 -31 112 -31q53 0 74 6q4 1 9 2.5t13 5.5q3 -2 7 -3t9 -4h1t2 -1h-1q22 -5 53 -5q47 0 93 0.5
t94 1.5q6 0 9 -1h8q30 0 61 14q30 48 30 149q0 2 0.5 5.5t0.5 8.5q0 4 0.5 9t0.5 11t0.5 11t0.5 10t0.5 9t0.5 6q0 9 -2.5 22.5t-7.5 26t-13 22t-19 11.5q-5 12 -13.5 21t-19.5 9q-4 0 -14 -3v0q1 0 1 1h-1q13 20 14 36v16v13q0 8 1 19q0 4 0.5 8t0.5 8t0.5 8t0.5 8
q1 10 1 18v15q0 37 -7 48q-9 16 -27 20q-1 4 -3 10q-14 23 -46 23q-21 0 -63 -19q-11 -5 -19.5 -8t-15.5 -5v8q0 31 28 38q6 -1 16 -1h27q20 0 60 -20q41 -22 64 -22q58 0 58 85zM325 383l-1 -43q-2 -56 -46 -56q-6 0 -9 1q-2 6 -3 10q-7 24 -7 76q0 111 18 135q12 15 25 15
q4 0 12 -2q11 -27 11 -72v-64zM602 279q-61 -25 -90 -25h-7q-2 8 -2 14q0 1 0.5 2.5t0.5 3.5q1 8 1.5 20.5t1.5 26.5l3 3l43 -21q29 -16 55 -21z" />
    <glyph glyph-name="quoteleft" unicode="&#x2018;" horiz-adv-x="344" 
d="M287 628q0 -45 -25 -73q-46 -52 -123 -52q-29 0 -57 15q-54 28 -54 99q0 19 5.5 40.5t14.5 41.5t21.5 38t27.5 32q6 6 16 11.5t21.5 10t22.5 7.5t20 3q18 0 18 -24q0 -2 -0.5 -7.5t-1.5 -12t-1.5 -12t-0.5 -8.5q0 -26 20 -26q25 0 46 -15.5t27 -39.5q3 -12 3 -28z
M327 598q0 18 -3 30q-4 16 -14 29t-24 21q-19 32 -55 40q1 3 1 5q0 3 1 6q1 6 1.5 10.5t0.5 7.5q0 34 -28 34h-2q-2 30 -28 30q-9 0 -21.5 -3t-24.5 -8t-23 -11.5t-18 -12.5q-31 -28 -51.5 -72.5t-20.5 -86.5q0 -71 49 -102q13 -22 40 -36q29 -16 62 -16q81 0 130 55
q28 31 28 80z" />
    <glyph glyph-name="quoteright" unicode="&#x2019;" horiz-adv-x="344" 
d="M285 687q0 -37 -20 -82q-20 -44 -48 -69q-22 -20 -66 -31q-10 -2 -12 -2q-21 0 -21 34q0 3 2.5 15t2.5 16q0 20 -20 26q-23 -2 -45 14.5t-28 40.5q-3 10 -3 29q0 47 25 72q49 52 123 52q30 0 58.5 -15.5t39.5 -40.5q12 -24 12 -59zM325 657q0 38 -13 63q-12 23 -36 40
q-15 23 -43.5 37.5t-57.5 14.5q-78 0 -130 -55q-28 -28 -28 -79q0 -22 3 -32q4 -16 14 -29t24 -22q19 -29 52 -39v-3q-1 -5 -1.5 -9t-0.5 -7q0 -44 30 -44q4 -30 31 -30q7 0 11 1h-1q1 0 2 0.5t2 0.5q46 10 71 34q28 24 50 72q21 45 21 86z" />
    <glyph glyph-name="quotedblleft" unicode="&#x201c;" horiz-adv-x="644" 
d="M290 628q0 -45 -25 -73q-46 -52 -123 -52q-29 0 -57 15q-54 28 -54 99q0 19 5.5 40.5t14.5 41.5t21.5 38t27.5 32q6 6 16 11.5t21.5 10t22.5 7.5t20 3q18 0 18 -24q0 -2 -0.5 -7.5t-1.5 -12t-1.5 -12t-0.5 -8.5q0 -26 20 -26q25 0 46 -15.5t27 -39.5q3 -12 3 -28z
M584 628q0 -45 -25 -73q-46 -52 -123 -52q-29 0 -57 15q-54 28 -54 99q0 19 5.5 40.5t14.5 41.5t21.5 38t27.5 32q6 6 16 11.5t21.5 10t22.5 7.5t20 3q18 0 18 -24q0 -2 -0.5 -7.5t-1.5 -12t-1.5 -12t-0.5 -8.5q0 -26 20 -26q25 0 46 -15.5t27 -39.5q3 -12 3 -28zM624 598
q0 18 -3 30q-4 16 -14 29t-24 21q-19 32 -55 40q1 3 1 5q0 3 1 6q1 6 1.5 10.5t0.5 7.5q0 34 -28 34h-2q-2 30 -28 30q-9 0 -21.5 -3t-24.5 -8t-23 -11.5t-18 -12.5q-25 -23 -43.5 -57.5t-25.5 -69.5q-11 18 -29 29q-19 32 -55 40q1 3 1 5q0 3 1 6q1 6 1.5 10.5t0.5 7.5
q0 34 -28 34h-2q-2 30 -28 30q-9 0 -21.5 -3t-24.5 -8t-23 -11.5t-18 -12.5q-31 -28 -51.5 -72.5t-20.5 -86.5q0 -71 49 -102q13 -22 40 -36q29 -16 62 -16q81 0 130 55q17 19 23 43q13 -30 39 -46q13 -22 40 -36q29 -16 62 -16q81 0 130 55q28 31 28 80z" />
    <glyph glyph-name="quotedblright" unicode="&#x201d;" horiz-adv-x="643" 
d="M288 687q0 -37 -20 -82q-20 -44 -48 -69q-22 -20 -66 -31q-10 -2 -12 -2q-21 0 -21 34q0 3 2.5 15t2.5 16q0 20 -20 26q-23 -2 -45 14.5t-28 40.5q-3 10 -3 29q0 47 25 72q49 52 123 52q30 0 58.5 -15.5t39.5 -40.5q12 -24 12 -59zM582 687q0 -37 -20 -82
q-20 -44 -48 -69q-22 -20 -66 -31q-10 -2 -12 -2q-21 0 -21 34q0 3 2.5 15t2.5 16q0 20 -20 26q-23 -2 -45 14.5t-28 40.5q-3 10 -3 29q0 47 25 72q49 52 123 52q30 0 58.5 -15.5t39.5 -40.5q12 -24 12 -59zM622 657q0 38 -13 63q-12 23 -36 40q-15 23 -43.5 37.5
t-57.5 14.5q-78 0 -130 -55q-18 -18 -24 -44q-1 3 -3 7q-12 23 -36 40q-15 23 -43.5 37.5t-57.5 14.5q-78 0 -130 -55q-28 -28 -28 -79q0 -22 3 -32q4 -16 14 -29t24 -22q19 -29 52 -39v-3q-1 -5 -1.5 -9t-0.5 -7q0 -44 30 -44q4 -30 31 -30q7 0 11 1h-1q1 0 2 0.5t2 0.5
q46 10 71 34q28 24 50 72q12 26 18 55q5 -10 13 -17.5t17 -13.5q19 -29 52 -39v-3q-1 -5 -1.5 -9t-0.5 -7q0 -44 30 -44q4 -30 31 -30q7 0 11 1h-1q1 0 2 0.5t2 0.5q46 10 71 34q28 24 50 72q21 45 21 86z" />
    <glyph glyph-name="bullet" unicode="&#x2022;" horiz-adv-x="438" 
d="M379 398q0 -76 -49 -125q-48 -50 -123 -50t-127 50q-51 51 -51 126q0 73 52 124t125 51q74 0 124 -51q49 -49 49 -125zM419 368q0 80 -52 132l-8.5 8.5t-8.5 7.5q-3 4 -6.5 7t-6.5 7q-51 54 -131 54q-75 0 -132 -54q-55 -54 -55 -131q0 -79 54 -133q3 -4 6.5 -7t7.5 -6
q4 -5 7.5 -9t8.5 -8q55 -53 134 -53t130 53q52 52 52 132z" />
    <glyph glyph-name="endash" unicode="&#x2013;" horiz-adv-x="626" 
d="M547 392q17 0 14 -45q-1 -8 -1 -14v-10v-11q0 -7 1 -20q1 -12 1.5 -19.5t0.5 -11.5q0 -30 -29 -30q-10 0 -25.5 0.5t-35.5 1.5q-41 3 -61 3q-4 0 -12.5 -0.5t-22.5 -1.5t-22 -1.5t-12 -0.5h-85h-10q-6 0 -17 1t-17.5 1.5t-9.5 0.5q-4 0 -12.5 -0.5t-22.5 -1.5t-22 -1h-12
h-77q-26 0 -26 37q0 3 0.5 10l1 14t1 13t0.5 8q0 3 -0.5 9.5t-1.5 16.5q-1 11 -1 17v10q0 28 37 28q21 0 63 -3q22 -1 37.5 -1.5t26.5 -0.5h12t21 1t20.5 1.5t11.5 0.5h92h54q15 -1 24 -1h14h102zM577 372h-7q-3 30 -23 30h-102h-14q-9 0 -24 1h-146q-2 0 -5 -0.5t-8 -0.5
q-4 0 -9.5 -0.5t-10.5 -0.5q-13 -1 -21 -1h-11h-18t-23 1q-5 0 -11 0.5t-11 0.5q-42 3 -64 3q-47 0 -47 -38v-10t1 -18q0 -4 0.5 -7.5t0.5 -6.5q1 -5 1 -8v-3v-6q0 -3 -1 -9q-1 -8 -1.5 -16.5t-0.5 -13.5q0 -44 31 -47q6 -30 35 -30h77h12q9 0 23 1q5 0 9.5 0.5t8.5 0.5
q6 0 10 0.5t6 0.5t4.5 -0.5t7.5 -0.5q3 0 6 -0.5t8 -0.5q11 -1 18 -1h10h85q2 0 5.5 0.5t8.5 0.5q4 0 9 0.5t11 0.5q5 0 10 0.5t9 0.5q6 0 10 0.5t6 0.5q19 0 60 -3q5 0 10 -0.5t10 -0.5q14 -1 24 -1h18q39 0 39 40q0 2 -0.5 5.5t-0.5 8.5q0 4 -0.5 8t-0.5 9q-1 13 -1 20v11
v9q0 6 1 14v13q0 43 -24 43z" />
    <glyph glyph-name="emdash" unicode="&#x2014;" horiz-adv-x="660" 
d="M598 374q0 -101 -15 -110q-7 -4 -29 -4q-18 0 -52 -3q-35 -3 -51 -3q-399 0 -409 7t-10 83q0 42 7 50q7 9 166 9q15 0 37.5 -0.5t53.5 -1.5t53.5 -1.5t37.5 -0.5q25 0 75 3q49 3 75 3q61 0 61 -31zM638 344q0 27 -31 36q-4 35 -70 35q-27 0 -76 -3q-50 -3 -74 -3h-26
q-14 0 -33 1q-8 0 -15.5 0.5t-16.5 0.5t-16.5 0.5t-15.5 0.5q-19 1 -34 1h-25q-162 0 -174 -13q-9 -10 -9 -56q0 -81 14 -91q1 -1 19 -3q5 -23 11 -27q13 -9 415 -9q17 0 52 3q34 3 51 3q26 0 34 5q20 12 20 119z" />
    <glyph glyph-name="tilde" unicode="&#x2dc;" horiz-adv-x="388" 
d="M327 764q0 -79 -56 -79q-24 0 -72 17t-66 17q-3 0 -11 -14t-24 -14h-15q-5 -1 -9 -1h-5q-38 0 -38 34q0 44 10 61q15 23 55 23q22 0 63 -15q44 -14 63 -14q4 0 7.5 3.5t7 8t8 8t11.5 3.5q4 0 13 -1t13 -1q23 0 29 -2q16 -4 16 -21v-13zM367 747q0 25 -23 31v-1
q-2 0 -3.5 0.5t-3.5 0.5q-2 24 -23 30v-1q-4 1 -12 2t-20 1h-5q-2 0 -6 1q-4 0 -8.5 0.5t-6.5 0.5q-13 0 -18.5 -5.5t-10.5 -11.5q-2 -2 -3.5 -4l-1.5 -2q-16 0 -60 14v-1q-41 16 -66 16q-45 0 -64 -28q-11 -18 -11 -66q0 -36 31 -43q6 -31 47 -31h6t9 1h14q22 0 33 19l3 9
q10 -1 25 -5t37 -11q49 -18 75 -18q66 0 66 89v13z" />
    <glyph glyph-name="trademark" unicode="&#x2122;" horiz-adv-x="1023" 
d="M850 659h-2l-89 -274h-88l-89 274h-2v-274h-110v416h156l89 -242l89 242h156v-416h-110v274zM147 711h-117v90h344v-90h-117v-326h-110v326zM840 375h30v-30h130v436h-30v30h-172l-74 -199l-62 169h-19l-11 30h-172v-436h30v-30h130v163l43 -133h20l10 -30h104l43 133
v-103zM137 375h30v-30h130v326h117v110h-30v30h-364v-110h30v-30h87v-296z" />
    <glyph glyph-name="scaron" unicode="&#x161;" horiz-adv-x="511" 
d="M452 201q0 -57 -39 -109q-68 -92 -191 -92q-80 0 -133 35q-61 40 -61 118q0 39 20 73q10 17 25 29t30.5 19.5t31.5 11t28 3.5q22 0 39 -7q25 -10 25 -27q0 -3 -2 -8.5t-4.5 -12t-4.5 -13t-2 -10.5q0 -20 24 -20q12 0 22 7.5t10 17.5q0 35 -34 63q-18 15 -69 40
q-50 24 -70 43q-47 42 -47 107q0 117 153 155q47 11 67 11q69 0 119 -27q60 -33 60 -98q0 -40 -38 -63q-31 -19 -76 -19q-21 0 -35 7q-24 7 -24 22q0 1 1.5 5.5t3.5 9.5t3.5 9.5t1.5 5.5q0 12 -21 20q-27 -2 -27 -26q0 -27 47 -62l41 -26q98 -61 118 -125q4 -24 6 -40.5
t2 -26.5zM492 171q0 8 -2 24t-6 40v6q-14 43 -64 86q-10 13 -27.5 28.5t-43.5 33.5q3 -1 16 -1q48 0 83 21q41 26 41 71q0 62 -50 97q-47 68 -169 68q-20 0 -69 -11q-161 -39 -161 -165q0 -71 50 -115v1l7 -7q11 -14 23 -24v1q6 -6 15 -12.5t22 -13.5q-25 -2 -59 -16
q-35 -15 -57.5 -51t-22.5 -79q0 -74 59 -121q54 -71 175 -71q61 0 103 18q56 22 97 77q40 55 40 115zM293 426q1 -1 3 -1v-1q-1 0 -3 2zM398 816q0 -2 -23 -27q-17 -19 -30.5 -33.5t-21.5 -24.5q-15 -16 -34 -16h-90q-26 0 -60 42q-17 21 -29.5 36.5t-20.5 26.5q0 11 15 11
h9q6 0 14 1h25h28q17 0 27 -8t19.5 -17.5l19.5 -19.5q12 16 33 37q8 5 108 5q11 0 11 -13zM438 786q0 23 -21 23h-12q3 4 3 7q0 23 -21 23q-104 0 -113 -6q-8 -8 -15 -15.5t-14 -15.5q-8 7 -15 13.5t-14 13.5q-16 13 -36 13h-29h-24q-8 -1 -14 -1h-9q-25 0 -25 -25l51 -66
q5 -7 12 -13t15 -13q1 -2 3 -4q40 -45 69 -45h90q24 0 40 19q9 10 15.5 17t11.5 12q52 58 52 63z" />
    <glyph glyph-name="oe" unicode="&#x153;" horiz-adv-x="736" 
d="M292 314q0 41 -16 76q-19 46 -55 46q-44 0 -44 -84q0 -66 39 -97q11 -8 22 -8q10 0 28 6q26 20 26 61zM504 429l-2 8q-1 5 -2 14t-3 21q-6 19 -25 19h-4q-27 0 -35 -41l-3 -15q0 -3 1 -4v-1q2 -17 28 -17q3 0 13.5 1t12.5 1q19 0 19 14zM674 217q0 -42 -12 -87
q-13 -51 -37 -78q-46 -52 -136 -52q-78 0 -131 50q-50 -50 -123 -50q-80 0 -125 45q-9 8 -22 28q-58 85 -58 219q0 101 31 194q20 63 66 103q49 46 111 46q87 0 135 -55q12 12 35 32q34 24 98 24q66 0 98 -27q7 -8 21 -27q48 -74 48 -167q0 -39 -11 -83q-8 -11 -30 -15
l-36 -3q-3 -1 -18 -1h-6q-3 0 -9 1h-21h-36q-53 0 -61 -11v-8q0 -27 24 -49q26 -23 51 -23q1 0 7 1.5t18 3.5q3 1 8 1.5t12 2.5q10 4 39 30q24 21 42 21q9 0 11 -1q17 -14 17 -65zM714 187q0 56 -21 73q-8 3 -14 3q-3 10 -7 15q21 6 30 20q11 44 11 87q0 95 -50 172
q-14 21 -22 29q-4 3 -7 6t-8 5q-5 7 -9 12t-6 7q-35 30 -105 30q-66 0 -109 -30q-8 -7 -13.5 -12t-10.5 -10q-50 51 -135 51q-66 0 -118 -49v1q-47 -41 -69 -108h1q-17 -49 -24.5 -98t-7.5 -99q0 -137 60 -225q12 -18 23 -29q7 -8 17 -15q3 -5 6.5 -8.5l6.5 -6.5
q48 -48 132 -48q72 0 123 46q55 -46 131 -46q94 0 143 55q25 30 40 83v-1q12 45 12 90zM282 314q0 -36 -22 -53l3 1q-17 -5 -25 -5q-5 0 -7 1q-14 26 -14 64q0 74 34 74q4 0 12 -2q3 -4 4 -8q15 -35 15 -72zM597 269q-26 -23 -36 -28l2 1q-10 -2 -14 -3l-2 -1q1 0 -4 0
q-7 -2 -12.5 -3t-8.5 -2h-2q-14 0 -29 9q-6 10 -6 23v3q9 6 51 6h56q4 -1 9 -1q-1 -2 -2 -2.5t-2 -1.5zM494 429q0 -4 -9 -4q-1 0 -4.5 -0.5t-6.5 -0.5q5 21 16 25q0 -4 1 -6q0 -2 0.5 -3t0.5 -3t0.5 -3.5t0.5 -2.5z" />
    <glyph glyph-name="Ydieresis" unicode="&#x178;" horiz-adv-x="619" 
d="M563 758q0 -17 -26 -93q-1 -2 -2.5 -7.5t-5.5 -15.5l-122 -263q-24 -51 -24 -120q0 -14 1.5 -36t3.5 -51t3.5 -51t1.5 -36q0 -26 -1 -31q-5 -32 -36 -42q-17 -6 -59 -6q-14 0 -42 -3q-14 -1 -24.5 -1.5t-17.5 -0.5q-38 0 -51 22q-4 17 -5.5 29t-1.5 18q0 3 1.5 16t5.5 36
q2 17 3.5 32.5t1.5 29.5v70q0 93 -21 153q-9 26 -16.5 47t-13.5 38q-11 32 -18.5 55.5t-12.5 39.5q-20 55 -42 90q-17 26 -17 43q0 11 8 22q12 16 89 39q63 19 99 19q28 0 33 -20q13 -11 31 -119q16 -99 30 -99q15 0 25 49q10 41 10 63q0 23 -8 50q3 50 118 63q17 2 30 3
t23 1q49 0 49 -33zM603 728q0 31 -31 40q-6 33 -58 33q-10 0 -23.5 -1t-30.5 -3q-123 -14 -127 -75q8 -27 8 -48q0 -22 -10 -61q-1 -1 -1 -5q-2 8 -2.5 14.5t-1.5 10.5q-8 49 -16 79.5t-16 41.5q-4 19 -26 24q-1 3 -4 6q-6 26 -42 26q-38 0 -102 -19q-80 -23 -94 -43
q-10 -13 -10 -28q0 -19 19 -48q24 -38 41 -88l24 -72l-1 1q2 -6 3 -10t2 -6q8 -23 16 -46.5t17 -47.5v1q20 -62 20 -150v-70q0 -12 -1.5 -27t-3.5 -34v1q-4 -21 -5.5 -34.5t-1.5 -19.5q0 -19 7 -51q11 -17 28 -22q2 -6 2 -7q18 -28 61 -28h12q8 0 16 1q30 2 44 3t12 1
q45 0 62 7q39 14 43 48q1 5 1 33q0 14 -1.5 36t-3.5 51t-3.5 51t-1.5 36q0 65 23 116l21 45q61 129 62 133q17 38 27 59t12 26q1 1 1 2v1l7 21q27 81 27 96zM307 956q0 -17 -6.5 -31.5t-17.5 -25.5t-25 -17.5t-29 -6.5q-41 0 -52 4q-16 6 -29.5 23.5t-13.5 34.5q0 42 31 64
q28 21 70 21q31 0 51.5 -18t20.5 -48zM494 956q0 -16 -6.5 -30.5t-17.5 -26t-25.5 -18t-29.5 -6.5q-18 0 -29 0.5t-16 1.5q-20 5 -35 24t-15 36q0 39 32 63q28 22 69 22q32 0 52.5 -18t20.5 -48zM534 926q0 44 -38 65q-24 41 -75 41q-44 0 -75 -24q-14 -10 -24 -25
q-2 2 -5.5 4t-8.5 5q-21 40 -73 40q-46 0 -77 -24q-34 -25 -34 -71q0 -40 41 -63q16 -28 39 -34h-1q12 -5 56 -5q52 0 77 49q4 -3 7.5 -5.5t6.5 -4.5q19 -29 48 -37q5 -1 16.5 -1.5t30.5 -0.5q35 0 62 27q27 28 27 64z" />
    <glyph glyph-name="exclamdown" unicode="&#xa1;" horiz-adv-x="356" 
d="M269 111q0 -49 -13 -76q-30 -33 -126 -39q-22 -2 -32.5 -3t-4.5 -1q-1 0 -7.5 1t-8.5 1q-27 0 -36.5 7.5t-9.5 34.5q0 23 3.5 57t10.5 80l28 196q1 10 3 26.5t5 40.5q7 72 59 89q27 8 43 8q28 0 51 -17t23 -97v-109q0 -48 3 -88zM297 692q0 -24 -15 -55q-33 -69 -129 -69
q-53 0 -84 25q-34 27 -34 79q0 53 38 91q37 37 93 37q52 0 89 -28q42 -32 42 -80zM309 82l-9 111q-3 40 -3 87v109q0 85 -27 105l-15 9q-6 13 -15 21q-4 2 -7 4l-6 4q66 13 94 71q16 33 16 59q0 53 -46 88q-1 0 -1.5 0.5t-1.5 0.5q-5 8 -12 15t-15 14q-39 30 -95 30
q-60 0 -100 -40q-41 -41 -41 -98q0 -58 38 -87q2 -3 8 -7q10 -15 22 -23q16 -15 41 -21q-56 -20 -63 -97q-1 -6 -1.5 -11t-1.5 -10q-2 -16 -3 -27t-2 -19l-28 -196q-7 -46 -10.5 -80.5t-3.5 -57.5q0 -26 6.5 -37t24.5 -13q3 -20 15 -26t40 -6h3q3 0 6 -1h4l1 7v-8h5q2 0 7 1
q9 1 28 3q100 6 133 43q8 17 11.5 37.5t3.5 44.5v1z" />
    <glyph glyph-name="cent" unicode="&#xa2;" 
d="M394 523q0 -44 -33 -75q-32 -31 -77 -31q-21 0 -41 11q-24 12 -24 31q0 4 3.5 15.5t3.5 14.5q0 6 -8 12q-2 1 -7 1q-17 0 -27 -24q-10 -19 -10 -38q0 -38 25 -64t63 -26q50 0 106 45q24 -2 24 -32q0 -140 -90 -171q-17 -6 -25 -11q-12 -7 -15 -23q1 -22 -6 -61
q-3 -6 -30 -14q-27 -6 -37 -6q-29 0 -29 37q0 4 1 16t1 15q0 33 -26 44q-65 26 -89 70q-21 37 -21 113q0 117 69 194q37 27 43 33q22 22 22 47q0 71 74 71q29 0 29 -32q0 -41 15 -41q71 0 100 -59q16 -32 16 -62zM434 493q0 15 -4 32t-13 34q-15 30 -40 46q-26 39 -74 47v3
q0 36 -31 41q-4 31 -38 31q-84 0 -84 -81q0 -21 -19 -40q-5 -5 -42 -32q-36 -41 -54.5 -90.5t-18.5 -111.5q0 -80 22 -118q14 -26 38 -44q13 -17 31 -31t44 -25q1 -3 1 -9q0 -2 -0.5 -5.5t-0.5 -7.5q-1 -5 -1 -11v-7q0 -43 31 -47q6 -30 38 -30q12 0 39 6q16 5 25 10t13 13
q6 33 6 54v7q1 11 10 16v-1q12 7 23 11q97 34 97 180q0 37 -31 41q-3 19 -16 26q8 6 13 11q36 34 36 82zM262 360q-22 0 -38 9q-10 17 -10 41q0 13 4 24q7 -9 21 -15h-1l2 -2q7 -18 29 -28h-1q21 -12 46 -12q2 0 4.5 -0.5t5.5 0.5q-31 -17 -62 -17z" />
    <glyph glyph-name="sterling" unicode="&#xa3;" horiz-adv-x="601" 
d="M406 369q-2 -32 -57 -32h-16q-7 0 -14 1l-25 2q4 -35 6 -55.5t2 -27.5q0 -35 -10 -74q40 -14 50 -14q25 0 32 34q8 35 31 35q1 0 9 -0.5t23 -1.5q8 -1 16 -1h18q3 0 16.5 1t17.5 1q37 0 37 -36q0 -201 -166 -201q-25 0 -74 17q-47 18 -69 18q-13 0 -30 -17t-30 -17
q-2 0 -7.5 0.5t-12 1.5t-12.5 1.5t-9 0.5q-6 0 -17 -0.5t-22.5 -1.5t-22.5 -1.5t-17 -0.5q-23 0 -23 19q0 49 81 130q13 38 13 79q0 56 -14 109h-10t-10 -1h-19q-32 0 -32 33q0 64 1 66q7 25 46 25q-8 35 -12.5 66.5t-4.5 60.5q0 104 65 161q61 54 167 54q208 0 208 -217
q0 -30 -5 -45q-8 -21 -36 -21h-21t-30 1t-29.5 1.5t-20.5 0.5q-31 0 -31 30q0 11 1 16v16q0 60 -37 60q-44 0 -44 -83q0 -40 15 -104l41 -1q4 0 12 0.5t21 1.5t20.5 1.5t10.5 0.5q16 0 27 -15q4 -20 4 -35zM446 339l1 42q0 19 -4 39q-11 15 -28 20q-2 6 -2 10q-15 21 -37 21
q-2 0 -4 -0.5t-7 -0.5q-4 0 -9 -0.5t-11 -0.5q-5 0 -9.5 -0.5t-8.5 -0.5q-5 0 -9 -0.5t-6 -0.5h-9q-3 20 -5 36t-2 29q0 67 29 73q1 -5 1.5 -10t0.5 -10v-14q-1 -5 -1 -18q0 -36 30 -40q4 -30 41 -30h14t19 -1q4 0 8 -0.5t9 -0.5q17 -1 30 -1h21q35 0 45 28q6 16 6 48
q0 132 -73 187q-55 70 -175 70q-108 0 -174 -57q-68 -60 -68 -168q0 -27 3.5 -56.5t10.5 -61.5q-36 -3 -43 -31q-1 -5 -1 -69q0 -37 31 -43q4 -30 41 -30h7q6 -33 6 -68q0 -37 -11 -73q-83 -83 -83 -136q0 -28 30 -29v-1q0 -29 33 -29q6 0 17 0.5t23 1.5q11 1 21.5 1.5
t17.5 0.5q2 0 8.5 -0.5t13.5 -1.5q6 -1 11.5 -1.5t7.5 -0.5q17 0 37 20q14 14 23 14q20 0 65 -17q51 -18 78 -18q176 0 176 211q0 38 -32 44q-6 32 -45 32h-8t-12 -1q-5 0 -8.5 -0.5t-5.5 -0.5h-17t-16 1q-11 1 -18.5 1.5t-11.5 0.5h-3q-32 0 -41 -43q-6 -26 -22 -26h-4
q2 12 3 24t1 24q0 14 -6 71v1l12 -1q7 -1 14 -1h17q65 0 67 42z" />
    <glyph glyph-name="brokenbar" unicode="&#xa6;" horiz-adv-x="222" 
d="M33 675h126v-350h-126v350zM33 175h126v-348h-126v348zM23 315h30v-30h146v370h-30v30h-146v-370zM23 -183h30v-30h146v368h-30v30h-146v-368z" />
    <glyph glyph-name="section" unicode="&#xa7;" horiz-adv-x="580" 
d="M213 359q0 -24 40 -55q41 -32 62 -32q15 0 25 11.5t10 26.5q0 17 -39 52q-40 35 -57 35q-16 0 -28.5 -11.5t-12.5 -26.5zM475 648q0 -32 -30 -32q-10 0 -34 8q-13 5 -21 7.5t-13 3.5q-46 8 -74 12t-38 4q-31 0 -31 -26q0 -21 110 -96q121 -82 143 -109q33 -41 33 -116
q0 -42 -20.5 -80t-56.5 -55q50 -50 58 -65q15 -29 15 -92q0 -186 -261 -186q-28 0 -98 17q-69 17 -98 30q-17 8 -17 28q0 4 0.5 13t1.5 23t1.5 22t0.5 12q0 3 -1 9t-1.5 13.5t-1.5 13.5t-1 9q0 35 29 35q30 0 93 -25q64 -24 100 -24q53 0 53 34q0 3 -3 17q-4 22 -115 100
q-122 86 -139 107q-29 37 -29 90q0 77 72 148q-26 11 -39 44q-12 28 -12 60q0 128 111 181q51 25 117 25q29 0 85 -9q57 -9 86 -9q30 0 30 -28q0 2 -1.5 -5.5t-3.5 -24.5v-84zM515 618v84l2.5 17.5t2.5 11.5l-10 1h10q0 34 -31 37q-3 31 -39 31q-27 0 -84 9q-56 9 -87 9
q-68 0 -121 -26q-117 -56 -117 -190q0 -34 13 -64q12 -30 31 -43q-65 -70 -65 -145q0 -57 31 -96q6 -9 24 -24l6 -6q18 -22 141 -109q26 -19 45.5 -33.5t33.5 -25.5q1 -2 1 -3t1 -2q3 -14 3 -15q0 -24 -43 -24q-34 0 -97 23h1q-65 26 -97 26q-39 0 -39 -45q0 -4 0.5 -10.5
t1.5 -13.5q1 -6 1.5 -13t1.5 -8q0 -2 -0.5 -5.5t-0.5 -8.5q0 -4 -0.5 -9t-0.5 -11t-0.5 -11t-0.5 -10t-0.5 -9t-0.5 -6q0 -28 23 -37q2 -1 8 -3q3 -19 22 -27q17 -8 42 -15.5t58 -15.5q70 -17 100 -17q271 0 271 196q0 68 -16 97q-9 15 -51 57q34 21 52.5 59t18.5 79
q0 79 -35 122q-7 8 -25 23q-3 3 -5 7q-23 28 -145 111q-51 35 -76 55v3q0 16 21 16q9 0 36.5 -4t73.5 -12q5 -1 13 -3t19 -7q25 -9 38 -9q40 0 40 42zM253 329q0 11 9.5 19.5t21.5 8.5q8 0 19.5 -8t28.5 -23q8 -10 8 -16q0 -11 -7 -19.5t-18 -8.5q-16 0 -56 29q-6 10 -6 18z
" />
    <glyph glyph-name="dieresis" unicode="&#xa8;" 
d="M204 735q0 -17 -6.5 -31.5t-17.5 -25.5t-25 -17.5t-29 -6.5q-41 0 -52 4q-16 5 -29.5 23t-13.5 35q0 40 31 64q28 21 70 21q31 0 51.5 -17.5t20.5 -48.5zM391 735q0 -16 -6.5 -30.5t-17.5 -26t-25.5 -18t-29.5 -6.5q-18 0 -29 0.5t-16 1.5q-11 3 -20 9.5t-15.5 15
t-10.5 18t-4 17.5q0 40 32 63q28 22 69 22q31 0 52 -17.5t21 -48.5zM431 705q0 23 -10.5 39.5t-27.5 25.5q-10 20 -30 30.5t-45 10.5q-45 0 -75 -24q-14 -10 -24 -25q-3 2 -6.5 4.5t-7.5 4.5q-10 19 -29 29.5t-44 10.5q-46 0 -76 -23q-35 -26 -35 -72q0 -17 12.5 -35.5
t28.5 -27.5q8 -12 18 -21.5t21 -12.5h-1q7 -3 21 -4t35 -1q23 0 44.5 13.5t32.5 35.5q8 -6 14 -10q8 -13 20.5 -23t27.5 -14q5 -1 16.5 -1.5t30.5 -0.5q17 0 33 7.5t28.5 20t20 29t7.5 34.5z" />
    <glyph glyph-name="copyright" unicode="&#xa9;" horiz-adv-x="810" 
d="M131 440q0 -108 75 -184q76 -75 184 -75t183 75q76 76 76 184t-76 183q-75 76 -183 76t-184 -76q-75 -75 -75 -183zM29 440q0 150 105 255q106 106 256 106t255 -106q106 -105 106 -255t-106 -256q-105 -105 -255 -105t-256 105q-105 106 -105 256zM563 383
q-2 -72 -46 -111.5t-122 -39.5q-91 0 -143 58q-51 58 -51 150q0 91 52 149t142 58q78 0 122 -39.5t46 -111.5h-96q-17 57 -72 57q-37 0 -58.5 -31t-21.5 -82q0 -52 21.5 -83t58.5 -31q55 0 72 57h96zM19 440q0 -154 108 -263l14 -14q4 -4 7.5 -8t8.5 -8q111 -108 263 -108
q154 0 262 108q109 109 109 263t-109 262l-15 15l-15 15q-108 109 -262 109t-263 -109q-108 -108 -108 -262zM459 393q-17 -57 -64 -57q-13 0 -25 5q-15 27 -15 69q0 47 19 75t51 28q13 0 25 -5q3 -5 5 -10.5t4 -11.5h17q6 -10 13 -30h114q-3 93 -63 138q-23 30 -59.5 46.5
t-85.5 16.5h-11q9 1 18 1.5t18 0.5q92 0 160 -59q59 -68 59 -160q0 -88 -51 -152q13 31 15 75h-33q2 7 2 14q0 8 1 16h-114zM171 410q0 86 49 150q-29 -49 -29 -120q0 -96 53 -157q11 -13 22 -21q2 -2 4 -4.5t4 -4.5q52 -58 141 -61q-6 -1 -13 -1h-12q-94 0 -162 58
q-57 67 -57 161z" />
    <glyph glyph-name="guillemotleft" unicode="&#xab;" horiz-adv-x="405" 
d="M196 466l-62 -206l62 -206h-99l-68 206l68 206h99zM339 466l-62 -206l62 -206h-100l-67 206l67 206h100zM90 476l-71 -216l71 -216h20l10 -30h120l-9 30h20l10 -30h122l-65 216l65 216h-39l9 30h-122l-10 -30h-20l9 30h-120z" />
    <glyph glyph-name="logicalnot" unicode="&#xac;" horiz-adv-x="591" 
d="M22 431h506v-323h-126v197h-380v126zM12 295h30v-30h350v-167h30v-30h146v343h-30v30h-526v-146z" />
    <glyph glyph-name="registered" unicode="&#xae;" horiz-adv-x="810" 
d="M343 485h58q61 0 61 38q0 39 -61 39h-58v-77zM249 638h158q71 0 106 -21q43 -25 43 -94q0 -90 -90 -108l76 -170h-96l-68 164h-35v-164h-94v393zM131 440q0 -108 75 -184q76 -75 184 -75t183 75q76 76 76 184t-76 183q-75 76 -183 76t-184 -76q-75 -75 -75 -183zM29 440
q0 150 105 255q106 106 256 106t255 -106q106 -105 106 -255t-106 -256q-105 -105 -255 -105t-256 105q-105 106 -105 256zM19 440q0 -154 108 -263l14 -14q4 -4 7.5 -8t8.5 -8q111 -108 263 -108q154 0 262 108q109 109 109 263t-109 262l-15 15l-15 15q-108 109 -262 109
t-263 -109q-108 -108 -108 -262zM639 440q0 -104 -73 -177l-4 -4l-52 118q86 24 86 116q0 73 -47 102q-12 19 -31 31q-35 22 -111 22h-64q38 11 77 11q92 0 160 -59q59 -68 59 -160zM171 410q0 103 68 172v-342q-3 2 -5.5 4.5t-5.5 4.5q-57 67 -57 161zM390 191
q-48 0 -86 14h79v164l56 -134h17l13 -30h6q-20 -8 -41 -11t-44 -3zM401 495h-18v27h48q6 0 11 -0.5t10 -1.5q-3 -25 -51 -25zM246 235h23v-14q-11 6 -23 14z" />
    <glyph glyph-name="plusminus" unicode="&#xb1;" horiz-adv-x="485" 
d="M26 798h145l258 -816h-145zM276 -28h20l10 -30h167l-264 836h-21l-9 30h-167z" />
    <glyph glyph-name="acute" unicode="&#xb4;" horiz-adv-x="279" 
d="M222 816q0 -18 -95 -101l-1 1h-29q-10 -1 -17 -1h-11q-40 0 -40 14q0 15 21 59t33 44h25t35 -1t35 -1h26q7 0 16 -6q1 -5 1.5 -7t0.5 -1zM229 830q-13 10 -25 10h-26q-15 0 -35 1t-35 1h-25q-18 0 -42 -48q-22 -43 -22 -65q0 -19 30 -23v-7q0 -24 50 -24q57 0 66 4
q97 85 97 107l-1 2l-2 12q-13 10 -29 10l2 6l-1 2z" />
    <glyph glyph-name="paragraph" unicode="&#xb6;" horiz-adv-x="575" 
d="M390 711h-74v-832h-122v572q-81 0 -124.5 47t-43.5 128t48.5 128t129.5 47h308v-922h-122v832zM380 -131h30v-30h142v942h-30v30h-318q-86 0 -137 -49.5t-51 -135.5q0 -102 65 -152q36 -50 103 -60v-545h30v-30h142v832h24v-802z" />
    <glyph glyph-name="periodcentered" unicode="&#xb7;" horiz-adv-x="223" 
d="M164 436q0 -13 -17 -64q-3 -8 -5.5 -14.5t-4.5 -11.5q-7 -16 -18 -19q-2 -1 -21 -1q-3 0 -15.5 1t-16.5 1q-9 0 -12 -1q-24 9 -24 19q0 62 30 100q5 5 12 5q6 0 8 -1h8q7 0 9 1q31 -2 60 -6q7 -1 7 -9zM204 406q0 16 -15 19q-10 2 -16 2q0 3 0.5 5t0.5 4q0 16 -15 19
q-27 5 -64 6q-2 -1 -7 -1h-6q-4 1 -10 1q-11 0 -20 -9q-32 -40 -32 -106q0 -18 30 -28v-2q0 -17 33 -29q3 1 13 1h7t10 -1q5 0 9 -0.5t6 -0.5q21 0 25 2l-1 -1q16 5 24 25q2 4 4 8.5t4 10.5q1 2 0.5 2.5t0.5 2.5q9 28 14 45.5t5 24.5z" />
    <glyph glyph-name="periodcentered" unicode="&#x2219;" horiz-adv-x="223" 
d="M164 436q0 -13 -17 -64q-3 -8 -5.5 -14.5t-4.5 -11.5q-7 -16 -18 -19q-2 -1 -21 -1q-3 0 -15.5 1t-16.5 1q-9 0 -12 -1q-24 9 -24 19q0 62 30 100q5 5 12 5q6 0 8 -1h8q7 0 9 1q31 -2 60 -6q7 -1 7 -9zM204 406q0 16 -15 19q-10 2 -16 2q0 3 0.5 5t0.5 4q0 16 -15 19
q-27 5 -64 6q-2 -1 -7 -1h-6q-4 1 -10 1q-11 0 -20 -9q-32 -40 -32 -106q0 -18 30 -28v-2q0 -17 33 -29q3 1 13 1h7t10 -1q5 0 9 -0.5t6 -0.5q21 0 25 2l-1 -1q16 5 24 25q2 4 4 8.5t4 10.5q1 2 0.5 2.5t0.5 2.5q9 28 14 45.5t5 24.5z" />
    <glyph glyph-name="cedilla" unicode="&#xb8;" horiz-adv-x="239" 
d="M181 -75q0 -7 -5 -29q-20 -57 -72 -61q-10 -1 -18 -1.5t-15 0.5q-19 1 -32 1q-12 0 -12 12q0 1 1.5 9t1.5 13q0 9 8 28q7 1 17.5 1.5t24.5 2.5q12 4 12 15q-2 12 -12 15q-6 0 -16 7q-4 4 -4 12q0 4 20 58l4 10l4 10l56 -1q-13 -33 -13 -40q0 -6 15 -13l23 -13
q13 -11 12 -36zM221 -105v5q0 27 -16 39l1 -1l-3.5 2t-7.5 4l-6 3q-5 16 -14 22l1 -1l-0.5 0.5t-1.5 0.5q2 7 5.5 16t8.5 22h-41l4.5 13.5t6.5 16.5l-76 1q-1 -2 -2.5 -5.5t-2.5 -5.5l-6 -16q-21 -56 -21 -61q0 -12 8 -20q12 -8 19 -9q1 0 3 -2v-6l-2 -2q-17 -2 -27 -3
q-5 -1 -10 -1h-10q-11 -25 -11 -38q0 -7 -2 -17l-1 -1q0 -17 8.5 -21.5t22.5 -5.5v-2l-1 -1q0 -20 11 -23.5t29 -3.5h22h11t12 1h3q57 4 82 74q2 8 3 14t1 12z" />
    <glyph glyph-name="guillemotright" unicode="&#xbb;" horiz-adv-x="405" 
d="M98 260l-62 206h99l68 -206l-68 -206h-99zM241 260l-62 206h99l68 -206l-68 -206h-99zM22 44h39l-9 -30h120l10 30h22l-9 -30h120l71 216l-71 216h-20l-10 30h-120l31 -105l-24 75h-20l-10 30h-120l65 -216z" />
    <glyph glyph-name="questiondown" unicode="&#xbf;" horiz-adv-x="589" 
d="M532 206q0 -98 -81 -147q-95 -58 -203 -58q-65 0 -119 21q-67 26 -89 74q-13 26 -13 64q0 85 89 183q5 5 13.5 14t21.5 22q35 41 35 84q0 26 -16 42q-1 2 -1 7q0 55 117 55q38 0 60 -5q29 -8 38 -35q3 -9 3 -26q0 -26 -31 -79q-2 -2 -4.5 -8.5t-7.5 -16.5
q-25 -34 -40 -56.5t-22 -33.5q-35 -59 -35 -99q0 -73 48 -73q13 0 25 7.5t12 17.5q0 18 -24 24q-24 7 -24 18q0 66 34 104.5t98 38.5q70 0 99 -59q17 -36 17 -80zM430 706q0 -34 -24 -68q-33 -48 -102 -48q-56 0 -98 20q-51 25 -51 78q0 112 140 112q105 0 128 -56
q7 -17 7 -38zM572 176q0 48 -18 84q-15 30 -40 46q-32 49 -98 49q-20 0 -42 -5q2 3 8 11q1 2 2 4.5t2 4.5q5 13 9 17q32 54 32 84q0 18 -4 29q-9 27 -33 37q-5 10 -12 18q43 13 66 47q26 36 26 74q0 11 -1.5 21.5t-6.5 20.5q-10 24 -35 40q-31 52 -132 52q-150 0 -150 -122
q0 -52 43 -80q14 -22 40 -35q-69 -12 -69 -61q0 -3 0.5 -5.5t2.5 -7.5q14 -14 14 -36q0 -39 -33 -78l-14 -14l-11 -11h1l-10 -10q-92 -101 -92 -190q0 -41 14 -68q13 -31 42 -52q26 -36 82 -57q56 -22 123 -22q112 0 208 59q86 53 86 156zM304 174v-2q0 -11 13 -20
q-11 -7 -22 -7h-5q-3 13 -3 33v4q3 -2 7.5 -4t9.5 -4z" />
    <glyph glyph-name="Agrave" unicode="&#xc0;" horiz-adv-x="602" 
d="M311 424q0 10 -1 23.5t-3 32.5t-3 33t-1 24q0 16 1 19l-10 6q-34 -109 -34 -156q0 -28 22 -28q13 0 26 10q3 16 3 36zM545 48q0 -23 -28 -33q-41 -15 -91 -15q-53 0 -84 21q-8 43 -12.5 75t-6.5 53q-13 10 -35 10q-8 0 -45 -6q-7 -15 -16 -70l-9 -54q-3 -3 -15 -9l-18 -9
q-46 -11 -84 -11q-43 0 -58 9t-15 33l7 55q2 20 11 63.5t24 112.5l37 167q23 106 23 164q0 13 -11 46q-10 30 -10 49q0 24 15 38q1 1 19 11q71 39 175 46l63 5q57 4 75 -34q4 -70 12.5 -150.5t21.5 -174.5l46 -323q9 -63 9 -69zM585 18q0 7 -9 70l-46 323q-13 94 -21.5 175
t-12.5 151q-10 20 -31 31q-23 46 -85 41l-63 -5q-109 -9 -179 -47q-8 -5 -13.5 -8t-7.5 -5q-18 -17 -18 -45q0 -20 10 -50q11 -33 11 -45q0 -56 -23 -162l-37 -167q-15 -68 -24 -112t-11 -65q-4 -28 -5.5 -41.5t-1.5 -14.5q0 -39 31 -46q8 -35 82 -35q40 0 86 11l20 10
q7 4 12 7t9 7l9 55q3 19 6 34.5t7 28.5q19 2 28 3.5t10 1.5q1 -13 3 -35q1 -33 12 -69q7 -5 13.5 -8.5t12.5 -5.5q1 -5 2 -9t2 -6q37 -25 93 -25q45 0 78 10q51 15 51 47zM297 879q-5 -4 -88 -4h-2q-1 0 -5 1q-95 86 -95 101q0 13 44 13h15l23 -1l5 -1h2h-1q9 0 26 2t26 2
q18 0 54 -103zM341 858q-23 64 -23 65q-19 46 -39 49q-17 30 -32 30q-8 0 -24.5 -2t-24.5 -2q-5 0 -16 1t-16 1h-14q-55 0 -55 -23q0 -25 131 -141q5 -1 7 -1h3q87 0 97 7z" />
    <glyph glyph-name="Aacute" unicode="&#xc1;" horiz-adv-x="602" 
d="M309 424q0 10 -1 23.5t-3 32.5t-3 33t-1 24q0 16 1 19l-10 6q-34 -109 -34 -156q0 -28 22 -28q13 0 26 10q3 16 3 36zM543 48q0 -23 -28 -33q-41 -15 -91 -15q-53 0 -84 21q-8 43 -12.5 75t-6.5 53q-13 10 -35 10q-8 0 -45 -6q-7 -15 -16 -70l-9 -54q-3 -3 -15 -9l-18 -9
q-46 -11 -84 -11q-43 0 -58 9t-15 33l7 55q2 20 11 63.5t24 112.5l37 167q23 106 23 164q0 13 -11 46q-10 30 -10 49q0 24 15 38q1 1 19 11q71 39 175 46l63 5q57 4 75 -34q4 -70 12.5 -150.5t21.5 -174.5l46 -323q9 -63 9 -69zM583 18q0 7 -9 70l-46 323q-13 94 -21.5 175
t-12.5 151q-10 20 -31 31q-23 46 -85 41l-63 -5q-109 -9 -179 -47q-8 -5 -13.5 -8t-7.5 -5q-18 -17 -18 -45q0 -20 10 -50q11 -33 11 -45q0 -56 -23 -162l-37 -167q-15 -68 -24 -112t-11 -65q-4 -28 -5.5 -41.5t-1.5 -14.5q0 -39 31 -46q8 -35 82 -35q40 0 86 11l20 10
q7 4 12 7t9 7l9 55q3 19 6 34.5t7 28.5q19 2 28 3.5t10 1.5q1 -13 3 -35q1 -33 12 -69q7 -5 13.5 -8.5t12.5 -5.5q1 -5 2 -9t2 -6q37 -25 93 -25q45 0 78 10q51 15 51 47zM473 976q0 -18 -95 -101l-1 1h-29q-10 -1 -17 -1h-11q-40 0 -40 14q0 15 21 59t33 44h25t35 -1t35 -1
h26q7 0 16 -6q1 -5 1.5 -7t0.5 -1zM480 990q-13 10 -25 10h-26q-15 0 -35 1t-35 1h-25q-18 0 -42 -48q-22 -43 -22 -65q0 -19 30 -23v-7q0 -24 50 -24q57 0 66 4q97 85 97 107l-1 2l-2 12q-13 10 -29 10l2 6l-1 2z" />
    <glyph glyph-name="Acircumflex" unicode="&#xc2;" horiz-adv-x="603" 
d="M311 424q0 10 -1 23.5t-3 32.5t-3 33t-1 24q0 16 1 19l-10 6q-34 -109 -34 -156q0 -28 22 -28q13 0 26 10q3 16 3 36zM545 48q0 -23 -28 -33q-41 -15 -91 -15q-53 0 -84 21q-8 43 -12.5 75t-6.5 53q-13 10 -35 10q-8 0 -45 -6q-7 -15 -16 -70l-9 -54q-3 -3 -15 -9l-18 -9
q-46 -11 -84 -11q-43 0 -58 9t-15 33l7 55q2 20 11 63.5t24 112.5l37 167q23 106 23 164q0 13 -11 46q-10 30 -10 49q0 24 15 38q1 1 19 11q71 39 175 46l63 5q57 4 75 -34q4 -70 12.5 -150.5t21.5 -174.5l46 -323q9 -63 9 -69zM585 18q0 7 -9 70l-46 323q-13 94 -21.5 175
t-12.5 151q-10 20 -31 31q-23 46 -85 41l-63 -5q-109 -9 -179 -47q-8 -5 -13.5 -8t-7.5 -5q-18 -17 -18 -45q0 -20 10 -50q11 -33 11 -45q0 -56 -23 -162l-37 -167q-15 -68 -24 -112t-11 -65q-4 -28 -5.5 -41.5t-1.5 -14.5q0 -39 31 -46q8 -35 82 -35q40 0 86 11l20 10
q7 4 12 7t9 7l9 55q3 19 6 34.5t7 28.5q19 2 28 3.5t10 1.5q1 -13 3 -35q1 -33 12 -69q7 -5 13.5 -8.5t12.5 -5.5q1 -5 2 -9t2 -6q37 -25 93 -25q45 0 78 10q51 15 51 47zM435 887q0 -12 -58 -12h-32q-18 0 -37 16q-1 1 -8.5 8t-21.5 21q-8 -11 -16 -19.5t-16 -16.5
q-6 -6 -109 -6q-11 0 -11 13q0 7 75 85q15 16 34 16h90q23 0 61 -42q12 -16 24 -31.5t25 -31.5zM473 863l-42 52.5t-29 36.5q-11 17 -37 33q-26 17 -40 17h-91q-22 0 -40 -19q-78 -81 -78 -92q0 -23 32 -23q-2 -6 -2 -10q0 -20 21 -20q107 0 115 8q9 10 15.5 17t11.5 12
q26 -29 40 -35q15 -5 54 -5h43q29 5 29 22q-1 2 -1 3t-1 3z" />
    <glyph glyph-name="Atilde" unicode="&#xc3;" horiz-adv-x="603" 
d="M311 424q0 10 -1 23.5t-3 32.5t-3 33t-1 24q0 16 1 19l-10 6q-34 -109 -34 -156q0 -28 22 -28q13 0 26 10q3 16 3 36zM545 48q0 -23 -28 -33q-41 -15 -91 -15q-53 0 -84 21q-8 43 -12.5 75t-6.5 53q-13 10 -35 10q-8 0 -45 -6q-7 -15 -16 -70l-9 -54q-3 -3 -15 -9l-18 -9
q-46 -11 -84 -11q-43 0 -58 9t-15 33l7 55q2 20 11 63.5t24 112.5l37 167q23 106 23 164q0 13 -11 46q-10 30 -10 49q0 24 15 38q1 1 19 11q71 39 175 46l63 5q57 4 75 -34q4 -70 12.5 -150.5t21.5 -174.5l46 -323q9 -63 9 -69zM585 18q0 7 -9 70l-46 323q-13 94 -21.5 175
t-12.5 151q-10 20 -31 31q-23 46 -85 41l-63 -5q-109 -9 -179 -47q-8 -5 -13.5 -8t-7.5 -5q-18 -17 -18 -45q0 -20 10 -50q11 -33 11 -45q0 -56 -23 -162l-37 -167q-15 -68 -24 -112t-11 -65q-4 -28 -5.5 -41.5t-1.5 -14.5q0 -39 31 -46q8 -35 82 -35q40 0 86 11l20 10
q7 4 12 7t9 7l9 55q3 19 6 34.5t7 28.5q19 2 28 3.5t10 1.5q1 -13 3 -35q1 -33 12 -69q7 -5 13.5 -8.5t12.5 -5.5q1 -5 2 -9t2 -6q37 -25 93 -25q45 0 78 10q51 15 51 47zM431 954q0 -79 -56 -79q-22 0 -71 17t-67 17q-2 0 -11 -14t-24 -14h-15q-5 -1 -14 -1q-38 0 -38 34
q0 45 10 61q14 23 55 23q21 0 62 -15q44 -14 64 -14q3 0 6.5 3.5l8 8t9.5 8t10 3.5q3 0 13.5 -1t12.5 -1q11 0 18 -0.5t11 -1.5q16 -4 16 -21v-13zM471 937q0 25 -23 31v-1q-2 0 -3 1h-4q-1 24 -23 30v-1q-15 3 -32 3q-6 0 -10 0.5t-10 1.5h-6q-15 0 -29 -17q-2 -2 -3 -3.5
t-2 -2.5q-15 0 -60 14v-1q-39 16 -66 16q-46 0 -64 -28q-11 -17 -11 -66q0 -36 31 -43q6 -31 47 -31q10 0 15 1h14q23 0 33 19l3 9q21 -2 69 -18q44 -16 68 -16q66 0 66 89v13z" />
    <glyph glyph-name="Adieresis" unicode="&#xc4;" horiz-adv-x="606" 
d="M313 424q0 10 -1 23.5t-3 32.5t-3 33t-1 24q0 16 1 19l-10 6q-34 -109 -34 -156q0 -28 22 -28q13 0 26 10q3 16 3 36zM547 48q0 -23 -28 -33q-41 -15 -91 -15q-53 0 -84 21q-8 43 -12.5 75t-6.5 53q-13 10 -35 10q-8 0 -45 -6q-7 -15 -16 -70l-9 -54q-3 -3 -15 -9l-18 -9
q-46 -11 -84 -11q-43 0 -58 9t-15 33l7 55q2 20 11 63.5t24 112.5l37 167q23 106 23 164q0 13 -11 46q-10 30 -10 49q0 24 15 38q1 1 19 11q71 39 175 46l63 5q57 4 75 -34q4 -70 12.5 -150.5t21.5 -174.5l46 -323q9 -63 9 -69zM587 18q0 7 -9 70l-46 323q-13 94 -21.5 175
t-12.5 151q-10 20 -31 31q-23 46 -85 41l-63 -5q-109 -9 -179 -47q-8 -5 -13.5 -8t-7.5 -5q-18 -17 -18 -45q0 -20 10 -50q11 -33 11 -45q0 -56 -23 -162l-37 -167q-15 -68 -24 -112t-11 -65q-4 -28 -5.5 -41.5t-1.5 -14.5q0 -39 31 -46q8 -35 82 -35q40 0 86 11l20 10
q7 4 12 7t9 7l9 55q3 19 6 34.5t7 28.5q19 2 28 3.5t10 1.5q1 -13 3 -35q1 -33 12 -69q7 -5 13.5 -8.5t12.5 -5.5q1 -5 2 -9t2 -6q37 -25 93 -25q45 0 78 10q51 15 51 47zM267 956q0 -17 -6.5 -31.5t-17.5 -25.5t-25 -17.5t-29 -6.5q-41 0 -52 4q-16 6 -29.5 23.5
t-13.5 34.5q0 42 31 64q28 21 70 21q31 0 51.5 -18t20.5 -48zM454 956q0 -16 -6.5 -30.5t-17.5 -26t-25.5 -18t-29.5 -6.5q-18 0 -29 0.5t-16 1.5q-20 5 -35 24t-15 36q0 39 32 63q28 22 69 22q32 0 52.5 -18t20.5 -48zM494 926q0 44 -38 65q-24 41 -75 41q-44 0 -75 -24
q-14 -10 -24 -25q-2 2 -5.5 4t-8.5 5q-21 40 -73 40q-46 0 -77 -24q-34 -25 -34 -71q0 -40 41 -63q16 -28 39 -34h-1q12 -5 56 -5q52 0 77 49q4 -3 7.5 -5.5t6.5 -4.5q19 -29 48 -37q5 -1 16.5 -1.5t30.5 -0.5q35 0 62 27q27 28 27 64z" />
    <glyph glyph-name="Aring" unicode="&#xc5;" horiz-adv-x="602" 
d="M310 424q0 10 -1 23.5t-3 32.5t-3 33t-1 24q0 16 1 19l-10 6q-34 -109 -34 -156q0 -28 22 -28q13 0 26 10q3 16 3 36zM328 958q0 14 -10 23t-23 7q-12 -1 -21.5 -11.5t-9.5 -22.5q0 -29 31 -29q33 0 33 33zM544 48q0 -23 -28 -33q-41 -15 -91 -15q-53 0 -84 21
q-8 43 -12.5 75t-6.5 53q-13 10 -35 10q-8 0 -45 -6q-7 -15 -16 -70l-9 -54q-3 -3 -15 -9l-18 -9q-46 -11 -84 -11q-43 0 -58 9t-15 33l7 55q2 20 11 63.5t24 112.5l37 167q23 106 23 164q0 13 -11 46q-10 30 -10 49q0 24 15 38q1 1 19 11q71 39 175 46l63 5q57 4 75 -34
q4 -70 12.5 -150.5t21.5 -174.5l46 -323q9 -63 9 -69zM398 949q0 -28 -13 -44l-22 -22q-34 -22 -70 -22q-28 0 -58 15q-40 27 -40 85q0 32 27 58q28 26 61 29q29 2 52 -5q63 -18 63 -94zM584 18q0 7 -9 70l-46 323q-13 94 -21.5 175t-12.5 151q-10 20 -31 31q-23 46 -85 41
l-63 -5q-109 -9 -179 -47q-8 -5 -13.5 -8t-7.5 -5q-18 -17 -18 -45q0 -20 10 -50q11 -33 11 -45q0 -56 -23 -162l-37 -167q-15 -68 -24 -112t-11 -65q-4 -28 -5.5 -41.5t-1.5 -14.5q0 -39 31 -46q8 -35 82 -35q40 0 86 11l20 10q7 4 12 7t9 7l9 55q3 19 6 34.5t7 28.5
q19 2 28 3.5t10 1.5q1 -13 3 -35q1 -33 12 -69q7 -5 13.5 -8.5t12.5 -5.5q1 -5 2 -9t2 -6q37 -25 93 -25q45 0 78 10q51 15 51 47zM438 919q0 67 -44 93q-28 46 -99 46h-13q-19 -2 -36.5 -10.5t-31 -22t-21.5 -30t-8 -34.5q0 -64 44 -93q0 -1 1 -1q12 -18 29 -29
q37 -17 64 -17q38 0 78 26l22 22q15 18 15 50zM309 938l5 5z" />
    <glyph glyph-name="AE" unicode="&#xc6;" horiz-adv-x="791" 
d="M313 424q0 10 -1 23.5t-3 32.5t-3 33t-1 24q0 16 1 19l-10 6q-34 -109 -34 -156q0 -28 22 -28q13 0 26 10q3 16 3 36zM729 643q0 -76 -48 -76q-20 0 -60 21q-40 22 -63 22q-43 0 -45 1q-36 -9 -36 -48q0 -17 6 -45q7 -6 16 -6q15 0 57 17q40 18 58 18q28 0 37 -18
q6 -12 6 -43q0 -8 -0.5 -20t-1.5 -29q-1 -16 -1.5 -28t-0.5 -20v-15q-2 -16 -12 -32q-12 -20 -26 -20q-31 0 -72 22l-44 23q-21 0 -21 -60q0 -31 9 -44q11 -17 40 -17t95 26q64 27 71 27q12 0 23.5 -21t11.5 -51q0 -12 -1.5 -35t-1.5 -35q0 -101 -27 -141q-26 -12 -54 -12
h-9q-3 1 -9 1q-60 -2 -89.5 -3.5t-28.5 -1.5l-46 2q-15 -1 -23.5 -1.5t-10.5 -0.5q-53 0 -84 21q-3 9 -4.5 15.5t-2.5 10.5q-5 22 -5 39v4q0 34 -7 59q-13 10 -35 10q-8 0 -45 -6q-7 -15 -16 -70l-9 -54q-3 -3 -15 -9l-18 -9q-46 -11 -84 -11q-43 0 -58 9t-15 33l7 55
q2 20 11 63.5t24 112.5l37 167q23 106 23 164q0 13 -11 46q-10 30 -10 49q0 24 15 38q1 1 19 11q71 39 175 46l63 5q2 0 9 -0.5t20 -1.5l11 1q4 1 10 1t16 1l63 2q8 0 24.5 -1.5t23.5 -1.5q23 0 56.5 -2t79.5 -6q21 -7 26 -72q1 -5 1.5 -14.5t2.5 -23.5q3 -23 3 -38z
M769 613q0 15 -3 38q-2 14 -2.5 23.5t-1.5 14.5q-4 71 -36 82h-3q-9 24 -27 30q-46 4 -79.5 6t-56.5 2h-8t-14 1q-5 1 -11 1q-6 1 -10 1h-5l-63 -2q-21 -1 -29 -3l2 1l-11 -1h1q-2 0 -3 1h-4h1q-8 1 -13.5 1.5t-10.5 -0.5l-63 -5q-109 -9 -179 -47q-8 -5 -13.5 -8t-7.5 -5
q-18 -17 -18 -45q0 -20 10 -50q11 -33 11 -45q0 -56 -23 -162l-37 -167q-15 -68 -24 -112t-11 -65q-4 -28 -5.5 -41.5t-1.5 -14.5q0 -39 31 -46q8 -35 82 -35q40 0 86 11l20 10q7 4 12 7t9 7l9 55q3 19 6 34.5t7 28.5q19 2 28 3.5t10 1.5q1 -10 1.5 -17t0.5 -12v-4
q0 -19 5 -41q1 -17 6 -24q0 -3 1 -5q7 -5 13.5 -8.5t11.5 -5.5q3 -7 3.5 -7.5t1.5 -7.5q38 -26 94 -26h13t11 1q8 1 11 1t-1 0l46 -2q-6 1 23 2t95 3q6 0 9 -1h9q28 0 61 14q30 43 30 148v12t1 21v6q0 5 1 13q1 5 1 9v9q0 21 -1 24q-11 54 -40 58q-1 2 -1 3t-1 2
q-12 25 -32 25l-3.5 -1l-10.5 -3q0 1 1 2h-1q12 18 14 36v16q0 10 3 64q1 9 1 17v16q0 61 -34 68q-2 7 -3 9q-12 24 -46 24q-21 0 -63 -19q-13 -7 -34 -13v8q0 30 27 38q4 -1 15 -1h29q19 0 60 -22q42 -21 63 -21q58 0 58 86zM618 281q-63 -25 -91 -25h-8q-1 4 -1 21
q0 44 9 49l41 -21q33 -16 56 -21z" />
    <glyph glyph-name="Ccedilla" unicode="&#xc7;" horiz-adv-x="508" 
d="M450 265q0 -129 -63 -202q-8 -10 -16 -17.5t-15 -12.5q-31 -23 -87 -31q-4 -5 -4 -12q0 -6 15 -13q21 -11 23 -13q13 -11 12 -36q0 -7 -5 -29q-19 -56 -72 -61q-11 -1 -19 -1.5t-14 0.5q-16 1 -31 2t-15 11q2 10 3.5 15t1.5 7q0 7 8 28q13 1 23.5 2t18.5 2q12 4 12 15
q-2 12 -12 15q-6 0 -16 7q-4 4 -4 12q0 9 18 51q-81 15 -117 69q-67 100 -67 270q0 457 288 457q99 0 105 -38q2 -17 3.5 -40t1.5 -52q0 -23 -3 -105q-2 -35 -3 -45q-5 -27 -23 -37q-1 -1 -11 -1q-29 0 -81 44q-51 45 -49 45q-15 0 -24 -15q-3 -4 -13 -29q-2 -25 -3 -46.5
t-1 -41.5q0 -155 78 -155q25 0 71 38q46 39 53 39q20 0 31 -53q1 -5 1.5 -16t0.5 -27zM490 235q0 17 -0.5 28t-1.5 16q-12 59 -39 62q-12 30 -32 30q-12 0 -60 -42v1q-42 -36 -64 -36q-11 0 -20 3q-18 36 -18 112q0 19 1 40t3 46q9 22 12 27v-1q6 10 15 10q4 -6 43 -42
q52 -47 87 -47q37 0 44 46q1 12 3 47q3 84 3 105q0 69 -1 72q-4 41 -35 55q-12 43 -114 43q-298 0 -298 -467q0 -171 69 -276q16 -24 35 -37q26 -32 69 -50v-1q-7 -15 -7 -26q0 -12 8 -20q12 -8 19 -9q1 0 3 -2v-6l-2 -2q-18 -2 -25.5 -3t-21.5 -1q-10 -21 -11 -33
q1 -1 -4 -22q-1 -1 -1 -5q0 -22 31 -23v-2q-1 -1 -1 -5q0 -16 12 -20q7 -3 30 -3h22h13q6 0 10 1h3q56 0 82 74q2 10 3 16.5t1 9.5v5q0 27 -16 39l1 -1q-6 4 -11 6l-6 3q-3 11 -7 16q46 9 76 30q12 7 33 31v-1q65 76 65 209z" />
    <glyph glyph-name="Egrave" unicode="&#xc8;" horiz-adv-x="538" 
d="M480 641q0 -75 -48 -75q-17 0 -59 21t-65 21q-42 0 -44 1q-37 -9 -37 -48q0 -21 7 -45q7 -6 16 -6q15 0 57 17q40 18 58 18q28 0 37 -18q6 -12 6 -43q0 -8 -0.5 -20t-1.5 -29q-1 -16 -1.5 -28t-0.5 -20v-15q-2 -16 -12 -32q-12 -20 -26 -20q-30 0 -73 22q-14 8 -25 13.5
l-19 9.5q-20 0 -20 -60q0 -32 9 -45q10 -16 40 -16t92 27q61 27 74 27q16 -2 26 -28q12 -27 9 -45q0 -6 -0.5 -15.5t-1.5 -19.5t-1.5 -19.5t-0.5 -15.5q0 -100 -26 -141q-26 -12 -55 -12h-8q-2 1 -9 1q-17 -1 -64 -1h-123q-78 0 -100 6q-43 12 -43 78q0 42 1 105t3 151
l6 261q0 18 -14 63q-13 42 -13 64q0 21 9 39q27 24 99 29q17 1 24 1.5t2 0.5h99q8 0 24 -1.5t24 -1.5q23 0 56.5 -2t79.5 -6q21 -7 26 -72q1 -5 1.5 -14.5t2.5 -23.5q3 -23 3 -38zM520 611q0 15 -3 38q-2 14 -2.5 23.5t-1.5 14.5q-4 71 -36 82h-3q-9 24 -27 30
q-46 4 -79.5 6t-56.5 2h-8t-15 1q-3 0 -11.5 1t-13.5 1h-99q-8 -1 -15 -1t-12 -1q-76 -5 -106 -32q-11 -25 -11 -46q0 -24 14 -66h-1q14 -48 14 -61l-6 -261q-2 -88 -3 -151t-1 -105q0 -67 40 -85q12 -25 40 -32q22 -6 103 -6h123q47 0 64 1q7 0 9 -1h8q28 0 61 14
q30 46 30 148q0 12 2 35t2 35v5q0 21 -14 47q-14 27 -29 30q-13 28 -31 31q-5 0 -14 -3h-1q12 18 14 36v16q0 10 3 64q1 9 1 17v16q0 61 -34 68q-2 6 -3 10q-14 23 -46 23q-21 0 -63 -19q-12 -5 -21 -8t-14 -5v8q0 31 28 38q4 -1 15 -1h28q21 0 62 -21q40 -21 62 -21
q58 0 58 85zM367 280q-63 -26 -89 -26h-8q-1 4 -1 21q0 45 7 49q14 -7 24.5 -12t18.5 -9h-1q25 -14 54 -21q-3 0 -5 -2zM303 879q-5 -4 -88 -4h-2q-1 0 -5 1q-95 86 -95 101q0 13 44 13h15l23 -1l5 -1h2h-1q9 0 26 2t26 2q18 0 54 -103zM347 858q-23 64 -23 65
q-19 46 -39 49q-17 30 -32 30q-8 0 -24.5 -2t-24.5 -2q-5 0 -16 1t-16 1h-14q-55 0 -55 -23q0 -25 131 -141q5 -1 7 -1h3q87 0 97 7z" />
    <glyph glyph-name="Eacute" unicode="&#xc9;" horiz-adv-x="539" 
d="M478 641q0 -75 -48 -75q-17 0 -59 21t-65 21q-42 0 -44 1q-37 -9 -37 -48q0 -21 7 -45q7 -6 16 -6q15 0 57 17q40 18 58 18q28 0 37 -18q6 -12 6 -43q0 -8 -0.5 -20t-1.5 -29q-1 -16 -1.5 -28t-0.5 -20v-15q-2 -16 -12 -32q-12 -20 -26 -20q-30 0 -73 22q-14 8 -25 13.5
l-19 9.5q-20 0 -20 -60q0 -32 9 -45q10 -16 40 -16t92 27q61 27 74 27q16 -2 26 -28q12 -27 9 -45q0 -6 -0.5 -15.5t-1.5 -19.5t-1.5 -19.5t-0.5 -15.5q0 -100 -26 -141q-26 -12 -55 -12h-8q-2 1 -9 1q-17 -1 -64 -1h-123q-78 0 -100 6q-43 12 -43 78q0 42 1 105t3 151
l6 261q0 18 -14 63q-13 42 -13 64q0 21 9 39q27 24 99 29q17 1 24 1.5t2 0.5h99q8 0 24 -1.5t24 -1.5q23 0 56.5 -2t79.5 -6q21 -7 26 -72q1 -5 1.5 -14.5t2.5 -23.5q3 -23 3 -38zM518 611q0 15 -3 38q-2 14 -2.5 23.5t-1.5 14.5q-4 71 -36 82h-3q-9 24 -27 30
q-46 4 -79.5 6t-56.5 2h-8t-15 1q-3 0 -11.5 1t-13.5 1h-99q-8 -1 -15 -1t-12 -1q-76 -5 -106 -32q-11 -25 -11 -46q0 -24 14 -66h-1q14 -48 14 -61l-6 -261q-2 -88 -3 -151t-1 -105q0 -67 40 -85q12 -25 40 -32q22 -6 103 -6h123q47 0 64 1q7 0 9 -1h8q28 0 61 14
q30 46 30 148q0 12 2 35t2 35v5q0 21 -14 47q-14 27 -29 30q-13 28 -31 31q-5 0 -14 -3h-1q12 18 14 36v16q0 10 3 64q1 9 1 17v16q0 61 -34 68q-2 6 -3 10q-14 23 -46 23q-21 0 -63 -19q-12 -5 -21 -8t-14 -5v8q0 31 28 38q4 -1 15 -1h28q21 0 62 -21q40 -21 62 -21
q58 0 58 85zM365 280q-63 -26 -89 -26h-8q-1 4 -1 21q0 45 7 49q14 -7 24.5 -12t18.5 -9h-1q25 -14 54 -21q-3 0 -5 -2zM439 976q0 -18 -95 -101l-1 1h-29q-10 -1 -17 -1h-11q-40 0 -40 14q0 15 21 59t33 44h25t35 -1t35 -1h26q7 0 16 -6q1 -5 1.5 -7t0.5 -1zM446 990
q-13 10 -25 10h-26q-15 0 -35 1t-35 1h-25q-18 0 -42 -48q-22 -43 -22 -65q0 -19 30 -23v-7q0 -24 50 -24q57 0 66 4q97 85 97 107l-1 2l-2 12q-13 10 -29 10l2 6l-1 2z" />
    <glyph glyph-name="Ecircumflex" unicode="&#xca;" horiz-adv-x="540" 
d="M480 641q0 -75 -48 -75q-17 0 -59 21t-65 21q-42 0 -44 1q-37 -9 -37 -48q0 -21 7 -45q7 -6 16 -6q15 0 57 17q40 18 58 18q28 0 37 -18q6 -12 6 -43q0 -8 -0.5 -20t-1.5 -29q-1 -16 -1.5 -28t-0.5 -20v-15q-2 -16 -12 -32q-12 -20 -26 -20q-30 0 -73 22q-14 8 -25 13.5
l-19 9.5q-20 0 -20 -60q0 -32 9 -45q10 -16 40 -16t92 27q61 27 74 27q16 -2 26 -28q12 -27 9 -45q0 -6 -0.5 -15.5t-1.5 -19.5t-1.5 -19.5t-0.5 -15.5q0 -100 -26 -141q-26 -12 -55 -12h-8q-2 1 -9 1q-17 -1 -64 -1h-123q-78 0 -100 6q-43 12 -43 78q0 42 1 105t3 151
l6 261q0 18 -14 63q-13 42 -13 64q0 21 9 39q27 24 99 29q17 1 24 1.5t2 0.5h99q8 0 24 -1.5t24 -1.5q23 0 56.5 -2t79.5 -6q21 -7 26 -72q1 -5 1.5 -14.5t2.5 -23.5q3 -23 3 -38zM520 611q0 15 -3 38q-2 14 -2.5 23.5t-1.5 14.5q-4 71 -36 82h-3q-9 24 -27 30
q-46 4 -79.5 6t-56.5 2h-8t-15 1q-3 0 -11.5 1t-13.5 1h-99q-8 -1 -15 -1t-12 -1q-76 -5 -106 -32q-11 -25 -11 -46q0 -24 14 -66h-1q14 -48 14 -61l-6 -261q-2 -88 -3 -151t-1 -105q0 -67 40 -85q12 -25 40 -32q22 -6 103 -6h123q47 0 64 1q7 0 9 -1h8q28 0 61 14
q30 46 30 148q0 12 2 35t2 35v5q0 21 -14 47q-14 27 -29 30q-13 28 -31 31q-5 0 -14 -3h-1q12 18 14 36v16q0 10 3 64q1 9 1 17v16q0 61 -34 68q-2 6 -3 10q-14 23 -46 23q-21 0 -63 -19q-12 -5 -21 -8t-14 -5v8q0 31 28 38q4 -1 15 -1h28q21 0 62 -21q40 -21 62 -21
q58 0 58 85zM367 280q-63 -26 -89 -26h-8q-1 4 -1 21q0 45 7 49q14 -7 24.5 -12t18.5 -9h-1q25 -14 54 -21q-3 0 -5 -2zM413 887q0 -12 -58 -12h-32q-18 0 -37 16q-1 1 -8.5 8t-21.5 21q-8 -11 -16 -19.5t-16 -16.5q-6 -6 -109 -6q-11 0 -11 13q0 7 75 85q15 16 34 16h90
q23 0 61 -42q12 -16 24 -31.5t25 -31.5zM451 863l-42 52.5t-29 36.5q-11 17 -37 33q-26 17 -40 17h-91q-22 0 -40 -19q-78 -81 -78 -92q0 -23 32 -23q-2 -6 -2 -10q0 -20 21 -20q107 0 115 8q9 10 15.5 17t11.5 12q26 -29 40 -35q15 -5 54 -5h43q29 5 29 22q-1 2 -1 3t-1 3z
" />
    <glyph glyph-name="Edieresis" unicode="&#xcb;" horiz-adv-x="542" 
d="M481 641q0 -75 -48 -75q-17 0 -59 21t-65 21q-42 0 -44 1q-37 -9 -37 -48q0 -21 7 -45q7 -6 16 -6q15 0 57 17q40 18 58 18q28 0 37 -18q6 -12 6 -43q0 -8 -0.5 -20t-1.5 -29q-1 -16 -1.5 -28t-0.5 -20v-15q-2 -16 -12 -32q-12 -20 -26 -20q-30 0 -73 22q-14 8 -25 13.5
l-19 9.5q-20 0 -20 -60q0 -32 9 -45q10 -16 40 -16t92 27q61 27 74 27q16 -2 26 -28q12 -27 9 -45q0 -6 -0.5 -15.5t-1.5 -19.5t-1.5 -19.5t-0.5 -15.5q0 -100 -26 -141q-26 -12 -55 -12h-8q-2 1 -9 1q-17 -1 -64 -1h-123q-78 0 -100 6q-43 12 -43 78q0 42 1 105t3 151
l6 261q0 18 -14 63q-13 42 -13 64q0 21 9 39q27 24 99 29q17 1 24 1.5t2 0.5h99q8 0 24 -1.5t24 -1.5q23 0 56.5 -2t79.5 -6q21 -7 26 -72q1 -5 1.5 -14.5t2.5 -23.5q3 -23 3 -38zM521 611q0 15 -3 38q-2 14 -2.5 23.5t-1.5 14.5q-4 71 -36 82h-3q-9 24 -27 30
q-46 4 -79.5 6t-56.5 2h-8t-15 1q-3 0 -11.5 1t-13.5 1h-99q-8 -1 -15 -1t-12 -1q-76 -5 -106 -32q-11 -25 -11 -46q0 -24 14 -66h-1q14 -48 14 -61l-6 -261q-2 -88 -3 -151t-1 -105q0 -67 40 -85q12 -25 40 -32q22 -6 103 -6h123q47 0 64 1q7 0 9 -1h8q28 0 61 14
q30 46 30 148q0 12 2 35t2 35v5q0 21 -14 47q-14 27 -29 30q-13 28 -31 31q-5 0 -14 -3h-1q12 18 14 36v16q0 10 3 64q1 9 1 17v16q0 61 -34 68q-2 6 -3 10q-14 23 -46 23q-21 0 -63 -19q-12 -5 -21 -8t-14 -5v8q0 31 28 38q4 -1 15 -1h28q21 0 62 -21q40 -21 62 -21
q58 0 58 85zM368 280q-63 -26 -89 -26h-8q-1 4 -1 21q0 45 7 49q14 -7 24.5 -12t18.5 -9h-1q25 -14 54 -21q-3 0 -5 -2zM242 956q0 -17 -6.5 -31.5t-17.5 -25.5t-25 -17.5t-29 -6.5q-41 0 -52 4q-16 6 -29.5 23.5t-13.5 34.5q0 42 31 64q28 21 70 21q31 0 51.5 -18t20.5 -48
zM429 956q0 -16 -6.5 -30.5t-17.5 -26t-25.5 -18t-29.5 -6.5q-18 0 -29 0.5t-16 1.5q-20 5 -35 24t-15 36q0 39 32 63q28 22 69 22q32 0 52.5 -18t20.5 -48zM469 926q0 44 -38 65q-24 41 -75 41q-44 0 -75 -24q-14 -10 -24 -25q-2 2 -5.5 4t-8.5 5q-21 40 -73 40
q-46 0 -77 -24q-34 -25 -34 -71q0 -40 41 -63q16 -28 39 -34h-1q12 -5 56 -5q52 0 77 49q4 -3 7.5 -5.5t6.5 -4.5q19 -29 48 -37q5 -1 16.5 -1.5t30.5 -0.5q35 0 62 27q27 28 27 64z" />
    <glyph glyph-name="Igrave" unicode="&#xcc;" horiz-adv-x="403" 
d="M344 60q0 -19 -3 -23q-22 -37 -91 -37l-95 6q-24 13 -28 52v64v14q0 10 1 24t1.5 23.5t0.5 13.5l2 170q1 75 1.5 117t0.5 52v13t1 23t1.5 23.5t0.5 13.5q0 20 -14 65q-13 42 -13 67q18 28 56 39q23 5 40.5 8.5t28.5 5.5q28 6 45 6q51 0 62 -60q1 -4 1 -29v-71
q0 -20 -1 -51t-3 -73q-3 -83 -3 -123q0 -28 1 -69.5t3 -97.5q2 -55 3 -96.5t1 -69.5zM384 30q0 28 -1 69.5t-3 96.5q-2 56 -3 97.5t-1 69.5q0 40 3 123v-1q2 37 3 68t1 57q0 109 -12 138q-7 19 -29 27q-1 1 -1 3q-12 32 -61 32q-6 0 -118 -20q-43 -14 -62 -46q0 -28 13 -71
q14 -47 14 -64q0 -6 -0.5 -16t-1 -20.5t-1 -20.5t-0.5 -16v-53q0 -28 -1 -60l-2 -111q-1 -33 -1 -62v-53q0 -6 -0.5 -16.5t-1 -21.5t-1 -21t-0.5 -16v-65q5 -45 34 -60h3q9 -20 27 -30q87 -6 99 -6q74 0 100 41q4 7 4 28zM213 879q-5 -4 -88 -4h-2q-1 0 -5 1q-94 85 -94 101
q0 13 44 13h15l22 -1l5 -1h2h-1q9 0 26 2t26 2q18 0 54 -103zM257 858q-23 64 -23 65q-19 46 -39 49q-17 30 -32 30q-8 0 -24.5 -2t-24.5 -2q-5 0 -15.5 1t-15.5 1h-14q-55 0 -55 -23q0 -26 130 -141q5 -1 7 -1h3q87 0 97 7z" />
    <glyph glyph-name="Iacute" unicode="&#xcd;" horiz-adv-x="415" 
d="M262 60q0 -19 -3 -23q-22 -37 -91 -37l-95 6q-24 13 -28 52v64v14q0 10 1 24t1.5 23.5t0.5 13.5l2 170q1 75 1.5 117t0.5 52v13t1 23t1.5 23.5t0.5 13.5q0 20 -14 65q-13 42 -13 67q18 28 56 39q23 5 40.5 8.5t28.5 5.5q28 6 45 6q51 0 62 -60q1 -4 1 -29v-71
q0 -20 -1 -51t-3 -73q-3 -83 -3 -123q0 -28 1 -69.5t3 -97.5q2 -55 3 -96.5t1 -69.5zM302 30q0 28 -1 69.5t-3 96.5q-2 56 -3 97.5t-1 69.5q0 40 3 123v-1q2 37 3 68t1 57q0 109 -12 138q-7 19 -29 27q-1 1 -1 3q-12 32 -61 32q-6 0 -118 -20q-43 -14 -62 -46q0 -28 13 -71
q14 -47 14 -64q0 -6 -0.5 -16t-1 -20.5t-1 -20.5t-0.5 -16v-53q0 -28 -1 -60l-2 -111q-1 -33 -1 -62v-53q0 -6 -0.5 -16.5t-1 -21.5t-1 -21t-0.5 -16v-65q5 -45 34 -60h3q9 -20 27 -30q87 -6 99 -6q74 0 100 41q4 7 4 28zM359 976q0 -18 -95 -101l-1 1h-29q-10 -1 -17 -1
h-11q-40 0 -40 14q0 15 21 59t33 44h25t35 -1t35 -1h26q7 0 16 -6q1 -5 1.5 -7t0.5 -1zM366 990q-13 10 -25 10h-26q-15 0 -35 1t-35 1h-25q-18 0 -42 -48q-22 -43 -22 -65q0 -19 30 -23v-7q0 -24 50 -24q57 0 66 4q97 85 97 107l-1 2l-2 12q-13 10 -29 10l2 6l-1 2z" />
    <glyph glyph-name="Icircumflex" unicode="&#xce;" horiz-adv-x="394" 
d="M301 60q0 -19 -3 -23q-22 -37 -91 -37l-95 6q-24 13 -28 52v64v14q0 10 1 24t1.5 23.5t0.5 13.5l2 170q1 75 1.5 117t0.5 52v13t1 23t1.5 23.5t0.5 13.5q0 20 -14 65q-13 42 -13 67q18 28 56 39q23 5 40.5 8.5t28.5 5.5q28 6 45 6q51 0 62 -60q1 -4 1 -29v-71
q0 -20 -1 -51t-3 -73q-3 -83 -3 -123q0 -28 1 -69.5t3 -97.5q2 -55 3 -96.5t1 -69.5zM341 30q0 28 -1 69.5t-3 96.5q-2 56 -3 97.5t-1 69.5q0 40 3 123v-1q2 37 3 68t1 57q0 109 -12 138q-7 19 -29 27q-1 1 -1 3q-12 32 -61 32q-6 0 -118 -20q-43 -14 -62 -46q0 -28 13 -71
q14 -47 14 -64q0 -6 -0.5 -16t-1 -20.5t-1 -20.5t-0.5 -16v-53q0 -28 -1 -60l-2 -111q-1 -33 -1 -62v-53q0 -6 -0.5 -16.5t-1 -21.5t-1 -21t-0.5 -16v-65q5 -45 34 -60h3q9 -20 27 -30q87 -6 99 -6q74 0 100 41q4 7 4 28zM335 887q0 -12 -58 -12h-32q-18 0 -37 16
q-1 1 -8.5 8t-21.5 21q-8 -11 -16 -19.5t-16 -16.5q-6 -6 -108 -6q-11 0 -11 13q0 6 74 85q15 16 34 16h90q23 0 61 -42q12 -16 24 -31.5t25 -31.5zM373 863l-42 52.5t-29 36.5q-11 17 -37 33q-26 17 -40 17h-91q-22 0 -40 -19q-77 -82 -77 -92q0 -23 32 -23q-2 -6 -2 -10
q0 -20 20 -20q107 0 115 8q9 10 15.5 17t11.5 12q26 -29 40 -35q15 -5 54 -5h43q29 5 29 22q-1 2 -1 3t-1 3z" />
    <glyph glyph-name="Idieresis" unicode="&#xcf;" horiz-adv-x="445" 
d="M322 60q0 -19 -3 -23q-22 -37 -91 -37l-95 6q-24 13 -28 52v64v14q0 10 1 24t1.5 23.5t0.5 13.5l2 170q1 75 1.5 117t0.5 52v13t1 23t1.5 23.5t0.5 13.5q0 20 -14 65q-13 42 -13 67q18 28 56 39q23 5 40.5 8.5t28.5 5.5q28 6 45 6q51 0 62 -60q1 -4 1 -29v-71
q0 -20 -1 -51t-3 -73q-3 -83 -3 -123q0 -28 1 -69.5t3 -97.5q2 -55 3 -96.5t1 -69.5zM362 30q0 28 -1 69.5t-3 96.5q-2 56 -3 97.5t-1 69.5q0 40 3 123v-1q2 37 3 68t1 57q0 109 -12 138q-7 19 -29 27q-1 1 -1 3q-12 32 -61 32q-6 0 -118 -20q-43 -14 -62 -46q0 -28 13 -71
q14 -47 14 -64q0 -6 -0.5 -16t-1 -20.5t-1 -20.5t-0.5 -16v-53q0 -28 -1 -60l-2 -111q-1 -33 -1 -62v-53q0 -6 -0.5 -16.5t-1 -21.5t-1 -21t-0.5 -16v-65q5 -45 34 -60h3q9 -20 27 -30q87 -6 99 -6q74 0 100 41q4 7 4 28zM199 956q0 -17 -6.5 -31.5t-17.5 -25.5t-25 -17.5
t-29 -6.5q-42 0 -51 4q-16 6 -29.5 23.5t-13.5 34.5q0 42 31 64q27 21 69 21q31 0 51.5 -18t20.5 -48zM386 956q0 -16 -6.5 -30.5t-17.5 -26t-25.5 -18t-29.5 -6.5q-18 0 -29 0.5t-16 1.5q-20 5 -35 24t-15 36q0 39 32 63q28 22 69 22q32 0 52.5 -18t20.5 -48zM426 926
q0 44 -38 65q-24 41 -75 41q-44 0 -75 -24q-14 -10 -24 -25q-2 2 -5.5 4t-8.5 5q-21 40 -73 40q-46 0 -76 -24q-34 -25 -34 -71q0 -40 41 -63q16 -28 38 -34h-1q12 -5 56 -5q52 0 77 49q4 -3 7.5 -5.5t6.5 -4.5q19 -29 48 -37q5 -1 16.5 -1.5t30.5 -0.5q35 0 62 27
q27 28 27 64z" />
    <glyph glyph-name="Ntilde" unicode="&#xd1;" horiz-adv-x="610" 
d="M61 8q-18 0 -22 33v51q0 44 2 108.5t6 151.5t6 151.5t2 108.5q0 19 -13 55q-12 37 -12 58q0 14 6 28q23 20 91 35q55 12 99 12q41 0 58 -20q10 -11 26 -87q7 -32 12 -56t8 -41q14 -57 39 -128l10 -3l5 1q6 30 6 58q0 34 -9 105q-4 35 -6 61.5t-2 43.5q0 45 52 58
q34 8 90 8q34 0 34 -57q0 -26 -1 -58.5t-3 -71.5q-2 -38 -3 -71t-2 -61q-6 -294 -6 -350q0 -88 -32 -111q-25 -17 -119 -17q-47 0 -70 20q-18 16 -28 55q-5 22 -9.5 43t-9.5 42q-40 155 -59 174q-7 -14 -7 -39q0 -42 6 -124q4 -42 5.5 -73t1.5 -51q0 -49 -100 -49
q-30 0 -47 7h-5zM29 92v-51l1 -11q6 -31 29 -31h1q6 -30 29 -30h5q18 -7 49 -7q110 0 110 58q0 22 -1.5 52.5t-5.5 71.5q-2 20 -3 38t-2 32q7 -26 15 -54q41 -153 64 -160l9 -2q12 -24 21 -27q18 -7 63 -7q99 0 125 19q36 25 36 118l6 350q2 44 3 76.5t2 54.5v-1q2 37 3 70
t1 62q0 59 -34 66q-9 31 -40 31q-61 0 -93 -8h1q-60 -15 -60 -68q0 -19 1.5 -45t5.5 -58q5 -37 7 -63t3 -40q-23 93 -30 137q-20 83 -28 92v-1q-8 9 -23 16q-1 4 -3 7.5t-4 7.5v-1q-20 24 -66 24t-101 -12q-70 -15 -97 -39q-8 -21 -8 -34q0 -23 12 -60q13 -36 13 -53
q0 -44 -2 -108.5t-6 -151.5t-6 -151.5t-2 -108.5zM434 954q0 -79 -56 -79q-22 0 -71 17t-67 17q-2 0 -11 -14t-24 -14h-15q-5 -1 -14 -1q-38 0 -38 34q0 45 10 61q14 23 55 23q21 0 62 -15q44 -14 64 -14q3 0 6.5 3.5l8 8t9.5 8t10 3.5q3 0 13.5 -1t12.5 -1q11 0 18 -0.5
t11 -1.5q16 -4 16 -21v-13zM474 937q0 25 -23 31v-1q-2 0 -3 1h-4q-1 24 -23 30v-1q-15 3 -32 3q-6 0 -10 0.5t-10 1.5h-6q-15 0 -29 -17q-2 -2 -3 -3.5t-2 -2.5q-15 0 -60 14v-1q-39 16 -66 16q-46 0 -64 -28q-11 -17 -11 -66q0 -36 31 -43q6 -31 47 -31q10 0 15 1h14
q23 0 33 19l3 9q21 -2 69 -18q44 -16 68 -16q66 0 66 89v13z" />
    <glyph glyph-name="Ograve" unicode="&#xd2;" horiz-adv-x="573" 
d="M333 447q0 114 -63 114q-18 0 -33 -19q-20 -26 -20 -141q0 -55 7 -79q13 -48 52 -48q37 0 49 34q8 24 8 65v74zM516 410q0 -286 -140 -381q-44 -29 -121 -29q-65 0 -106 29q-98 71 -116 252q-2 26 -3.5 43.5t-1.5 25.5q0 171 48 288q67 162 213 162q83 0 123 -43
q66 -69 88 -161q16 -64 16 -186zM556 380q0 124 -16 188q-22 94 -91 166q-6 6 -14 12q-4 5 -8 9t-8 9q-43 46 -130 46q-151 0 -212 -148q-59 -141 -59 -312q0 -8 1.5 -25.5t3.5 -44.5q17 -177 108 -250q55 -69 154 -69q80 0 126 31q145 96 145 388zM323 373q0 -41 -7 -62
q-9 -27 -40 -27q-7 0 -9 1q-10 29 -10 86q0 112 18 135q12 15 25 15q2 0 12 -2q11 -28 11 -72v-74zM299 879q-5 -4 -88 -4h-2q-1 0 -5 1q-95 86 -95 101q0 13 44 13h15l23 -1l5 -1h2h-1q9 0 26 2t26 2q18 0 54 -103zM343 858q-23 64 -23 65q-19 46 -39 49q-17 30 -32 30
q-8 0 -24.5 -2t-24.5 -2q-5 0 -16 1t-16 1h-14q-55 0 -55 -23q0 -25 131 -141q5 -1 7 -1h3q87 0 97 7z" />
    <glyph glyph-name="Oacute" unicode="&#xd3;" horiz-adv-x="573" 
d="M331 447q0 114 -63 114q-18 0 -33 -19q-20 -26 -20 -141q0 -55 7 -79q13 -48 52 -48q37 0 49 34q8 24 8 65v74zM514 410q0 -286 -140 -381q-44 -29 -121 -29q-65 0 -106 29q-98 71 -116 252q-2 26 -3.5 43.5t-1.5 25.5q0 171 48 288q67 162 213 162q83 0 123 -43
q66 -69 88 -161q16 -64 16 -186zM554 380q0 124 -16 188q-22 94 -91 166q-6 6 -14 12q-4 5 -8 9t-8 9q-43 46 -130 46q-151 0 -212 -148q-59 -141 -59 -312q0 -8 1.5 -25.5t3.5 -44.5q17 -177 108 -250q55 -69 154 -69q80 0 126 31q145 96 145 388zM321 373q0 -41 -7 -62
q-9 -27 -40 -27q-7 0 -9 1q-10 29 -10 86q0 112 18 135q12 15 25 15q2 0 12 -2q11 -28 11 -72v-74zM455 976q0 -18 -95 -101l-1 1h-29q-10 -1 -17 -1h-11q-40 0 -40 14q0 15 21 59t33 44h25t35 -1t35 -1h26q7 0 16 -6q1 -5 1.5 -7t0.5 -1zM462 990q-13 10 -25 10h-26
q-15 0 -35 1t-35 1h-25q-18 0 -42 -48q-22 -43 -22 -65q0 -19 30 -23v-7q0 -24 50 -24q57 0 66 4q97 85 97 107l-1 2l-2 12q-13 10 -29 10l2 6l-1 2z" />
    <glyph glyph-name="Ocircumflex" unicode="&#xd4;" horiz-adv-x="575" 
d="M333 447q0 114 -63 114q-18 0 -33 -19q-20 -26 -20 -141q0 -55 7 -79q13 -48 52 -48q37 0 49 34q8 24 8 65v74zM516 410q0 -286 -140 -381q-44 -29 -121 -29q-65 0 -106 29q-98 71 -116 252q-2 26 -3.5 43.5t-1.5 25.5q0 171 48 288q67 162 213 162q83 0 123 -43
q66 -69 88 -161q16 -64 16 -186zM556 380q0 124 -16 188q-22 94 -91 166q-6 6 -14 12q-4 5 -8 9t-8 9q-43 46 -130 46q-151 0 -212 -148q-59 -141 -59 -312q0 -8 1.5 -25.5t3.5 -44.5q17 -177 108 -250q55 -69 154 -69q80 0 126 31q145 96 145 388zM323 373q0 -41 -7 -62
q-9 -27 -40 -27q-7 0 -9 1q-10 29 -10 86q0 112 18 135q12 15 25 15q2 0 12 -2q11 -28 11 -72v-74zM434 887q0 -12 -58 -12h-32q-18 0 -37 16q-1 1 -8.5 8t-21.5 21q-8 -11 -16 -19.5t-16 -16.5q-6 -6 -109 -6q-11 0 -11 13q0 7 75 85q15 16 34 16h90q23 0 61 -42
q12 -16 24 -31.5t25 -31.5zM472 863l-42 52.5t-29 36.5q-11 17 -37 33q-26 17 -40 17h-91q-22 0 -40 -19q-78 -81 -78 -92q0 -23 32 -23q-2 -6 -2 -10q0 -20 21 -20q107 0 115 8q9 10 15.5 17t11.5 12q26 -29 40 -35q15 -5 54 -5h43q29 5 29 22q-1 2 -1 3t-1 3z" />
    <glyph glyph-name="Otilde" unicode="&#xd5;" horiz-adv-x="576" 
d="M334 447q0 114 -63 114q-18 0 -33 -19q-20 -26 -20 -141q0 -55 7 -79q13 -48 52 -48q37 0 49 34q8 24 8 65v74zM517 410q0 -286 -140 -381q-44 -29 -121 -29q-65 0 -106 29q-98 71 -116 252q-2 26 -3.5 43.5t-1.5 25.5q0 171 48 288q67 162 213 162q83 0 123 -43
q66 -69 88 -161q16 -64 16 -186zM557 380q0 124 -16 188q-22 94 -91 166q-6 6 -14 12q-4 5 -8 9t-8 9q-43 46 -130 46q-151 0 -212 -148q-59 -141 -59 -312q0 -8 1.5 -25.5t3.5 -44.5q17 -177 108 -250q55 -69 154 -69q80 0 126 31q145 96 145 388zM324 373q0 -41 -7 -62
q-9 -27 -40 -27q-7 0 -9 1q-10 29 -10 86q0 112 18 135q12 15 25 15q2 0 12 -2q11 -28 11 -72v-74zM419 954q0 -79 -56 -79q-22 0 -71 17t-67 17q-2 0 -11 -14t-24 -14h-15q-5 -1 -14 -1q-38 0 -38 34q0 45 10 61q14 23 55 23q21 0 62 -15q44 -14 64 -14q3 0 6.5 3.5l8 8
t9.5 8t10 3.5q3 0 13.5 -1t12.5 -1q11 0 18 -0.5t11 -1.5q16 -4 16 -21v-13zM459 937q0 25 -23 31v-1q-2 0 -3 1h-4q-1 24 -23 30v-1q-15 3 -32 3q-6 0 -10 0.5t-10 1.5h-6q-15 0 -29 -17q-2 -2 -3 -3.5t-2 -2.5q-15 0 -60 14v-1q-39 16 -66 16q-46 0 -64 -28
q-11 -17 -11 -66q0 -36 31 -43q6 -31 47 -31q10 0 15 1h14q23 0 33 19l3 9q21 -2 69 -18q44 -16 68 -16q66 0 66 89v13z" />
    <glyph glyph-name="Odieresis" unicode="&#xd6;" horiz-adv-x="577" 
d="M334 447q0 114 -63 114q-18 0 -33 -19q-20 -26 -20 -141q0 -55 7 -79q13 -48 52 -48q37 0 49 34q8 24 8 65v74zM517 410q0 -286 -140 -381q-44 -29 -121 -29q-65 0 -106 29q-98 71 -116 252q-2 26 -3.5 43.5t-1.5 25.5q0 171 48 288q67 162 213 162q83 0 123 -43
q66 -69 88 -161q16 -64 16 -186zM557 380q0 124 -16 188q-22 94 -91 166q-6 6 -14 12q-4 5 -8 9t-8 9q-43 46 -130 46q-151 0 -212 -148q-59 -141 -59 -312q0 -8 1.5 -25.5t3.5 -44.5q17 -177 108 -250q55 -69 154 -69q80 0 126 31q145 96 145 388zM324 373q0 -41 -7 -62
q-9 -27 -40 -27q-7 0 -9 1q-10 29 -10 86q0 112 18 135q12 15 25 15q2 0 12 -2q11 -28 11 -72v-74zM274 956q0 -17 -6.5 -31.5t-17.5 -25.5t-25 -17.5t-29 -6.5q-41 0 -52 4q-16 6 -29.5 23.5t-13.5 34.5q0 42 31 64q28 21 70 21q31 0 51.5 -18t20.5 -48zM461 956
q0 -16 -6.5 -30.5t-17.5 -26t-25.5 -18t-29.5 -6.5q-18 0 -29 0.5t-16 1.5q-20 5 -35 24t-15 36q0 39 32 63q28 22 69 22q32 0 52.5 -18t20.5 -48zM501 926q0 44 -38 65q-24 41 -75 41q-44 0 -75 -24q-14 -10 -24 -25q-2 2 -5.5 4t-8.5 5q-21 40 -73 40q-46 0 -77 -24
q-34 -25 -34 -71q0 -40 41 -63q16 -28 39 -34h-1q12 -5 56 -5q52 0 77 49q4 -3 7.5 -5.5t6.5 -4.5q19 -29 48 -37q5 -1 16.5 -1.5t30.5 -0.5q35 0 62 27q27 28 27 64z" />
    <glyph glyph-name="multiply" unicode="&#xd7;" horiz-adv-x="529" 
d="M171 511q2 -2 5 -8q8 -5 37 -35q2 -1 18 -17q2 -3 15 -16q7 -1 17 11q10 13 37 37q28 26 33 34q4 5 19 18q11 10 21 8q9 -2 19 -8q16 -19 31.5 -35.5t29.5 -32.5q8 -10 7 -16q-1 -10 -6 -16q-20 -20 -33.5 -34t-21.5 -21q-8 -8 -15.5 -15t-14.5 -14q-18 -18 -16 -19
q0 -5 19 -24q4 -5 13 -14.5t23 -23.5l13 -13q8 -6 15.5 -13.5l15.5 -15.5q12 -12 14 -15q9 -15 -4 -28q-6 -5 -11 -8.5t-9 -6.5l-29 -29l-11 -11q-2 -5 -18 -17q-11 -8 -14 -7q-7 1 -23 19q-3 1 -10 8l-10 10q-7 8 -13.5 14.5t-12.5 13.5q-11 11 -21 21.5t-19 19.5
q-8 11 -13 11q-3 0 -18 -15q-2 -4 -8 -10l-14 -14q-3 -3 -15 -11q-12 -9 -13 -10q-14 -17 -16 -18l-17 -17q-17 -17 -25 -15q-7 2 -25 20l-17 17q-9 9 -16 15.5t-12 11.5q-2 5 -8 9q-16 18 -15 25q3 11 9 17q7 4 14 10t15 14q1 3 24 23q1 2 16 17q1 1 3 2.5t6 5.5q9 8 12 12
t9 10l5 6q-4 4 -12 12.5t-20 21.5t-17 20l-50 50q-10 7 -12 14q-4 12 4 25q3 3 11 8q13 11 22 20.5t14 16.5q8 8 20 15q17 17 24 16q16 0 36 -27zM208 488l-8 8q-17 20 -26 25l-4 5q-25 31 -44 31h-1q-13 0 -29 -18q-16 -14 -27.5 -24.5t-18.5 -18.5h1q-3 -3 -11 -9l1 1
q-7 -4 -14 -12.5t-7 -20.5q0 -4 2 -12l-1 1q3 -12 16 -20l16 -16q1 -6 14 -14l19 -19h-1q14 -16 25 -28t18 -20q-6 -6 -8 -10q-4 -4 -11 -10t-9 -8l-16 -16q-20 -17 -25 -25q-8 -8 -15 -14t-14 -10q-7 -7 -11 -20v-4q0 -10 19 -32q4 -1 6 -7q6 -10 16 -16l14 -14
q6 -10 16 -16q6 -7 14 -13l16 -16q22 -22 30 -23h4q12 0 30 18l16 16q6 6 10.5 11t7.5 9q4 3 10 7q26 17 40 38l9 9l17 -17q5 -5 9 -9.5t8 -9.5l19 -19l8 -8l22 -22q8 -8 11 -10q20 -18 27 -20h3q5 0 19 9q8 7 13 12l7 7l10 10q6 6 18.5 17.5t18.5 17.5q6 3 12 9
q11 11 11 23q0 6 -6 18q-10 13 -16 17q-3 3 -8.5 8t-7.5 7q-5 5 -8.5 9t-5.5 6l1 -1q-11 11 -19 18.5t-13 11.5l-11 11q-3 3 -4 6l1 -3h-1l-3 6q-16 13 -16 18q1 -1 13 11q24 26 29 28l14 14q6 6 8 7l4 4q11 13 18.5 21t11.5 10q8 12 9 22v3q0 11 -10 21q-45 49 -60 69
q-3 3 -9 5q-8 8 -13 14.5t-8 10.5q-7 4 -13 6.5t-12 3.5h-5q-11 0 -24 -10q-19 -14 -22 -21q-5 -8 -30 -31q-31 -30 -39 -40v1q-2 -3 -6 -7v1q-9 9 -10 11q-18 18 -20 19l-11 11v1z" />
    <glyph glyph-name="Oslash" unicode="&#xd8;" horiz-adv-x="579" 
d="M119 56q-2 -5 -6.5 -13.5t-11.5 -21.5q-1 -1 -4.5 -8l-6.5 -13h-7l-6 0.5t-17 2.5q-3 1 -6 1t-5 1q-1 3 -1 11q2 5 41 82q-42 67 -53 183q-2 28 -3.5 45t-1.5 24q0 171 48 288q67 162 213 162q80 0 123 -43l2 -2q19 39 22 42q6 10 12 9q5 -2 12 -4t15 -6q9 -1 4 -14
q-8 -19 -16 -35.5t-16 -31.5q43 -58 58 -144q5 -32 8 -72t3 -89q0 -286 -140 -381q-44 -29 -121 -29q-87 0 -139 58v-2zM221 362l91 183q-13 16 -39 16q-18 0 -33 -19q-20 -26 -20 -141q0 -34 1 -39zM274 370q-11 -26 -36 -75q13 -21 41 -21q37 0 49 34q8 24 8 65v74
q0 4 -0.5 13.5t-1.5 24.5zM493 789q0 13 -12 16h1q-11 4 -18.5 6.5t-12.5 4.5h-2q-9 0 -18 -13q-13 -23 -17 -32q-45 39 -122 39q-151 0 -212 -148q-59 -141 -59 -312q0 -13 1 -28t3 -33q7 -116 52 -191q-37 -75 -39 -82v-7h39q-7 -13 -7 -16q1 -1 2 -1q-1 0 -2 1l-1.5 -4.5
l-0.5 -1.5v-7h45v-20q10 0 15 5q2 3 5 9l4 8l3 6q4 8 7 13t5 9q52 -49 136 -49q80 0 126 31q145 96 145 388q0 51 -3 91t-8 72q-15 85 -57 143q25 52 30 63q2 8 2 10q0 13 -12 16h1q-7 2 -11.5 4t-8.5 3q1 3 1 7zM326 360q-3 -69 -37 -76q8 18 14 31t10 21v-1zM267 474
q5 25 12 32.5l7 7.5q-4 -7 -10 -20.5t-9 -19.5zM39 0v5q-1 2 -1 4q-17 -2 -18 -3q0 -2 19 -6zM69 -29v5q-1 2 -1 4q-16 0 -18 -2q0 -3 19 -7zM40 -2q15 -4 18 -4h1q3 0 6 -1h5q-11 2 -18.5 4t-12.5 3l1 -1v-1zM70 -32q15 -4 18 -4h1q3 0 11 -2q-20 5 -31 9q0 -1 1 -2v-1z
M106 -39q-1 1 -6 1q5 0 6 -1z" />
    <glyph glyph-name="Ugrave" unicode="&#xd9;" horiz-adv-x="580" 
d="M522 736q0 -18 -9 -63q-3 -29 -3 -118v-40t1 -56t1 -56v-40q0 -51 -1.5 -94.5t-5.5 -79.5q-13 -144 -113 -171q-68 -18 -134 -18q-195 0 -210 188q-6 75 -6 173q0 19 1 46.5t3 64.5q2 38 3 65.5t1 46.5q0 72 -7 104q-1 3 -1.5 6.5t-2.5 7.5q-10 30 -10 38q0 42 86 51
q45 9 68 9q54 0 61 -37q1 -1 1 -48q0 -23 -1 -56.5t-3 -79.5q-3 -92 -3 -136q0 -7 0.5 -28.5t1.5 -57.5q4 -9 4 -42q0 -41 32 -41q41 0 47 30q2 16 3 31.5t2 30.5q6 82 6 150q0 37 -2 73t-6 72q-2 6 -3 21q-11 42 -11 45q0 11 3 25q24 29 98 38q16 2 26 3t14 1
q37 0 53 -12.5t16 -45.5zM562 706q0 49 -34 62q-12 36 -75 36q-38 0 -80 -11q-48 -13 -68 -37q-3 -14 -3 -29q0 -6 11 -48q1 -15 3 -20v1q4 -36 6 -72t2 -72q0 -70 -6 -149q-1 -11 -1 -19t-1 -13q-2 -26 -3 -27q-5 -21 -29 -24v1q0 32 -4 44v17q0 11 -1 25t-1 24v18
q0 44 3 136q2 46 3 79.5t1 56.5q0 42 -2 50h1q-6 28 -33 39q-14 36 -68 36q-29 -2 -49 -6.5t-20 -2.5q-95 -11 -95 -61q0 -13 7 -30q3 -8 6 -18l1 -5v-1q7 -32 7 -102q0 -23 -1 -50.5t-3 -60.5t-3 -61t-1 -51q0 -101 6 -174q9 -107 73 -156q54 -70 177 -70q69 0 137 18
q106 27 120 179q4 37 5.5 80.5t1.5 94.5v40t-1 56t-1 56v40q0 88 3 117v-1q9 45 9 65zM299 879q-5 -4 -88 -4h-2q-1 0 -5 1q-95 86 -95 101q0 13 44 13h15l23 -1l5 -1h2h-1q9 0 26 2t26 2q18 0 54 -103zM343 858q-23 64 -23 65q-19 46 -39 49q-17 30 -32 30q-8 0 -24.5 -2
t-24.5 -2q-5 0 -16 1t-16 1h-14q-55 0 -55 -23q0 -25 131 -141q5 -1 7 -1h3q87 0 97 7z" />
    <glyph glyph-name="Uacute" unicode="&#xda;" horiz-adv-x="581" 
d="M521 736q0 -18 -9 -63q-3 -29 -3 -118v-40t1 -56t1 -56v-40q0 -51 -1.5 -94.5t-5.5 -79.5q-13 -144 -113 -171q-68 -18 -134 -18q-195 0 -210 188q-6 75 -6 173q0 19 1 46.5t3 64.5q2 38 3 65.5t1 46.5q0 72 -7 104q-1 3 -1.5 6.5t-2.5 7.5q-10 30 -10 38q0 42 86 51
q45 9 68 9q54 0 61 -37q1 -1 1 -48q0 -23 -1 -56.5t-3 -79.5q-3 -92 -3 -136q0 -7 0.5 -28.5t1.5 -57.5q4 -9 4 -42q0 -41 32 -41q41 0 47 30q2 16 3 31.5t2 30.5q6 82 6 150q0 37 -2 73t-6 72q-2 6 -3 21q-11 42 -11 45q0 11 3 25q24 29 98 38q16 2 26 3t14 1
q37 0 53 -12.5t16 -45.5zM561 706q0 49 -34 62q-12 36 -75 36q-38 0 -80 -11q-48 -13 -68 -37q-3 -14 -3 -29q0 -6 11 -48q1 -15 3 -20v1q4 -36 6 -72t2 -72q0 -70 -6 -149q-1 -11 -1 -19t-1 -13q-2 -26 -3 -27q-5 -21 -29 -24v1q0 32 -4 44v17q0 11 -1 25t-1 24v18
q0 44 3 136q2 46 3 79.5t1 56.5q0 42 -2 50h1q-6 28 -33 39q-14 36 -68 36q-29 -2 -49 -6.5t-20 -2.5q-95 -11 -95 -61q0 -13 7 -30q3 -8 6 -18l1 -5v-1q7 -32 7 -102q0 -23 -1 -50.5t-3 -60.5t-3 -61t-1 -51q0 -101 6 -174q9 -107 73 -156q54 -70 177 -70q69 0 137 18
q106 27 120 179q4 37 5.5 80.5t1.5 94.5v40t-1 56t-1 56v40q0 88 3 117v-1q9 45 9 65zM436 976q0 -18 -95 -101l-1 1h-29q-10 -1 -17 -1h-11q-40 0 -40 14q0 15 21 59t33 44h25t35 -1t35 -1h26q7 0 16 -6q1 -5 1.5 -7t0.5 -1zM443 990q-13 10 -25 10h-26q-15 0 -35 1t-35 1
h-25q-18 0 -42 -48q-22 -43 -22 -65q0 -19 30 -23v-7q0 -24 50 -24q57 0 66 4q97 85 97 107l-1 2l-2 12q-13 10 -29 10l2 6l-1 2z" />
    <glyph glyph-name="Ucircumflex" unicode="&#xdb;" horiz-adv-x="582" 
d="M522 736q0 -18 -9 -63q-3 -29 -3 -118v-40t1 -56t1 -56v-40q0 -51 -1.5 -94.5t-5.5 -79.5q-13 -144 -113 -171q-68 -18 -134 -18q-195 0 -210 188q-6 75 -6 173q0 19 1 46.5t3 64.5q2 38 3 65.5t1 46.5q0 72 -7 104q-1 3 -1.5 6.5t-2.5 7.5q-10 30 -10 38q0 42 86 51
q45 9 68 9q54 0 61 -37q1 -1 1 -48q0 -23 -1 -56.5t-3 -79.5q-3 -92 -3 -136q0 -7 0.5 -28.5t1.5 -57.5q4 -9 4 -42q0 -41 32 -41q41 0 47 30q2 16 3 31.5t2 30.5q6 82 6 150q0 37 -2 73t-6 72q-2 6 -3 21q-11 42 -11 45q0 11 3 25q24 29 98 38q16 2 26 3t14 1
q37 0 53 -12.5t16 -45.5zM562 706q0 49 -34 62q-12 36 -75 36q-38 0 -80 -11q-48 -13 -68 -37q-3 -14 -3 -29q0 -6 11 -48q1 -15 3 -20v1q4 -36 6 -72t2 -72q0 -70 -6 -149q-1 -11 -1 -19t-1 -13q-2 -26 -3 -27q-5 -21 -29 -24v1q0 32 -4 44v17q0 11 -1 25t-1 24v18
q0 44 3 136q2 46 3 79.5t1 56.5q0 42 -2 50h1q-6 28 -33 39q-14 36 -68 36q-29 -2 -49 -6.5t-20 -2.5q-95 -11 -95 -61q0 -13 7 -30q3 -8 6 -18l1 -5v-1q7 -32 7 -102q0 -23 -1 -50.5t-3 -60.5t-3 -61t-1 -51q0 -101 6 -174q9 -107 73 -156q54 -70 177 -70q69 0 137 18
q106 27 120 179q4 37 5.5 80.5t1.5 94.5v40t-1 56t-1 56v40q0 88 3 117v-1q9 45 9 65zM434 887q0 -12 -58 -12h-32q-18 0 -37 16q-1 1 -8.5 8t-21.5 21q-8 -11 -16 -19.5t-16 -16.5q-6 -6 -109 -6q-11 0 -11 13q0 7 75 85q15 16 34 16h90q23 0 61 -42q12 -16 24 -31.5
t25 -31.5zM472 863l-42 52.5t-29 36.5q-11 17 -37 33q-26 17 -40 17h-91q-22 0 -40 -19q-78 -81 -78 -92q0 -23 32 -23q-2 -6 -2 -10q0 -20 21 -20q107 0 115 8q9 10 15.5 17t11.5 12q26 -29 40 -35q15 -5 54 -5h43q29 5 29 22q-1 2 -1 3t-1 3z" />
    <glyph glyph-name="Udieresis" unicode="&#xdc;" horiz-adv-x="583" 
d="M523 736q0 -18 -9 -63q-3 -29 -3 -118v-40t1 -56t1 -56v-40q0 -51 -1.5 -94.5t-5.5 -79.5q-13 -144 -113 -171q-68 -18 -134 -18q-195 0 -210 188q-6 75 -6 173q0 19 1 46.5t3 64.5q2 38 3 65.5t1 46.5q0 72 -7 104q-1 3 -1.5 6.5t-2.5 7.5q-10 30 -10 38q0 42 86 51
q45 9 68 9q54 0 61 -37q1 -1 1 -48q0 -23 -1 -56.5t-3 -79.5q-3 -92 -3 -136q0 -7 0.5 -28.5t1.5 -57.5q4 -9 4 -42q0 -41 32 -41q41 0 47 30q2 16 3 31.5t2 30.5q6 82 6 150q0 37 -2 73t-6 72q-2 6 -3 21q-11 42 -11 45q0 11 3 25q24 29 98 38q16 2 26 3t14 1
q37 0 53 -12.5t16 -45.5zM563 706q0 49 -34 62q-12 36 -75 36q-38 0 -80 -11q-48 -13 -68 -37q-3 -14 -3 -29q0 -6 11 -48q1 -15 3 -20v1q4 -36 6 -72t2 -72q0 -70 -6 -149q-1 -11 -1 -19t-1 -13q-2 -26 -3 -27q-5 -21 -29 -24v1q0 32 -4 44v17q0 11 -1 25t-1 24v18
q0 44 3 136q2 46 3 79.5t1 56.5q0 42 -2 50h1q-6 28 -33 39q-14 36 -68 36q-29 -2 -49 -6.5t-20 -2.5q-95 -11 -95 -61q0 -13 7 -30q3 -8 6 -18l1 -5v-1q7 -32 7 -102q0 -23 -1 -50.5t-3 -60.5t-3 -61t-1 -51q0 -101 6 -174q9 -107 73 -156q54 -70 177 -70q69 0 137 18
q106 27 120 179q4 37 5.5 80.5t1.5 94.5v40t-1 56t-1 56v40q0 88 3 117v-1q9 45 9 65zM268 956q0 -17 -6.5 -31.5t-17.5 -25.5t-25 -17.5t-29 -6.5q-41 0 -52 4q-16 6 -29.5 23.5t-13.5 34.5q0 42 31 64q28 21 70 21q31 0 51.5 -18t20.5 -48zM455 956q0 -16 -6.5 -30.5
t-17.5 -26t-25.5 -18t-29.5 -6.5q-18 0 -29 0.5t-16 1.5q-20 5 -35 24t-15 36q0 39 32 63q28 22 69 22q32 0 52.5 -18t20.5 -48zM495 926q0 44 -38 65q-24 41 -75 41q-44 0 -75 -24q-14 -10 -24 -25q-2 2 -5.5 4t-8.5 5q-21 40 -73 40q-46 0 -77 -24q-34 -25 -34 -71
q0 -40 41 -63q16 -28 39 -34h-1q12 -5 56 -5q52 0 77 49q4 -3 7.5 -5.5t6.5 -4.5q19 -29 48 -37q5 -1 16.5 -1.5t30.5 -0.5q35 0 62 27q27 28 27 64z" />
    <glyph glyph-name="Yacute" unicode="&#xdd;" horiz-adv-x="616" 
d="M561 758q0 -17 -26 -93q-1 -2 -2.5 -7.5t-5.5 -15.5l-122 -263q-24 -51 -24 -120q0 -14 1.5 -36t3.5 -51t3.5 -51t1.5 -36q0 -26 -1 -31q-5 -32 -36 -42q-17 -6 -59 -6q-14 0 -42 -3q-14 -1 -24.5 -1.5t-17.5 -0.5q-38 0 -51 22q-4 17 -5.5 29t-1.5 18q0 3 1.5 16t5.5 36
q2 17 3.5 32.5t1.5 29.5v70q0 93 -21 153q-9 26 -16.5 47t-13.5 38q-11 32 -18.5 55.5t-12.5 39.5q-20 55 -42 90q-17 26 -17 43q0 11 8 22q12 16 89 39q63 19 99 19q28 0 33 -20q13 -11 31 -119q16 -99 30 -99q15 0 25 49q10 41 10 63q0 23 -8 50q3 50 118 63q17 2 30 3
t23 1q49 0 49 -33zM601 728q0 31 -31 40q-6 33 -58 33q-10 0 -23.5 -1t-30.5 -3q-123 -14 -127 -75q8 -27 8 -48q0 -22 -10 -61q-1 -1 -1 -5q-2 8 -2.5 14.5t-1.5 10.5q-8 49 -16 79.5t-16 41.5q-4 19 -26 24q-1 3 -4 6q-6 26 -42 26q-38 0 -102 -19q-80 -23 -94 -43
q-10 -13 -10 -28q0 -19 19 -48q24 -38 41 -88l24 -72l-1 1q2 -6 3 -10t2 -6q8 -23 16 -46.5t17 -47.5v1q20 -62 20 -150v-70q0 -12 -1.5 -27t-3.5 -34v1q-4 -21 -5.5 -34.5t-1.5 -19.5q0 -19 7 -51q11 -17 28 -22q2 -6 2 -7q18 -28 61 -28h12q8 0 16 1q30 2 44 3t12 1
q45 0 62 7q39 14 43 48q1 5 1 33q0 14 -1.5 36t-3.5 51t-3.5 51t-1.5 36q0 65 23 116l21 45q61 129 62 133q17 38 27 59t12 26q1 1 1 2v1l7 21q27 81 27 96zM470 976q0 -18 -95 -101l-1 1h-29q-10 -1 -17 -1h-11q-40 0 -40 14q0 15 21 59t33 44h25t35 -1t35 -1h26q7 0 16 -6
q1 -5 1.5 -7t0.5 -1zM477 990q-13 10 -25 10h-26q-15 0 -35 1t-35 1h-25q-18 0 -42 -48q-22 -43 -22 -65q0 -19 30 -23v-7q0 -24 50 -24q57 0 66 4q97 85 97 107l-1 2l-2 12q-13 10 -29 10l2 6l-1 2z" />
    <glyph glyph-name="germandbls" unicode="&#xdf;" horiz-adv-x="565" 
d="M281 146q0 30 40 30q13 0 16 12v23q0 7 -0.5 17.5t-1.5 24.5t-1 24v18q0 20 -15 59q-1 4 -3.5 10.5t-6.5 15.5q-13 12 -32 44q-8 26 -8 49q0 27 18 69q18 43 18 56q0 4 -3.5 10.5t-8.5 12.5t-11 10.5t-10 4.5q-2 0 -3 -1h-4l-5 -5q-12 -15 -14 -48q1 5 1 -8v-44
q0 -4 -0.5 -13t-1.5 -23t-1 -23v-13q0 -18 7 -49q7 -29 7 -48q0 -2 -2.5 -15.5t-2.5 -34.5q0 -23 1 -57.5t3 -80.5t3 -80t1 -57q-17 -35 -72 -35h-35h-21q-6 -1 -10 -1h-5q-12 0 -22 10q-13 27 -13 74v65q0 32 1 63l2 129q-4 7 -29 16q-24 10 -25 28q-3 40 -3 85q0 56 10 75
q3 7 18 15q14 7 16 9q7 231 177 231q10 0 33 -3q2 0 8 -0.5t14 -1.5q51 -6 85 -34q60 -50 60 -130q0 -4 1.5 -18t1.5 -18q0 -16 -12 -44q-11 -30 -11 -43q0 -19 13 -51q5 -13 10 -25.5t10 -25.5q43 -123 43 -223q0 -184 -145 -184q-80 0 -80 58v89zM306 -1q16 -40 85 -40
q155 0 155 194q0 98 -45 229q-6 13 -9 22q-2 6 -5 12.5t-5 13.5q-12 30 -12 48q0 8 2.5 17.5t7.5 22.5v-1q13 30 13 48q0 2 -0.5 7.5t-1.5 11.5t-1 10v7q0 86 -64 138q-1 0 -3 2q-11 13 -27 28q-18 15 -41 23.5t-49 12.5q-3 0 -6.5 0.5t-5.5 0.5h2q-5 1 -12 1q-21 3 -34 3
q-178 0 -187 -236l-4 -2l-6 -3q-19 -10 -23 -20v1q-11 -19 -11 -80q0 -46 3 -86q1 -22 31 -36q3 -15 22 -26l-1 -110q-1 -31 -1 -63v-65q0 -23 3.5 -43t11.5 -37q12 -12 23 -13q3 -9 7 -17q14 -14 30 -14h6t10 1h55q58 0 81 40q2 -1 3 -1t3 -1zM300 374q1 -1 1 -2t1 -2
l7 -16q15 -39 15 -59v-18t1 -25q0 -4 0.5 -8t0.5 -7q1 -9 1 -15v-11v-21q-1 -4 -6 -4q-17 0 -26 -4q-2 32 -2 56v43q0 14 1.5 26t2.5 18q0 2 0.5 3.5t0.5 2.5q0 9 -1.5 21.5t-5.5 28.5q-1 2 -1 3t-1 3q3 -4 6 -7t5 -6zM289 575q1 4 3 10q-2 -6 -3 -10z" />
    <glyph glyph-name="agrave" unicode="&#xe0;" horiz-adv-x="514" 
d="M263 269q0 36 -25 36q-1 0 -8 -1t-9 -1q-26 -12 -26 -50q0 -21 17 -41q7 -1 11 -1.5t5 -0.5q19 0 23 10q12 25 12 49zM454 180q4 -141 -76 -171q-17 -6 -36 -9h-3q-15 0 -38 20q-23 21 -31 21q-5 0 -33 -20q-25 -19 -77 -19q-13 0 -22.5 0.5t-16.5 1.5q-46 8 -71 63
q-21 45 -21 98q0 124 101 196q13 10 59 27q40 16 56 32q23 23 23 64q0 3 -6 15l-6 12q-11 3 -18 3q-21 0 -21 -19q0 -3 8 -21l8 -18q0 -4 -11 -18q-31 -37 -91 -37q-70 0 -85 39q-6 16 -6 49q0 37 16 59q63 87 243 87q129 0 129 -129q0 -14 -2 -34.5t-6 -48.5
q-4 -27 -6 -47.5t-2 -34.5q0 -29 6 -53l34 -37zM494 150l-2 75l-35 37q-2 10 -3.5 22t-1.5 27q0 14 2 34.5t6 47.5q4 28 6 48.5t2 34.5q0 85 -51 118q-33 51 -118 51q-187 0 -251 -91q-18 -26 -18 -65q0 -35 7 -53q8 -23 31 -34q12 -28 51 -37q-100 -72 -100 -200
q0 -46 16 -87q17 -48 50 -71q28 -36 64 -42q6 -1 16.5 -1.5t24.5 -0.5q51 0 83 21q22 17 27 17t25 -18q23 -22 44 -22h5q10 2 19.5 4.5t17.5 5.5q87 32 83 179zM242 224q-1 -3 -7 -4v3q0 29 18 40q-1 -8 -3.5 -18t-7.5 -21zM291 718q-5 -4 -88 -4h-2q-1 0 -5 1
q-95 86 -95 101q0 13 44 13h15l23 -1l5 -1h2h-1q9 0 26 2t26 2q18 0 54 -103zM335 697q-23 64 -23 65q-19 46 -39 49q-17 30 -32 30q-8 0 -24.5 -2t-24.5 -2q-5 0 -16 1t-16 1h-14q-55 0 -55 -23q0 -25 131 -141q5 -1 7 -1h3q87 0 97 7z" />
    <glyph glyph-name="aacute" unicode="&#xe1;" horiz-adv-x="515" 
d="M261 269q0 36 -25 36q-1 0 -8 -1t-9 -1q-26 -12 -26 -50q0 -21 17 -41q7 -1 11 -1.5t5 -0.5q19 0 23 10q12 25 12 49zM452 180q4 -141 -76 -171q-17 -6 -36 -9h-3q-15 0 -38 20q-23 21 -31 21q-5 0 -33 -20q-25 -19 -77 -19q-13 0 -22.5 0.5t-16.5 1.5q-46 8 -71 63
q-21 45 -21 98q0 124 101 196q13 10 59 27q40 16 56 32q23 23 23 64q0 3 -6 15l-6 12q-11 3 -18 3q-21 0 -21 -19q0 -3 8 -21l8 -18q0 -4 -11 -18q-31 -37 -91 -37q-70 0 -85 39q-6 16 -6 49q0 37 16 59q63 87 243 87q129 0 129 -129q0 -14 -2 -34.5t-6 -48.5
q-4 -27 -6 -47.5t-2 -34.5q0 -29 6 -53l34 -37zM492 150l-2 75l-35 37q-2 10 -3.5 22t-1.5 27q0 14 2 34.5t6 47.5q4 28 6 48.5t2 34.5q0 85 -51 118q-33 51 -118 51q-187 0 -251 -91q-18 -26 -18 -65q0 -35 7 -53q8 -23 31 -34q12 -28 51 -37q-100 -72 -100 -200
q0 -46 16 -87q17 -48 50 -71q28 -36 64 -42q6 -1 16.5 -1.5t24.5 -0.5q51 0 83 21q22 17 27 17t25 -18q23 -22 44 -22h5q10 2 19.5 4.5t17.5 5.5q87 32 83 179zM240 224q-1 -3 -7 -4v3q0 29 18 40q-1 -8 -3.5 -18t-7.5 -21zM428 816q0 -18 -95 -101l-1 1h-29q-10 -1 -17 -1
h-11q-40 0 -40 14q0 15 21 59t33 44h25t35 -1t35 -1h26q7 0 16 -6q1 -5 1.5 -7t0.5 -1zM435 830q-13 10 -25 10h-26q-15 0 -35 1t-35 1h-25q-18 0 -42 -48q-22 -43 -22 -65q0 -19 30 -23v-7q0 -24 50 -24q57 0 66 4q97 85 97 107l-1 2l-2 12q-13 10 -29 10l2 6l-1 2z" />
    <glyph glyph-name="acircumflex" unicode="&#xe2;" horiz-adv-x="516" 
d="M263 269q0 36 -25 36q-1 0 -8 -1t-9 -1q-26 -12 -26 -50q0 -21 17 -41q7 -1 11 -1.5t5 -0.5q19 0 23 10q12 25 12 49zM454 180q4 -141 -76 -171q-17 -6 -36 -9h-3q-15 0 -38 20q-23 21 -31 21q-5 0 -33 -20q-25 -19 -77 -19q-13 0 -22.5 0.5t-16.5 1.5q-46 8 -71 63
q-21 45 -21 98q0 124 101 196q13 10 59 27q40 16 56 32q23 23 23 64q0 3 -6 15l-6 12q-11 3 -18 3q-21 0 -21 -19q0 -3 8 -21l8 -18q0 -4 -11 -18q-31 -37 -91 -37q-70 0 -85 39q-6 16 -6 49q0 37 16 59q63 87 243 87q129 0 129 -129q0 -14 -2 -34.5t-6 -48.5
q-4 -27 -6 -47.5t-2 -34.5q0 -29 6 -53l34 -37zM494 150l-2 75l-35 37q-2 10 -3.5 22t-1.5 27q0 14 2 34.5t6 47.5q4 28 6 48.5t2 34.5q0 85 -51 118q-33 51 -118 51q-187 0 -251 -91q-18 -26 -18 -65q0 -35 7 -53q8 -23 31 -34q12 -28 51 -37q-100 -72 -100 -200
q0 -46 16 -87q17 -48 50 -71q28 -36 64 -42q6 -1 16.5 -1.5t24.5 -0.5q51 0 83 21q22 17 27 17t25 -18q23 -22 44 -22h5q10 2 19.5 4.5t17.5 5.5q87 32 83 179zM242 224q-1 -3 -7 -4v3q0 29 18 40q-1 -8 -3.5 -18t-7.5 -21zM408 727q0 -12 -58 -12h-32q-18 0 -37 16
q-1 1 -8.5 8t-21.5 21q-8 -11 -16 -19.5t-16 -16.5q-6 -6 -109 -6q-11 0 -11 13q0 7 75 85q15 16 34 16h90q23 0 61 -42q12 -16 24 -31.5t25 -31.5zM446 703l-42 52.5t-29 36.5q-11 17 -37 33q-26 17 -40 17h-91q-22 0 -40 -19q-78 -81 -78 -92q0 -23 32 -23q-2 -6 -2 -10
q0 -20 21 -20q107 0 115 8q9 10 15.5 17t11.5 12q26 -29 40 -35q15 -5 54 -5h43q29 5 29 22q-1 2 -1 3t-1 3z" />
    <glyph glyph-name="atilde" unicode="&#xe3;" horiz-adv-x="517" 
d="M263 269q0 36 -25 36q-1 0 -8 -1t-9 -1q-26 -12 -26 -50q0 -21 17 -41q7 -1 11 -1.5t5 -0.5q19 0 23 10q12 25 12 49zM454 180q4 -141 -76 -171q-17 -6 -36 -9h-3q-15 0 -38 20q-23 21 -31 21q-5 0 -33 -20q-25 -19 -77 -19q-13 0 -22.5 0.5t-16.5 1.5q-46 8 -71 63
q-21 45 -21 98q0 124 101 196q13 10 59 27q40 16 56 32q23 23 23 64q0 3 -6 15l-6 12q-11 3 -18 3q-21 0 -21 -19q0 -3 8 -21l8 -18q0 -4 -11 -18q-31 -37 -91 -37q-70 0 -85 39q-6 16 -6 49q0 37 16 59q63 87 243 87q129 0 129 -129q0 -14 -2 -34.5t-6 -48.5
q-4 -27 -6 -47.5t-2 -34.5q0 -29 6 -53l34 -37zM494 150l-2 75l-35 37q-2 10 -3.5 22t-1.5 27q0 14 2 34.5t6 47.5q4 28 6 48.5t2 34.5q0 85 -51 118q-33 51 -118 51q-187 0 -251 -91q-18 -26 -18 -65q0 -35 7 -53q8 -23 31 -34q12 -28 51 -37q-100 -72 -100 -200
q0 -46 16 -87q17 -48 50 -71q28 -36 64 -42q6 -1 16.5 -1.5t24.5 -0.5q51 0 83 21q22 17 27 17t25 -18q23 -22 44 -22h5q10 2 19.5 4.5t17.5 5.5q87 32 83 179zM242 224q-1 -3 -7 -4v3q0 29 18 40q-1 -8 -3.5 -18t-7.5 -21zM393 789q0 -79 -56 -79q-22 0 -71 17t-67 17
q-2 0 -11 -14t-24 -14h-15q-5 -1 -14 -1q-38 0 -38 34q0 45 10 61q14 23 55 23q21 0 62 -15q44 -14 64 -14q3 0 6.5 3.5l8 8t9.5 8t10 3.5q3 0 13.5 -1t12.5 -1q11 0 18 -0.5t11 -1.5q16 -4 16 -21v-13zM433 772q0 25 -23 31v-1q-2 0 -3 1h-4q-1 24 -23 30v-1q-15 3 -32 3
q-6 0 -10 0.5t-10 1.5h-6q-15 0 -29 -17q-2 -2 -3 -3.5t-2 -2.5q-15 0 -60 14v-1q-39 16 -66 16q-46 0 -64 -28q-11 -17 -11 -66q0 -36 31 -43q6 -31 47 -31q10 0 15 1h14q23 0 33 19l3 9q21 -2 69 -18q44 -16 68 -16q66 0 66 89v13z" />
    <glyph glyph-name="adieresis" unicode="&#xe4;" horiz-adv-x="518" 
d="M264 269q0 36 -25 36q-1 0 -8 -1t-9 -1q-26 -12 -26 -50q0 -21 17 -41q7 -1 11 -1.5t5 -0.5q19 0 23 10q12 25 12 49zM455 180q4 -141 -76 -171q-17 -6 -36 -9h-3q-15 0 -38 20q-23 21 -31 21q-5 0 -33 -20q-25 -19 -77 -19q-13 0 -22.5 0.5t-16.5 1.5q-46 8 -71 63
q-21 45 -21 98q0 124 101 196q13 10 59 27q40 16 56 32q23 23 23 64q0 3 -6 15l-6 12q-11 3 -18 3q-21 0 -21 -19q0 -3 8 -21l8 -18q0 -4 -11 -18q-31 -37 -91 -37q-70 0 -85 39q-6 16 -6 49q0 37 16 59q63 87 243 87q129 0 129 -129q0 -14 -2 -34.5t-6 -48.5
q-4 -27 -6 -47.5t-2 -34.5q0 -29 6 -53l34 -37zM495 150l-2 75l-35 37q-2 10 -3.5 22t-1.5 27q0 14 2 34.5t6 47.5q4 28 6 48.5t2 34.5q0 85 -51 118q-33 51 -118 51q-187 0 -251 -91q-18 -26 -18 -65q0 -35 7 -53q8 -23 31 -34q12 -28 51 -37q-100 -72 -100 -200
q0 -46 16 -87q17 -48 50 -71q28 -36 64 -42q6 -1 16.5 -1.5t24.5 -0.5q51 0 83 21q22 17 27 17t25 -18q23 -22 44 -22h5q10 2 19.5 4.5t17.5 5.5q87 32 83 179zM243 224q-1 -3 -7 -4v3q0 29 18 40q-1 -8 -3.5 -18t-7.5 -21zM237 796q0 -17 -6.5 -31.5t-17.5 -25.5t-25 -17.5
t-29 -6.5q-41 0 -52 4q-16 6 -29.5 23.5t-13.5 34.5q0 42 31 64q28 21 70 21q31 0 51.5 -18t20.5 -48zM424 796q0 -16 -6.5 -30.5t-17.5 -26t-25.5 -18t-29.5 -6.5q-18 0 -29 0.5t-16 1.5q-20 5 -35 24t-15 36q0 39 32 63q28 22 69 22q32 0 52.5 -18t20.5 -48zM464 766
q0 44 -38 65q-24 41 -75 41q-44 0 -75 -24q-14 -10 -24 -25q-2 2 -5.5 4t-8.5 5q-21 40 -73 40q-46 0 -77 -24q-34 -25 -34 -71q0 -40 41 -63q16 -28 39 -34h-1q12 -5 56 -5q52 0 77 49q4 -3 7.5 -5.5t6.5 -4.5q19 -29 48 -37q5 -1 16.5 -1.5t30.5 -0.5q35 0 62 27
q27 28 27 64z" />
    <glyph glyph-name="aring" unicode="&#xe5;" horiz-adv-x="515" 
d="M262 269q0 36 -25 36q-1 0 -8 -1t-9 -1q-26 -12 -26 -50q0 -21 17 -41q7 -1 11 -1.5t5 -0.5q19 0 23 10q12 25 12 49zM291 711q0 14 -10 23t-23 7q-12 -1 -21.5 -11.5t-9.5 -22.5q0 -29 31 -29q33 0 33 33zM453 180q4 -141 -76 -171q-17 -6 -36 -9h-3q-15 0 -38 20
q-23 21 -31 21q-5 0 -33 -20q-25 -19 -77 -19q-13 0 -22.5 0.5t-16.5 1.5q-46 8 -71 63q-21 45 -21 98q0 124 101 196q13 10 59 27q40 16 56 32q23 23 23 64q0 3 -6 15l-6 12q-11 3 -18 3q-21 0 -21 -19q0 -3 8 -21l8 -18q0 -4 -11 -18q-31 -37 -91 -37q-70 0 -85 39
q-6 16 -6 49q0 37 16 59q46 63 144 80l-1 1q-40 27 -40 85q0 32 27 58q28 26 61 29q29 2 52 -5q63 -18 63 -94q0 -28 -13 -44l-22 -22l-4 -2q105 -11 105 -128q0 -14 -2 -34.5t-6 -48.5q-4 -27 -6 -47.5t-2 -34.5q0 -29 6 -53l34 -37zM493 150l-2 75l-35 37q-2 10 -3.5 22
t-1.5 27q0 14 2 34.5t6 47.5q4 28 6 48.5t2 34.5q0 86 -51 118q-12 18 -29 29q14 20 14 49q0 67 -44 93q-28 46 -99 46h-13q-19 -2 -36.5 -10.5t-31 -22t-21.5 -30t-8 -34.5q0 -53 28 -81q-86 -20 -129 -79q-18 -26 -18 -65q0 -35 7 -53q8 -23 31 -34q12 -28 51 -37
q-100 -72 -100 -200q0 -46 16 -87q17 -48 50 -71q28 -36 64 -42q6 -1 16.5 -1.5t24.5 -0.5q51 0 83 21q22 17 27 17t25 -18q23 -22 44 -22h5q10 2 19.5 4.5t17.5 5.5q87 32 83 179zM241 224q-1 -3 -7 -4v3q0 29 18 40q-1 -8 -3.5 -18t-7.5 -21zM272 691l5 5z" />
    <glyph glyph-name="ae" unicode="&#xe6;" horiz-adv-x="724" 
d="M265 269q0 36 -25 36q-1 0 -8 -1t-9 -1q-26 -12 -26 -50q0 -21 17 -41q7 -1 11 -1.5t5 -0.5q19 0 23 10q12 25 12 49zM493 429q-1 2 -1 4t-1 4q-2 17 -3.5 26l-1.5 9q-6 19 -25 19h-4q-20 0 -29 -20q-2 -17 -6 -48q6 -10 26 -10q1 0 5 0.5t8 0.5q5 0 9 0.5l4 0.5
q19 0 19 14zM663 217q0 -42 -12 -87q-13 -51 -37 -78q-46 -52 -136 -52q-39 0 -81 17q-18 -12 -53 -17h-3q-15 0 -38 20q-23 21 -31 21q-5 0 -33 -20q-25 -19 -77 -19q-13 0 -22.5 0.5t-16.5 1.5q-46 8 -71 63q-21 45 -21 98q0 124 101 196q13 10 59 27q40 16 56 32
q23 23 23 64q0 3 -6 15l-6 12q-11 3 -18 3q-21 0 -21 -19q0 -3 8 -21l8 -18q0 -4 -11 -18q-31 -37 -91 -37q-70 0 -85 39q-6 16 -6 49q0 37 16 59q63 87 243 87q60 0 92 -26l4 3q31 24 98 24q66 0 98 -27q7 -8 21 -27q48 -74 48 -167q0 -37 -11 -83q-8 -11 -30 -15l-36 -3
q-2 -1 -18 -1q-10 0 -15 1h-57q-53 0 -61 -11v-8q0 -24 16 -40l4 -4q28 -28 55 -28l25 5l15 3l5 1q10 4 39 30q24 21 42 21q10 0 11 -1q17 -14 17 -65zM703 187q0 56 -21 73q-8 3 -14 3q-3 11 -7 15q21 6 30 20q11 46 11 87q0 95 -50 172q-7 10 -12 17t-10 12q-14 10 -15 11
l-1 2q-14 16 -14 17q-35 30 -105 30q-69 0 -103 -25q-35 24 -91 24q-187 0 -251 -91q-18 -26 -18 -65q0 -35 7 -53q8 -23 31 -34q12 -28 51 -37q-100 -72 -100 -200q0 -46 16 -87q17 -48 50 -71q28 -36 64 -42q6 -1 16.5 -1.5t24.5 -0.5q51 0 83 21q22 17 27 17t25 -18
q23 -22 44 -22h4q33 4 53 16q36 -16 80 -16q145 0 183 137v-1q12 45 12 90zM586 269q-13 -11 -22 -18.5t-14 -9.5l2 1q-10 -2 -13 -3t-7 -1l-10 -2t-11 -3h-2q-17 0 -30 10q-5 8 -5 22v3q9 6 51 6h56q3 -1 9 -1q-1 -2 -2 -2.5t-2 -1.5zM244 224q-1 -3 -7 -4v3q0 29 18 40
q-1 -8 -3.5 -18t-7.5 -21zM483 429q0 -4 -8.5 -4.5l-8.5 -0.5q2 11 3.5 16.5t9.5 8.5q0 -7 2 -9v-3q0 -1 1 -6z" />
    <glyph glyph-name="ccedilla" unicode="&#xe7;" horiz-adv-x="449" 
d="M391 231q0 -120 -66 -187q-32 -34 -90 -41q-2 -6 -3 -9.5t-2 -5.5q0 -6 15 -13q21 -11 23 -13q13 -11 12 -36q0 -7 -5 -29q-19 -56 -72 -61q-11 -1 -19 -1.5t-14 0.5q-16 1 -31 2t-15 11q2 10 3.5 15t1.5 7q0 7 8 28q13 1 23.5 2t18.5 2q12 4 12 15q-2 12 -12 15
q-6 0 -16 7q-4 4 -4 12q0 17 19 52q-150 22 -150 267q0 290 158 356q22 9 63 9q59 0 90 -31q48 -48 48 -122q0 -122 -112 -122q-10 0 -28 5q-19 6 -19 17q0 3 1 4q10 10 10 27q0 19 -22 25q-31 -4 -31 -58q0 -126 66 -126q53 0 102 52l6 1.5l2 0.5q8 0 25 -26q4 -17 4 -51z
M431 201q0 17 -1 30t-3 23q-21 30 -32 33q-19 31 -33 31q-3 0 -6.5 -1t-5.5 -1q-49 -52 -98 -52q-3 0 -13 2q-13 26 -13 84v13q9 -5 18 -8v1l4 -2v-2q0 -19 26 -27v1q16 -6 31 -6q122 0 122 132q0 78 -51 129q-10 8 -14 11q-15 18 -16 19q-34 34 -97 34q-44 0 -67 -10
q-164 -69 -164 -365q0 -184 83 -247q22 -27 54 -43q-6 -17 -6 -29t8 -20q12 -8 19 -9q1 0 3 -2v-6l-2 -2q-18 -2 -25.5 -3t-21.5 -1q-5 -11 -7.5 -20t-3.5 -14q1 -1 -4 -21q-1 -1 -1 -5q0 -22 31 -23v-2q-1 -1 -1 -5q0 -16 12 -20q7 -3 30 -3h22h13q6 0 10 1h3q56 0 82 74
q2 10 3 16.5t1 9.5v5q0 27 -16 39l1 -1q-6 4 -11 6l-6 3q-5 14 -10 18q52 9 84 41q69 70 69 194z" />
    <glyph glyph-name="egrave" unicode="&#xe8;" horiz-adv-x="482" 
d="M254 428q0 -11 -6 43q-6 19 -25 19h-4q-27 0 -35 -41l-3 -15q0 -21 29 -21h13q3 1 13 1q18 0 18 14zM425 217q0 -41 -13 -87q-15 -57 -36 -79q-47 -51 -136 -51q-170 0 -204 223q-4 23 -5.5 44.5t-1.5 41.5q0 163 89 264q22 25 41 38q34 24 98 24q69 0 98 -27
q7 -8 21 -27q47 -71 47 -167q0 -47 -10 -83q-11 -15 -66 -18q-4 -1 -18 -1q-6 0 -16 0.5t-21 0.5q-10 0 -19.5 0.5t-15.5 0.5q-54 0 -61 -12q-1 -1 -1 -8q0 -27 24 -49q25 -22 52 -22q39 0 84 39q23 20 42 20q9 0 11 -1q17 -14 17 -64zM465 187q0 55 -21 72q-11 3 -14 3
q-1 5 -8 17q22 7 31 19q10 36 10 86q0 100 -49 173q-19 28 -36 38q-5 8 -9.5 13t-6.5 7q-32 30 -105 30q-66 0 -104 -26q-11 -8 -22 -18t-21 -21q-91 -103 -91 -271q0 -22 1.5 -43.5t5.5 -44.5q21 -137 93 -193q54 -67 151 -67q93 0 143 53q24 25 39 82q13 48 13 91z
M348 270q-43 -37 -77 -37q-15 0 -30 9q-6 10 -6 22v4q6 6 52 6q11 0 31.5 -1t31.5 -1zM244 428q0 -4 -8 -4h-11q4 18 15 24l0.5 -3.5t2.5 -10.5q1 -3 1 -6zM258 718q-5 -4 -88 -4h-2q-1 0 -5 1q-95 86 -95 101q0 13 44 13h15l23 -1l5 -1h2h-1q9 0 26 2t26 2q18 0 54 -103z
M302 697q-23 64 -23 65q-19 46 -39 49q-17 30 -32 30q-8 0 -24.5 -2t-24.5 -2q-5 0 -16 1t-16 1h-14q-55 0 -55 -23q0 -25 131 -141q5 -1 7 -1h3q87 0 97 7z" />
    <glyph glyph-name="eacute" unicode="&#xe9;" horiz-adv-x="483" 
d="M251 428q0 -11 -6 43q-6 19 -25 19h-4q-27 0 -35 -41l-3 -15q0 -21 29 -21h13q3 1 13 1q18 0 18 14zM422 217q0 -41 -13 -87q-15 -57 -36 -79q-47 -51 -136 -51q-170 0 -204 223q-4 23 -5.5 44.5t-1.5 41.5q0 163 89 264q22 25 41 38q34 24 98 24q69 0 98 -27
q7 -8 21 -27q47 -71 47 -167q0 -47 -10 -83q-11 -15 -66 -18q-4 -1 -18 -1q-6 0 -16 0.5t-21 0.5q-10 0 -19.5 0.5t-15.5 0.5q-54 0 -61 -12q-1 -1 -1 -8q0 -27 24 -49q25 -22 52 -22q39 0 84 39q23 20 42 20q9 0 11 -1q17 -14 17 -64zM462 187q0 55 -21 72q-11 3 -14 3
q-1 5 -8 17q22 7 31 19q10 36 10 86q0 100 -49 173q-19 28 -36 38q-5 8 -9.5 13t-6.5 7q-32 30 -105 30q-66 0 -104 -26q-11 -8 -22 -18t-21 -21q-91 -103 -91 -271q0 -22 1.5 -43.5t5.5 -44.5q21 -137 93 -193q54 -67 151 -67q93 0 143 53q24 25 39 82q13 48 13 91z
M345 270q-43 -37 -77 -37q-15 0 -30 9q-6 10 -6 22v4q6 6 52 6q11 0 31.5 -1t31.5 -1zM241 428q0 -4 -8 -4h-11q4 18 15 24l0.5 -3.5t2.5 -10.5q1 -3 1 -6zM410 816q0 -18 -95 -101l-1 1h-29q-10 -1 -17 -1h-11q-40 0 -40 14q0 15 21 59t33 44h25t35 -1t35 -1h26q7 0 16 -6
q1 -5 1.5 -7t0.5 -1zM417 830q-13 10 -25 10h-26q-15 0 -35 1t-35 1h-25q-18 0 -42 -48q-22 -43 -22 -65q0 -19 30 -23v-7q0 -24 50 -24q57 0 66 4q97 85 97 107l-1 2l-2 12q-13 10 -29 10l2 6l-1 2z" />
    </font>
</defs>
</svg>
