<?xml version="1.0" standalone="no"?>
<!DOCTYPE svg PUBLIC "-//W3C//DTD SVG 1.1//EN" "http://www.w3.org/Graphics/SVG/1.1/DTD/svg11.dtd" >
<svg>
<metadata>
Created by FontForge 20120731 at Fri Oct 18 13:56:10 2019
 By www-data
Zara (C) 2011
</metadata>
<defs>
<font id="CherryPie" horiz-adv-x="1155" >
  <font-face 
    font-family="Cherry Pie"
    font-weight="400"
    font-style="italic"
    font-stretch="normal"
    units-per-em="2048"
    panose-1="0 0 0 0 0 0 0 0 0 0"
    ascent="1638"
    descent="-410"
    x-height="924"
    cap-height="1323"
    bbox="52 -462 8347 2079"
    underline-thickness="143"
    underline-position="-62"
    slope="5"
    unicode-range="U+0020-007E"
  />
<missing-glyph horiz-adv-x="500" 
d="M63 0v800h375v-800h-375zM125 63h250v675h-250v-675z" />
    <glyph glyph-name=".notdef" unicode="`" horiz-adv-x="500" 
d="M63 0v800h375v-800h-375zM125 63h250v675h-250v-675z" />
    <glyph glyph-name=".null" horiz-adv-x="0" 
 />
    <glyph glyph-name="space" unicode=" " horiz-adv-x="630" 
 />
    <glyph glyph-name="space" horiz-adv-x="630" 
 />
    <glyph glyph-name="exclam" unicode="!" horiz-adv-x="336" 
d="M52 210l21 -84h21l63 21v0v0v0v0v84l-21 21l-63 -21v0l-21 -21v0v0v0zM94 966l21 -420h21l21 21v0v0l21 42l21 105l21 105l21 189l21 189v273v105l21 42l-42 21l-63 -21v0l-21 -21v0v-21l-42 -441v-21l-21 -147v0z" />
    <glyph glyph-name="quotedbl" unicode="&#x22;" horiz-adv-x="672" 
d="M52 1533l21 -147l42 -21v-42l63 -21l63 21l-21 189v21l21 42l21 42l42 42l21 21l-42 63v0v21h-21l-84 -21v0l-21 -21v0l-21 -21v0l-21 -21v0v-21l-42 -63l-21 -63v0v0zM430 1575l21 -231v21l21 -63l21 -42l84 -21h42v21l-21 42l-21 42l-21 63v126l21 84l42 42v21l-84 21
v0l-42 -21l-42 -63l-21 -42v0v0z" />
    <glyph glyph-name="quotedbl" unicode="&#x201d;" horiz-adv-x="672" 
d="M52 1533l21 -147l42 -21v-42l63 -21l63 21l-21 189v21l21 42l21 42l42 42l21 21l-42 63v0v21h-21l-84 -21v0l-21 -21v0l-21 -21v0l-21 -21v0v-21l-42 -63l-21 -63v0v0zM430 1575l21 -231v21l21 -63l21 -42l84 -21h42v21l-21 42l-21 42l-21 63v126l21 84l42 42v21l-84 21
v0l-42 -21l-42 -63l-21 -42v0v0z" />
    <glyph glyph-name="quotedbl" unicode="&#x201c;" horiz-adv-x="672" 
d="M52 1533l21 -147l42 -21v-42l63 -21l63 21l-21 189v21l21 42l21 42l42 42l21 21l-42 63v0v21h-21l-84 -21v0l-21 -21v0l-21 -21v0l-21 -21v0v-21l-42 -63l-21 -63v0v0zM430 1575l21 -231v21l21 -63l21 -42l84 -21h42v21l-21 42l-21 42l-21 63v126l21 84l42 42v21l-84 21
v0l-42 -21l-42 -63l-21 -42v0v0z" />
    <glyph glyph-name="numbersign" unicode="#" horiz-adv-x="1008" 
d="M52 1596l21 -84h21l21 21v0v0l315 21l-42 -189l-168 -21l-105 -21l-21 -21l21 -63l336 -21l21 -168v21l21 -21l42 42l21 126v42l105 -21v0v-21l21 -147l21 -21l21 -63h21l42 21v0v0l-21 210v42l63 21l126 21l-21 42l-42 42l-147 21l-21 168v42l63 21l42 21l21 21l-42 42
l-84 42v189v-126l21 42l-42 84l-42 -21l-42 -84l-21 -126l-21 -21l-42 42l-42 105l-21 63l-42 42h-21l-21 -63v0v-210l-189 -21l-84 -21l-42 -21l-21 -21v0zM619 1575l-42 -189l-21 42l21 147h21h21z" />
    <glyph glyph-name="dollar" unicode="$" horiz-adv-x="1344" 
d="M52 861l21 -147l21 -42l42 -21v-42l42 -21l21 -42l63 -21l21 -42l63 -21l42 -21l42 -21l63 -21l63 -21l84 -21l105 -21l63 -21v-273l21 -42l63 42l21 126v105l21 42l147 42l63 21l21 21l42 21l21 42l42 42l21 126l-21 84l-21 63l-21 42l-42 42l-21 42l-42 21l-21 42
l-42 21l-42 42l-42 21l-21 21l-42 21l21 441l63 -21l42 -21l21 -42l21 -42l42 -21l21 -63l84 -21l21 21v0v0v0v0v84l-21 42l-21 42l-42 63l-21 42l-42 21l-42 42l-42 21l-84 21l-21 147l-21 42l-21 42l-84 -21v-126v-21v0l21 -21l-42 -63l-105 -21l-42 -21l-63 -21l-42 -21
l-42 -21l-42 -42h-21l-42 -42l-21 -21l-42 -63v-105l21 -63l42 -21l21 -42h42l42 -21l42 -21l42 -21l42 -21l42 -21l63 -21l42 -21l21 -21l21 -315v0l-42 -210l-126 42l-63 21l-63 21l-42 21l-42 21l-42 21l-42 21l-42 42l-42 21l-21 42l-42 21l-21 42l-21 42l-21 63h-21
l-42 -63v0v0zM766 1302l-21 -126v0h-42l-63 42l-42 21l-42 21l-42 21l-42 21l-21 21l21 84h21l21 21v0v0l84 42l42 21l63 21h84l-21 -210v0v0zM934 945l63 -42l21 -42l63 -21l21 -42l21 -42l42 -21v-42v-126l-21 -42l-42 -21l-84 -21h-84l-21 273v42v147h21z" />
    <glyph glyph-name="percent" unicode="%" horiz-adv-x="924" 
d="M52 1386l21 -63l21 -21l105 42l-42 105v0v21h-21l-42 -21l-42 -63v0v0zM136 525l21 -63l63 42l21 21l42 42v21l42 42v21l21 42l21 42l21 42l21 42l21 42l21 42l21 42l21 42l21 42l21 63l21 42l21 42l21 42l21 42l21 42l21 63l21 42l21 63l21 63l21 84v42l-21 21l-42 -21
l-42 -42l-21 -42l-21 -42l-21 -42l-21 -42l-21 -63l-21 -42l-21 -42l-21 -42l-21 -42l-21 -42l-21 -42l-21 -42l-21 -42l-21 -63l-21 -42l-21 -42l-21 -42l-21 -63l-21 -42l-21 -42l-21 -42l-21 -42l-21 -42l-21 -63v0v0zM724 735l21 -105h21l84 21v0v0v0v0v0l21 42v126h-21
l-63 -21l-42 -42l-21 -21v0z" />
    <glyph glyph-name="ampersand" unicode="&#x26;" horiz-adv-x="1344" 
d="M52 756l21 -168l21 -42l21 -42l42 -21l21 -42l42 -21l42 -21l42 -21l42 -21l63 -21l84 -21h294l84 21l42 21l63 21l21 21l42 -21v-42l42 -21v-63l42 -21v-42l21 -21l42 21l21 63l-21 63l-21 84l-21 42l-21 42v21l42 42l21 21l21 42l42 42v21l21 42v126h-21l-42 -21
l-42 -63l-21 -21l-42 -42l-21 -21h-42l-21 21l-21 42l-21 42l-21 21l-21 42l-21 42l-21 63l-21 42l-21 42v42l84 21l84 21l84 21l63 21l42 21l21 21l42 42v21l21 42v105l-21 63l-21 42l-21 42l-42 21l-21 42l-42 21l-21 21l-42 21l-84 21h-147l-63 -21l-42 -21l-42 -42
l-21 -21l-21 -42l-21 -84v-231v-21l-147 -21l-42 -21l-42 -21l-42 -21l-42 -21l-42 -42l-42 -21l-42 -42l-21 -21l-21 -42l-21 -21l-21 -42l-21 -42l-21 -84v0v0zM682 1050l21 -105l21 -42l21 -42l21 -42l21 -42l21 -42l21 -42l21 -42l42 -21l21 -84v-42h-21l-63 -21
l-63 -21h-189l-105 21l-63 21l-42 21l-42 21l-21 42l-42 21l-21 42v126l21 42l42 42l21 21l42 42l21 21l63 42l42 21l42 21l63 21h63h21zM913 1260h-105l-21 84v126l21 42l63 42h147l63 -21l42 -21l21 -42l42 -21v-42v-84l-21 -21l-63 -21l-189 -21v0z" />
    <glyph glyph-name="quotesingle" unicode="'" horiz-adv-x="378" 
d="M52 1575l21 -63h42l42 -21l21 -42l42 -21l-42 -126l-21 -42v-63l63 21l21 21l42 42l21 21l21 42v126l-21 42l-21 42l-42 21l-168 21h84h-105v-21z" />
    <glyph glyph-name="quotesingle" unicode="&#x2019;" horiz-adv-x="378" 
d="M52 1575l21 -63h42l42 -21l21 -42l42 -21l-42 -126l-21 -42v-63l63 21l21 21l42 42l21 21l21 42v126l-21 42l-21 42l-42 21l-168 21h84h-105v-21z" />
    <glyph glyph-name="quotesingle" unicode="&#x2018;" horiz-adv-x="378" 
d="M52 1575l21 -63h42l42 -21l21 -42l42 -21l-42 -126l-21 -42v-63l63 21l21 21l42 42l21 21l21 42v126l-21 42l-21 42l-42 21l-168 21h84h-105v-21z" />
    <glyph glyph-name="parenleft" unicode="(" horiz-adv-x="735" 
d="M52 1134l21 -273l21 -21l21 -147l21 -21l21 -63l21 -42l42 -21v-42l42 -21l21 -63l42 -21l42 -21l21 -42l42 -21l42 -21l42 -21l21 -42h42h42l21 21l-42 42l-21 42l-42 42l-21 42l-42 21l-21 42l-42 42l-21 42l-42 42l-21 42l-21 42l-21 63l-21 63l-21 126v231l21 126
l21 63l21 63l21 42l21 42l21 42l21 42l21 42l42 42l21 63l21 42l42 42v21l21 42l63 42l42 21l21 21l-42 42l-126 -21v0l-42 -21l-42 -21l-21 -42l-21 -21l-42 -63l-21 -21l-42 -63l-21 -42l-21 -21l-42 -84l-21 -21l-21 -42l-21 -42l-21 -63l-21 -63l-21 -84l-21 -147v0v0z
" />
    <glyph glyph-name="parenright" unicode=")" horiz-adv-x="882" 
d="M52 189l21 -84h63h-42l21 -21l63 21l21 21v0v0v0l84 42l42 21l21 21l42 42l21 21l42 42l21 21l42 42l21 21l21 42l42 42l21 42l21 42l21 42l42 42l21 84l21 42l21 42l21 63l21 84l21 126v336l-21 84l-21 63l-21 42l-21 42l-21 42l-21 42l-42 63l-21 42l-42 42l-21 42
l-42 21l-21 42l-21 21l-42 21l-21 -21v-42l21 -42l42 -21v-42l42 -21l21 -63l42 -21l21 -84l21 -42l21 -42l21 -42l21 -63l21 -105v-231l-21 -126l-21 -84l-21 -63l-21 -42l-21 -42l-21 -42l-21 -42l-21 -42l-21 -42l-21 -21l-42 -63l-21 -42l-21 -21l-42 -42l-21 -21
l-42 -42l-21 -21l-42 -42l-21 -21l-42 -42l-21 -21l-42 -21l-84 -21v0z" />
    <glyph glyph-name="asterisk" unicode="*" horiz-adv-x="1218" 
d="M52 1512l21 -84l84 -21l63 -21l63 -21l63 -21l63 -21l21 -21l-42 -189l-21 -21l-42 -42l-21 -21l-42 -42v-84l84 21l42 21l21 21l42 21l21 21l42 21l21 21l63 42l21 21l42 42l42 21h21l42 -21l21 -42h42l21 -42l42 -21l21 -42l42 -21l21 -42l42 21l42 21l-42 105h21
l-42 42l-21 42l-21 42l-21 42l-21 42v63l42 42l21 21l42 42l21 21l42 42l21 21l42 42l21 21l-42 63v0v21h-21l-168 -21l-42 -21h-126l-42 63l-21 63l-21 42l-21 63l-21 63l-21 42l-21 42h-84l-21 -63v0l-42 -378l21 105l-42 -105l-210 -21l-42 -21l-105 -21v0l-21 -21v0v0v0
zM619 1638h-21v0h21zM682 1491l21 -63v-63l-21 -21l-42 21l-42 21l-21 21l21 63h21l42 21v0v0v0v0h21zM871 1512h-42h21h21z" />
    <glyph glyph-name="plus" unicode="+" horiz-adv-x="861" 
d="M52 1050l21 -105h21h84v0v0v0v0v-21h126l126 -21l-21 -126v-21l21 -168h21l42 21v0v0v0l21 42l21 84l21 147l21 21l231 42l-21 -21l21 42v21l-84 21v0l-63 21v0l-84 42v21l-21 147v0v0v0v0v0v0v0v0v21l-21 42l-21 21h-21l-42 -42l-21 -231l-84 21h-42h-252v-21z" />
    <glyph glyph-name="comma" unicode="," horiz-adv-x="420" 
d="M52 -105l21 -84l147 42l-21 -21l42 42l21 21l42 42l21 63l21 42v105l21 -42l-42 126l-21 42l-21 42l-42 21l-84 42h-21v0l-42 -21v-63l42 -21l21 -42l21 -42v-105l-21 -63l-21 -42l-21 -21l-42 -63h-21v0z" />
    <glyph glyph-name="hyphen" unicode="-" horiz-adv-x="861" 
d="M52 1050l21 -84h21h483v0v0v0v0v0v0v0v0v0v0v0v0v0v0v0v0v0v0v0v0v0v0v0v-21l147 21l84 21l-21 84l-84 42h-42l-567 -21v0l-21 -21v0l-21 -21v0v0v0z" />
    <glyph glyph-name="hyphen" unicode="&#x2026;" horiz-adv-x="861" 
d="M52 1050l21 -84h21h483v0v0v0v0v0v0v0v0v0v0v0v0v0v0v0v0v0v0v0v0v0v0v0v-21l147 21l84 21l-21 84l-84 42h-42l-567 -21v0l-21 -21v0l-21 -21v0v0v0z" />
    <glyph glyph-name="hyphen" unicode="&#x2013;" horiz-adv-x="861" 
d="M52 1050l21 -84h21h483v0v0v0v0v0v0v0v0v0v0v0v0v0v0v0v0v0v0v0v0v0v0v0v-21l147 21l84 21l-21 84l-84 42h-42l-567 -21v0l-21 -21v0l-21 -21v0v0v0z" />
    <glyph glyph-name="hyphen" unicode="&#x2010;" horiz-adv-x="861" 
d="M52 1050l21 -84h21h483v0v0v0v0v0v0v0v0v0v0v0v0v0v0v0v0v0v0v0v0v0v0v0v-21l147 21l84 21l-21 84l-84 42h-42l-567 -21v0l-21 -21v0l-21 -21v0v0v0z" />
    <glyph glyph-name="period" unicode="." horiz-adv-x="273" 
d="M52 273l21 -126v21l42 -21h63l42 21v63l-21 42l-21 42h-84l-42 -42v0v0z" />
    <glyph glyph-name="slash" unicode="/" horiz-adv-x="630" 
d="M52 252l21 -84l84 21l21 21l21 42l21 63l21 63l21 63l21 63l21 84l21 63l21 63l21 84l21 63l21 84l21 84l21 84l21 84l21 84l21 84l21 84l21 105l21 147v168l-21 42h-63l-21 -21v-42v-21l-21 -42l-21 -63l-21 -105l-21 -84l-21 -84l-21 -105l-21 -63l-21 -84l-21 -84
l-21 -84l-21 -84l-21 -63l-21 -84l-21 -63l-21 -63l-21 -84l-21 -63l-21 -84l-21 -63l-21 -126v0v0z" />
    <glyph glyph-name="zero" unicode="0" horiz-adv-x="1407" 
d="M52 987l21 -336v63l21 -126l21 -42l21 -42l21 -42l21 -42l42 -21l21 -63l42 -21l21 -42l42 -21l21 -42h42l21 -42h42l42 -21l84 -21h231l42 21l42 21l21 21l42 21l21 21l42 42l21 21l42 42l21 21l42 42l21 42l42 42l21 42l42 42l21 63l21 63l21 84v126l-21 105l-21 84
l-21 63l-21 63l-21 63l-21 42l-42 42l-21 42l-42 21l-21 42l-42 21l-42 42l-42 21l-21 21l-63 21l-63 21h-105l-21 -42l63 -21l42 -21l42 -21l42 -21l42 -21l21 -42h42l21 -63l42 -21l21 -63l42 -21l21 -84l21 -63l21 -63l21 -84l21 -105v-42l-21 -105l-21 -42l-21 -42
l-21 -42l-21 -42l-21 -21l-42 -63l-21 -21l-42 -42l-21 -21l-42 -42l-21 -21l-42 -21l-42 -42h-21l-63 -21h-63l-84 21l-63 21l-42 21l-42 42l-42 21l-21 42l-42 21l-21 42l-21 42l-21 21l-21 42l-21 42l-21 42l-21 63l-21 147v21l21 105l21 84l21 42l21 42l21 42l21 42
l21 42l42 42v21l42 42v21l42 42l21 21l42 42l21 21l63 42l21 21l63 42h21l105 42h126l21 -42l42 42l-21 21l-21 42l-42 42h-147l-105 -21l-63 -21l-42 -42l-63 -21l-42 -42l-21 -21l-42 -42l-21 -21l-42 -42l-21 -21l-42 -42l-21 -42l-21 -21l-42 -84l-21 -21l-21 -42
l-21 -42l-21 -63l-21 -63l-21 -84v0v0z" />
    <glyph glyph-name="one" unicode="1" horiz-adv-x="315" 
d="M52 399l21 -378h21l42 21v0v0v0l42 42v21l21 168l21 147l21 210l21 420v525l-21 63l-21 42l-21 42h-21v0l-42 -21l-21 -21v-84v-147l-21 -378l-21 -441l-21 -231v0v0z" />
    <glyph glyph-name="two" unicode="2" horiz-adv-x="1071" 
d="M52 672l21 -105l21 -42l42 -21l42 -21l21 -42h63l84 -21h126l105 21l63 21l42 21l42 21l21 21l63 21l21 -42h42l21 -42l21 -21h84l21 21l-21 21l-21 42l-21 42l-42 21l-42 42l21 21l21 42l42 42v21l21 63l21 63v273l-21 84l-21 63l-21 42l-21 42l-42 42l-21 42l-42 21
l-42 21l-21 21l-84 21h-105l-105 -21l-42 -21l-42 -42l-42 -21l-42 -63l-21 -42l-21 -42v-105l21 -42l105 21l21 147l42 42l21 21l42 21l63 21h105l63 -21l42 -21l21 -42l42 -21v-42l42 -21v-63l21 -105v-126l-21 -105l-21 -42l-21 -42l-21 -21l-42 -63l-63 42l-42 21
l-42 21l-63 21l-84 21h-273l-42 -21l-42 -21l-42 -42l-21 -63v0v0zM367 714l126 -21l63 -21l63 -21l42 -21l-42 -42h-21l-63 -21l-105 -21h-21l-105 21l-42 21l-42 21l-21 21l21 63h21l42 21v0v0v0h63h21z" />
    <glyph glyph-name="three" unicode="3" horiz-adv-x="1008" 
d="M52 693l21 -105l42 -21l21 -42l63 -21l42 -21l42 -21l63 -21h357l42 21l42 21l42 21l21 21l42 42l21 21l21 42l21 42v210l-21 42l-21 42l-21 42l-42 21l-63 42l-63 21v21l42 42v21l21 42v147l-21 42l-21 42l-21 42l-42 21l-21 21l-42 21l-63 21l-126 21h-63l-84 -21
l-63 -21l-42 -42l-21 -21l-42 -63v-105l63 42l21 63l63 42h21l147 21h63l63 -21l63 -21l21 -42l42 -21l21 -21l-42 -168l21 21l-42 -42l-21 -21l-42 -21l-147 -21l-105 -21l-42 -42l-21 -21v-63l63 -21l147 21l63 21l42 21h84l84 -21l42 -21l42 -21l21 -63l21 -42v-105
l-21 -42l-21 -21l-42 -42l-42 -21l-42 -21l-147 -21v0l-231 42l42 -21l-105 42l-42 21l-42 21l-42 21h-84v0z" />
    <glyph glyph-name="four" unicode="4" horiz-adv-x="987" 
d="M52 1071l21 -294v21l42 -21h126l126 21l126 21h84v-420l21 -84h42h21l21 21l21 336l21 126l210 21l-42 42l-42 42l-84 21l-42 21l-21 462l-21 147l-21 42h-42l-21 -63v0l-21 -567v0l-42 -21l-294 -21h84h-126l21 441v105v63l-42 147l21 -21l-42 21l-21 -21l-21 -63v0
l-42 -336v-21l-21 -168v0z" />
    <glyph glyph-name="five" unicode="5" 
d="M52 504l21 -84h21v0v-21h21l21 -42l63 -21l42 -21l63 -21l42 -21l84 -21l84 -21h252l84 21l42 21l21 21l63 42l21 42l21 42l21 42v273l-21 42l-21 42l-21 42l-42 42l-42 42l-42 21l-21 21l-42 21l-42 21l-105 21h-126l-105 -21h-21l-21 399v0l315 -21h42h315l42 21l21 21
l-42 42l-63 21v0l-126 21v0l-252 21v0l-315 21v0l-147 -21v0l-21 -21l21 -84l84 21v-210v-21l-21 -420v0l42 -21h84l21 42l42 42l42 21l63 21h189l63 -21l42 -21l21 -42l63 -21l21 -63l42 -21v-105v-63l-21 -84l-21 -42l-21 -21l-42 -42h-21l-42 -21h-273l-84 21l-84 21
l-42 21l-63 21l-42 21l-42 21l-42 21h-63v0z" />
    <glyph glyph-name="six" unicode="6" horiz-adv-x="1008" 
d="M52 819l21 -252v42l21 -84l42 -21v-42l42 -21l42 -21l21 -42l105 -21l63 -21h273l63 21l42 21l21 21l63 42l21 42l42 42v21l21 63v84l-21 84l-21 42l-21 42l-21 42l-42 21l-42 21l-42 21l-84 21h-189l-105 -21h-63v21l42 42v21l42 42l21 42l42 42l21 21l42 42l21 21
l63 42l21 21l42 42l21 21l42 42l42 21l84 21l-21 84l-63 21v0l-105 -21v0l-42 -21l-42 -21l-42 -42l-21 -21l-42 -42h-21l-42 -42l-21 -21l-42 -42l-21 -21l-42 -42l-21 -21l-42 -63l-21 -21l-42 -84l-21 -21l-21 -42l-21 -42l-21 -63l-21 -63v0v0zM304 945h-21v0h21z
M619 861l105 -21l42 -21l42 -21l21 -42l21 -42v-126l-21 -42l-21 -21l-42 -42l-42 -21l-42 -21h-210l-63 21l-42 21l-42 21l-42 21l-21 42l-42 21l-21 63v42l42 42l21 21l42 21l42 21l42 21l84 21l105 21h21h21z" />
    <glyph glyph-name="seven" unicode="7" horiz-adv-x="1029" 
d="M52 1512l21 -84l63 -21l63 -21l126 -21l231 -21l252 -21l-42 -63l-21 -42l-21 -42l-21 -63l-21 -42l-21 -63l-21 -63l-21 -42l-21 -63l-21 -42l-21 -63l-21 -63l-21 -42l-21 -63l-21 -63l-21 -63l-21 -63l-21 -63v-126l84 21l21 21l21 42l21 42l21 63l21 42l21 63l21 42
l21 63l21 42l21 63l21 63l21 42l21 63l21 63l21 42l21 63l21 63l21 63l21 42l21 63l21 63l42 42l-42 84v0h-21l-252 21v0l-126 21v0l-273 42h-42l-126 21l-42 -42v0v0z" />
    <glyph glyph-name="eight" unicode="8" horiz-adv-x="1134" 
d="M52 756l21 -273v42l21 -63l21 -42l42 -21l21 -42h42l21 -42h42l21 -42h63l42 -21l105 -21h126l105 21l42 21l42 21l42 21l21 21l42 42l21 21l42 42v21l42 42v21l21 63l21 63v21l-21 105l-21 63l-21 42l-21 42l-42 21l-21 42l-42 21l-21 42l-42 21l21 21l42 42l21 42
l21 84v42l-21 63l-21 63l-21 42l-21 42l-42 21l-21 21l-42 21l-21 21l-42 21l-84 21h-294l-42 -21l-42 -42l-21 -42l-21 -21l-42 -84l-21 -42v-21l21 -231v42l21 -63l21 -42l63 -21v-42l-42 -21l-42 -42l-21 -21l-42 -63l-21 -42l-21 -63v0v0zM451 1113h-84l-42 21l-42 21
l-42 42l-21 63v105l21 63l21 63l63 42h189l105 -21l42 -21l42 -21l42 -21l21 -42l42 -21v-63v-105l-21 -21l-42 -42l-21 -21l-168 21l-63 -21l-42 -21v0zM661 357h-126l-63 21l-63 21l-42 21l-42 21l-42 42l-42 21l-21 42l-21 42v147l21 42l21 42l42 42l21 21l42 42l42 21
l42 21l126 21l105 21h21l21 -42h42l21 -42h42l21 -42l42 -21l21 -42l42 -21l21 -105v-63l-21 -63l-21 -21l-42 -63l-21 -21l-42 -42h-21l-42 -42h-21l-63 -21v0z" />
    <glyph glyph-name="nine" unicode="9" horiz-adv-x="987" 
d="M52 1302l21 -231v42l21 -63l42 -21l21 -42l63 -21l42 -21l63 -21h168l63 21l42 21l42 21h42l-42 -84l-21 -63l-21 -63l-21 -42l-21 -63l-21 -63l-21 -84v-105l42 -21h21l42 21l21 42l21 63l21 63l21 63l21 42l21 63l21 63l21 42l21 63l21 42l21 63l21 42l21 63l21 63
l21 63v126l-21 21h-42l-42 -42l-21 -42l-21 -21l-21 -42l-21 -21l-21 -42l-21 -21l-42 -42l-21 -21l-42 -42l-63 -21l-84 -21h-21l-105 21l-42 21l-42 21l-42 21l-21 63v63l21 84l21 42l42 42l21 42l42 42l21 21l63 42l63 21l63 21h126l84 -21l42 -21l21 -42l42 -21h42v21
v63l-42 21l-21 42l-42 42h-42l-105 42h-105l-63 -21l-105 -21l-42 -21l-42 -21l-42 -42l-21 -21l-42 -42l-21 -21l-21 -42l-21 -21l-21 -42l-21 -42l-21 -63v0v0z" />
    <glyph glyph-name="colon" unicode=":" horiz-adv-x="294" 
d="M52 1365l21 -105h21h21v0v-21l42 21l42 21l21 21v84l-21 42h-63l-42 -21l-42 -42v0v0zM115 1029l21 -84h21v0v-21l63 21l21 21v84l-84 21v0l-21 -21l-21 -21v0z" />
    <glyph glyph-name="semicolon" unicode=";" horiz-adv-x="378" 
d="M52 336l21 -63l84 21l42 21l21 21l42 42l21 63l21 42v105l21 -42l-42 105l-21 42l-21 42l-21 42l-42 21l-42 21h-63v-63l21 -42l42 -21v-42l21 -63v-84l-21 -42l-21 -63l-21 -21l-42 -42v0v0zM115 1113l21 -105h21l63 21v0v0v0v0v63l-21 42h-63l-21 -21v0z" />
    <glyph glyph-name="less" unicode="&#x3c;" horiz-adv-x="777" 
d="M52 1050l21 -147v21l42 -21v-42l21 -42l42 -21v-42l42 -21v-42l42 -21l42 -21l21 -42h147l-63 -21l84 42v21l-21 21v0v0v21h-21l-21 42l-42 21l-42 21l-21 42l-21 21l-21 42l-21 21l-21 42l-21 42l42 21l42 21l42 21l42 21l42 21l42 21l42 21l21 21l42 21l21 21l42 42
l21 42l42 42v84l21 -21l-42 42l-84 -21l-42 -42l-21 -21l-42 -42l-42 -21l-42 -21l-42 -42l-63 -21l-42 -21l-42 -21l-42 -21l-42 -21l-42 -21l-42 -42v0v0z" />
    <glyph glyph-name="equal" unicode="=" horiz-adv-x="693" 
d="M52 1239l21 -42l210 -21l21 -21l336 42l-21 -21l21 42l-42 42l-126 21v0l-252 21l-42 -21l-105 -21v0l-21 -21v0v0v0zM73 945l21 -63l126 -21l399 21l21 63l-21 21l-126 21v0l-399 -21h147h-168v-21z" />
    <glyph glyph-name="greater" unicode="&#x3e;" horiz-adv-x="672" 
d="M52 1386l21 -105h21v0v-21h21l21 -42l42 -21l42 -21l21 -42l42 -21l21 -42l42 -21l42 -21l21 -42l63 -21l-42 -42l-42 -21l-42 -42l-21 -21l-42 -21l-42 -42l-42 -21l-42 -42l-21 -21l-42 -63v-42l21 -21l63 21l42 21l42 21l42 21l21 21l63 42l21 21l63 42l21 21l42 42
l21 21l42 42l21 21v105l-42 42l-42 21l-42 21l-21 21l-42 21l-21 42l-42 21l-21 42l-42 21l-42 21l-21 42l-42 21l-42 21l-21 21h-63l-21 -21v0z" />
    <glyph glyph-name="question" unicode="?" horiz-adv-x="903" 
d="M52 1848l21 -105l126 21h168l126 -21l63 -21l42 -21l42 -21l21 -42l42 -21v-42v-63l-21 -42l-21 -42h-21l-42 -42h-21l-42 -21l-84 -21l-147 -21l-42 -42l-21 -42v-21v0l21 -21l21 -189v0l21 -273v21l21 -42l105 42v21l-21 273v0v0v0v0v0v0v0v0v0v0v0v0v0v0v21v126
l168 42l-42 -21l105 42l42 21l21 21l63 42l21 42l42 42l21 189v-105l-42 168l21 -21l-42 42l-21 42l-42 21l-42 42l-42 21l-21 21l-63 21l-84 21l-147 21h-168l-63 -21l-42 -42v0v0zM304 504l21 -63l21 -21l105 42v21l-21 42v0v0v0v21h-21l-84 -21l-21 -21v0z" />
    <glyph glyph-name="at" unicode="@" horiz-adv-x="1470" 
d="M52 1197l21 -336v84l21 -147l21 -42l21 -42l42 -21v-42l42 -21v-42l42 -21l21 -42l63 -21l21 -42l84 -21l42 -21l42 -21l63 -21l84 -21l189 -21h189l126 21l63 21l42 21l42 21l42 21l21 21l21 42v63h-42l-42 -21l-42 -21l-84 -21l-105 -21h-168l-147 21l-105 21l-63 21
l-42 21l-42 21l-42 21l-42 21l-21 42l-42 21l-21 21l-21 42l-42 42l-21 42l-21 63l-21 84v189l21 63l21 42l42 42l21 21l42 42l21 21l42 42l42 21l21 21l63 21l42 21l84 21l105 21h105l84 -21l42 -21l42 -21l42 -21l21 -42l42 -21l21 -42l21 -42l42 -21v-42l21 -42v-21
l-21 -63l-21 -42l-42 -21h-105l-42 63l-21 42l-21 42l-42 42l-21 42l-42 21l-42 21l-147 -21h21l-84 -21l-42 -21l-42 -42l-21 -21l-42 -63l-21 -42v-168l21 -63l42 -21l42 -21l42 -21h105l63 21l63 21l21 21l42 42l21 21l21 42l63 -21l21 -42l210 42l-21 -21l63 42l21 21
l42 42l21 63l21 42v105l-21 63l-21 42l-21 42l-21 42l-21 42l-42 42l-21 42l-42 21l-42 42l-42 21l-21 21l-42 21l-84 21h-252l-105 -21l-84 -21l-42 -21l-42 -21l-42 -21l-42 -21l-42 -21l-42 -42l-21 -21l-42 -42l-21 -21l-42 -42l-21 -21l-21 -42l-21 -42l-21 -42
l-21 -84v0v0zM787 966h-126l-42 42v63l21 42l21 42l63 42l42 21l42 21h63l42 -21l21 -63v0l-42 -84l-21 -42l-21 -21l-42 -42h-21v0z" />
    <glyph glyph-name="A" unicode="A" horiz-adv-x="1365" 
d="M52 0l21 -84h21v0v-21l63 21l21 21l42 42l21 231l21 42l21 462l21 42l21 21l252 -21h105l252 -21l126 -21l-21 -147l-21 -252l-21 -168v-336l21 -21l63 21l21 126v21l21 231l21 168l21 357l147 21v42l-84 21v0l-63 42l-42 126l-21 63l-21 42l-21 42l-21 42l-42 21l-21 42
l-42 21l-21 21l-42 21l-42 21l-63 21l-105 21h-105l-84 -21l-42 -21l-42 -21l-42 -42l-21 -21l-42 -42l-21 -42l-21 -42l-21 -42l-21 -42l-21 -63l-21 -84l-21 -147l-21 -210l-21 -252l-21 -126l-21 -126v0v0zM619 1218l126 -21l63 -21l42 -21l42 -21l21 -42l42 -21l21 -63
l21 -42l21 -84v-63l-21 21l-357 42h-42l-273 42l21 63v0v0v0l21 21l21 63l21 42l42 42l21 21l126 42v0h21z" />
    <glyph glyph-name="B" unicode="B" horiz-adv-x="1176" 
d="M52 105l21 -84l63 -21l21 -42l21 -42l21 -21l63 21h105l42 -21h231h-147l21 -21l252 42h21l84 42l42 21l21 21l63 42l21 21l42 42l21 42l21 42l21 63v168l-21 63l-21 42l-42 42l-42 42l-42 21l-63 21l42 21l21 21l42 42l21 42l21 42l21 147l-21 42l-21 42l-21 42l-42 21
l-21 42l-42 21l-42 21l-42 21l-63 21l-84 21l-126 21h-210l-84 -21h-21h-21v0l-42 -42v-21v-1071v0v0l-21 -21v21h-21h-63v-21zM304 546h294l84 21h147l63 -21l42 -21l42 -21l21 -42l42 -21v-63v-63l-21 -84l-21 -42l-21 -21l-42 -42l-42 -21l-42 -21l-42 -21l-84 -21h-294
l-105 21l-21 84l-21 42v357v0h21zM346 714h-63l-21 462v0h21l399 -21h-126l189 -21h-42l105 -21l42 -21l42 -21l21 -42l42 -21l21 -63v0l-42 -126v0v0v-21l-42 -42l-21 -21l-42 -21l-42 -21h-84l-168 21h-189v0z" />
    <glyph glyph-name="C" unicode="C" horiz-adv-x="1239" 
d="M52 672l21 -336v42l21 -84l21 -42l42 -21l21 -63l42 -21l42 -21l21 -42l63 -21l21 -42l105 -21l63 -21h315l84 21l63 21l42 21l-21 42l-63 21v0l-378 42l21 -21l-84 42l-42 21l-21 21l-42 21l-42 21l-21 42l-42 21l-21 42l-42 42v42l-21 147v21l21 84l21 42l21 42l21 42
l21 42l42 42l21 42l42 42l21 21l42 42l21 21l42 42l21 21l42 21l42 21l42 21l105 21h147l42 -21l21 -42l42 -21v-126l21 63l-21 -105l84 42v0l21 21v0l21 21v21l-21 84v0v0v0v0v0v21l-21 21l-21 42l-21 42l-42 21l-42 42l-63 21h-189l-105 -21l-63 -21l-42 -21l-42 -21
l-42 -21l-42 -42l-42 -21l-42 -42l-21 -21l-42 -42l-21 -21l-21 -42l-21 -21l-21 -42l-21 -21l-21 -42l-21 -21l-21 -42l-21 -42l-21 -63l-21 -63v0v0z" />
    <glyph glyph-name="D" unicode="D" horiz-adv-x="1260" 
d="M52 1302l21 -63l42 -21l-21 -588v294v-21v-819l21 525l-21 -567v0l21 -21h63l21 42l420 42l-105 -21l189 42h21l105 42l42 21l42 21l21 21l42 21l21 21l42 42l21 21l42 42l21 42l42 42l21 63l21 63v231l-21 63l-21 42l-42 42l-21 42l-42 21l-42 42l-42 21l-21 21l-42 21
l-42 21l-42 21l-42 21l-63 21l-63 21l-63 21l-63 21l-84 21l-84 21l-147 21l-21 21l-21 42l-21 21h-21l-42 -84l-21 -21l-21 -21v0zM325 1218l84 -21l84 -21l63 -21l63 -21l63 -21l42 -21l63 -21l42 -21l42 -21l42 -21l42 -21l21 -42l63 -21l21 -42l21 -42l42 -21l-21 -210
l-21 -63l-21 -42l-21 -21l-42 -63l-21 -21l-42 -42l-42 -21l-42 -21l-42 -21l-42 -21l-42 -21l-105 -21l-105 -21l-147 -21h-126v1029h63h21z" />
    <glyph glyph-name="E" unicode="E" horiz-adv-x="1554" 
d="M52 126l21 -168h21v0v-21l21 -21l294 42l-105 -21l252 42h21l357 42l-126 -21l210 42l-63 -21l105 42l-42 42h-798h147l-42 -21l-105 42l21 168l21 126l21 147h168h357l126 21l84 21l21 21l-42 42l-693 21l21 21v441l21 -231l-21 273v0l252 -21l21 -21l840 -21l42 21
l21 21l-21 21l-42 42l-105 21l-231 21l-336 21l-294 21h-63l-84 -21l-42 -42l-21 21h-21l-21 -63v0l-42 -315v-21l-42 -231l21 63l-21 -189v0l-21 -126v0l-21 -63v0l-42 -210v0v0z" />
    <glyph glyph-name="F" unicode="F" horiz-adv-x="1218" 
d="M52 1218l21 -63v-420l-21 -21l21 -42v-126v-21l-21 -609v294l21 -315h21l42 21v0v0v0l21 42l21 84l21 126l21 210l21 252h294l21 -21l420 42v21l-21 21v0v0h-21l-168 42l-168 21l-357 21l-21 336v63l945 21l-42 63v0v21h-21l-252 21v0l-126 21v0l-525 -21h42l-126 -21
l-42 -42l-21 -21v0z" />
    <glyph glyph-name="G" unicode="G" horiz-adv-x="1638" 
d="M52 840l21 -420v63l21 -105l21 -42l21 -42l21 -42l42 -21l21 -42l42 -21l42 -21l21 -42l105 -21l42 -21l84 -21l126 -21h63l126 21l84 21l42 21l42 21l21 21l63 42l21 21l42 42v21l42 42v21l21 42l21 42l21 63l21 126v147l-21 84l-21 42h-42l-21 -21v-84v-21l-42 -231
l21 63l-42 -126l-21 -42l-21 -21l-42 -63l-21 -21l-42 -42l-42 -21l-42 -21l-63 -21h-231l-84 21l-42 21l-42 21l-42 21l-42 21l-42 42l-42 42l-21 42l-21 42l-21 63l-21 126v63l21 105l21 63l21 42l21 42l42 42l21 42l42 42l21 21l42 42l21 21l42 21l42 21l42 21l63 21
l63 21l63 21l63 21h126l63 -21v-84l42 42l21 21v84l-21 42l-42 21l-21 42h-42l-252 -21h42l-105 -21l-63 -21l-63 -21l-42 -21l-42 -21l-42 -21l-42 -42l-42 -21l-42 -42l-21 -21l-42 -42l-21 -21l-21 -42l-21 -21l-21 -42l-21 -21l-21 -63l-21 -42l-21 -63v0v0zM892 966
l21 -63h105h21l525 42l-210 -21l231 42v21h-21v0v21h-21l-231 21h126l-378 -21l-84 -21l-84 -21v0z" />
    <glyph glyph-name="H" unicode="H" horiz-adv-x="1092" 
d="M52 1407l21 -252v0l21 -1134v84l21 -126v21l21 -21l42 42v42l21 294l21 441h42h189l294 21h168l-21 -378v-21l21 -462h21l42 21v0v0v126l21 252l21 336l21 147v42v42l-42 441l-21 21h-21l-42 -42l-21 -420l-672 21l-42 399l21 -63l-42 105h21l-42 21l-63 21l-21 -21v0z
" />
    <glyph glyph-name="I" unicode="I" horiz-adv-x="357" 
d="M52 1281l21 -63l21 -42l21 -63v0l21 -231l21 -189v-378v-21l21 -336h21v0v-21l21 21l42 21l21 126v21l21 231v252l-21 252l-21 126l-21 126l-21 63l-21 63l-21 42l-42 42h-21l-42 -21l-21 -21v0z" />
    <glyph glyph-name="J" unicode="J" horiz-adv-x="1386" 
d="M52 546l21 -105l21 -42l42 -21l21 -63l21 -42l42 -21l21 -42l63 -21l42 -21l63 -21h189l63 21l42 21l21 21l63 42v21l42 42l21 42l42 42v21l21 42l21 84l21 126v210l-21 105l-21 63l-21 63l-21 42l-21 42l-21 42v21l210 21l42 21l105 21l84 21l42 21l21 21l-42 42l-84 21
v0l-315 -21v0l-189 -21v0l-420 -21v0l-21 -21v0v-21l21 -63l63 -21l21 -21l210 21h147l21 -84l21 -42l21 -63l21 -42l21 -84l21 -105v-105l-21 -105l-21 -105l-21 -42l-21 -42l-21 -42l-21 -21l-42 -42l-21 -21l-42 -21l-63 -21h-126l-63 21l-42 21l-42 21l-21 42l-42 21
l-21 21l-21 42l-42 42l-21 42h-63v0z" />
    <glyph glyph-name="K" unicode="K" 
d="M52 777l21 -105l42 -21l-21 -504v42v-21l21 -63v0l21 -42l63 42l21 105l21 42l21 315l42 -21l21 -42l42 -21l21 -42h42l21 -42l42 -21l21 -42h42l21 -42l63 -21l21 -42l63 -21l21 -42l63 -21l42 -21l21 -42l84 -21h63l-21 42l-21 42l-21 42l-42 21l-42 21l-21 42l-42 21
l-42 21l-42 42l-42 21l-21 42l-42 21l-42 21l-21 42l-42 21l-42 42l-42 21l-21 42l-42 21l-21 42l-21 21v42l42 21l21 21l42 21l42 21l42 21l42 21l21 21l42 21l42 21l21 21l42 21l42 21l21 21l42 21l21 21l42 21l21 21l63 42l21 21l21 42l42 42v21l42 42l-21 42l-63 -21
l-42 -42l-21 -21l-42 -21l-42 -42h-21l-42 -42h-21l-42 -42h-21l-42 -21l-42 -42h-21l-42 -21l-42 -21l-42 -42h-21l-42 -21l-42 -21l-42 -21l-42 -21l-42 -42v21l-42 462l21 -21l-42 63l-21 21l-63 -21v0v-21l21 -126v0l-42 -441l21 63l-42 -84v0h-21v0v0z" />
    <glyph glyph-name="L" unicode="L" horiz-adv-x="1113" 
d="M52 378l21 -294h21v0v-21h21h189h189l336 -21l210 42l21 21l-21 21l-21 42l-252 21l-210 21h-315h-63v42l21 126l21 147l21 147l21 168l21 189l21 231v168l-21 21h-42l-42 -105l-21 -126l-21 -126l-21 -147l-21 -168l-21 -168l-21 -126l-21 -105v0v0z" />
    <glyph glyph-name="M" unicode="M" horiz-adv-x="1470" 
d="M52 378l21 -336l21 -21l42 21l21 42l21 294l21 273l21 252l21 168l21 -42l21 -42l21 -42l21 -42l21 -42l21 -42l21 -42l21 -42l21 -42l21 -42l21 -63l21 -42l21 -42l21 -63l21 -42l21 -42l42 -21h84l21 21l21 42l21 42l21 42l21 42l21 42l21 42l21 42l42 42v21l42 42v21
l42 42l21 42l42 42l21 21l42 42l21 21l42 42l21 21l42 42l21 21v-168l-21 -189v-714l21 -42l84 42l21 63v42l21 567l21 231v336l-21 42h-63l-42 -21l-42 -42l-21 -21l-42 -21l-42 -42l-21 -21l-42 -42l-21 -21l-42 -63l-21 -21l-42 -42l-21 -21l-42 -63l-21 -21l-42 -63
l-21 -21l-42 -63l-21 -42l-21 -42l-21 -42l-21 -42h-21l-42 42l-21 42l-21 63l-21 42l-21 42l-21 63l-21 42l-21 42l-42 63l-21 42l-21 42l-21 42l-21 63l-21 63l-21 42l-42 21l-21 42l-42 21l-21 21l-42 -42v-21v0l21 -21l-42 -231l21 63l-21 -189v0l-21 -63v0l-21 -378v0
l-21 -126v0zM1312 1134h-21v0h21z" />
    <glyph glyph-name="N" unicode="N" horiz-adv-x="1344" 
d="M52 168l21 -63l63 21l21 42l21 84l21 126l21 147l21 189l21 441l21 -42l42 -21v-42l21 -42l42 -21v-42l21 -42l42 -21v-42l42 -21v-42l42 -21v-42l21 -42l42 -21v-42l42 -21v-42l42 -21v-42l42 -21v-42l42 -21l21 -63l42 -21l21 -63l21 -42l42 -21l21 -84l21 -42l21 -42
l42 -21v-42l105 42v0l21 21v21v0v0l21 21l21 210l21 105l21 147l21 210l21 189l21 189v147l-21 42l-42 21l-21 -84v0l-21 -126v0l-21 -63v0l-42 -378v-21l-42 -294v-21l-42 -168l21 21h-21l-21 21l-21 42l-21 42l-21 42l-21 21l-21 42l-21 21l-21 42l-21 21l-21 42l-21 21
l-21 42l-42 42l-21 42l-21 21l-21 42l-21 42l-21 21l-21 42l-21 21l-21 42l-21 21l-21 42l-21 21l-21 42l-21 21l-21 42l-21 21l-21 42l-21 42l-21 21l-21 42l-42 21h-42l-63 -21l-21 -21l-42 -420v-21l-42 -336v-21l-42 -273l21 105l-21 -105v0z" />
    <glyph glyph-name="O" unicode="O" horiz-adv-x="1386" 
d="M52 609l21 -231l21 -21l21 -84l21 -42l42 -21l21 -63l42 -21l42 -21l21 -42h42l42 -21l42 -21l84 -21h294l63 21l63 21l42 21l42 21l21 21l42 42l21 21l42 42l21 21l21 42l42 42v21l21 42l21 63l21 42l21 84l21 105v210l-21 84l-21 63l-21 42l-21 42l-21 63l-21 42
l-42 21l-21 42l-42 21l-21 21l-42 21l-42 42l-42 21l-42 21l-42 21l-42 21h-42l-252 -21v0v-21l-42 -84l-42 -21l-42 -42l-21 -21l-42 -21l-42 -63l-21 -21l-42 -42l-21 -21l-42 -63l-21 -21l-42 -105l-21 -63l-21 -105l-21 -126v0v0zM703 126h-63l-105 21l-63 21l-42 21
l-42 21l-42 42l-42 21l-21 42l-42 42l-21 63v42l21 336v-63l21 147l21 42l21 42l42 42l21 21l21 42l42 42l21 21l42 42l42 21l21 21l42 42l42 21l21 21l42 42h84l42 -21l42 -21l42 -21l42 -21l21 -42l63 -21l21 -42l42 -21l21 -63l21 -42l21 -42l21 -63l21 -63v-168
l-21 -105l-21 -84l-21 -42l-21 -42l-21 -42l-21 -21l-42 -63l-21 -21l-42 -42l-21 -21l-42 -21l-42 -21l-42 -21l-126 -21v0z" />
    <glyph glyph-name="P" unicode="P" horiz-adv-x="1092" 
d="M52 1344l21 -63l42 42h21v0l21 -1197l21 -21l21 -21l42 42l21 21l21 252v294l315 -21l84 21l84 21l42 21l42 21l42 21l21 21l42 42l21 21l21 42l21 42l21 84v42l-21 63l-21 63l-21 42l-42 42l-21 42l-42 21l-21 21l-42 21l-21 21l-63 21l-63 21l-84 21l-378 21h-63
l-21 -42v-21v0l-21 -21v0l-21 -21v0v-21l-21 -21v0zM514 1386l105 -21l63 -21l42 -21l42 -21l42 -21l42 -21l21 -42l21 -42l42 -21v-42v-147l-21 -42l-21 -21l-42 -42h-21l-42 -21l-42 -21l-84 -21h-399l-21 273v42l21 273h231h21z" />
    <glyph glyph-name="Q" unicode="Q" horiz-adv-x="1533" 
d="M52 840l21 -357v84l21 -147l21 -42l21 -42l42 -21v-42l42 -21l21 -42l42 -21l21 -42l63 -21l42 -21l42 -21l63 -21l63 -21l84 -21h294l42 21l42 21l42 21l42 21l21 21l42 42h21v0l21 -63l42 -21l21 -42l42 -21v-42l42 -21l21 -42l84 42l-42 84l-21 42l-42 42l-21 42
l-42 42l-21 42l-21 21l21 42l21 42l21 42l21 42l21 63l21 63l21 84v210l-21 105l-21 63l-21 42l-21 42l-21 42l-42 42l-21 42l-42 21l-21 42l-42 21l-42 21l-21 42l-42 21l-42 21l-21 21l-42 21l-42 21l-63 21l-84 21h-63l-126 -21l-42 -21l-42 -21l-42 -21l-42 -42l-21 -21
l-42 -42l-21 -21l-42 -42l-21 -21l-21 -42l-21 -21l-21 -42l-21 -42l-21 -42l-21 -42l-21 -42l-21 -63l-21 -84v0v0zM703 1428l63 -21l63 -21l42 -21l42 -21l21 -42l63 -21l21 -42l63 -21l21 -42l42 -21l21 -42l42 -21l21 -63l42 -21l21 -105l21 -105v-42l-21 -147l-21 -63
l-21 -63l-21 -42l-21 -42l-21 -42l-21 42l-42 42l-21 42l-42 21l-21 42l-42 21l-21 -21v-42l21 -63l21 -42l42 -21l21 -63l21 -42v-21l-21 -21l-42 -42l-63 -21l-42 -21h-231l-84 21l-63 21l-42 21l-42 21l-42 21l-42 21l-42 42l-42 21l-21 42l-21 42l-21 21l-21 42l-21 63
l-21 126v21l21 42l21 210v-42l21 84l21 42l21 42l21 42l21 42l42 42v21l42 42l21 21l42 42l21 21l42 42l21 21l126 21v0v0h21z" />
    <glyph glyph-name="R" unicode="R" horiz-adv-x="1197" 
d="M52 1239v-756l21 84l-21 -252v0l21 -147h21v0v-21l63 21l21 63l21 42l21 546v-147l21 168h21h-21h21v-21l21 -42l42 -21l21 -42l42 -21l21 -42l42 -21l42 -21l21 -42l42 -21l42 -21l21 -42l63 -21l21 -42l42 -21l42 -21l21 -42l42 -21l42 -21l21 -42l42 -21l21 -42
l63 -21l21 -42l63 -21l21 21v0v0v0v21l-21 42l-21 42l-21 42l-42 21l-21 42l-42 21l-21 42l-42 21l-21 42l-42 21l-42 42l-42 21l-21 42l-42 21l-42 21l-21 42l-42 21l-42 21l-21 42l-42 21l-21 21l-42 21v21l210 42h21l105 42h21l63 42l42 21l21 21l42 42l21 21l42 42
l21 84v42l-21 84l-21 42l-42 42l-42 42l-42 21l-105 21h-42l-231 -21h42l-105 -21l-42 -21l-42 -42l-21 -21l-42 -42l-21 -21l-21 -42l-21 -21l-21 -42l-21 189l-21 42h-84l-21 -189v0v0zM304 966h-42l21 84l21 42l21 63l42 42v21l42 42l21 21l42 42l42 21l84 21h210l42 -21
l42 -21l21 -42v-105l-21 -21l-42 -42l-21 -21l-42 -21l-63 -21l-42 -21l-84 -21l-147 -21l-147 -21v0z" />
    <glyph glyph-name="S" unicode="S" horiz-adv-x="1176" 
d="M52 1092l21 -147l21 -42l42 -21l42 -21l21 -42l84 -21l63 -21l42 -21l63 -21l63 -21l63 -21l63 -21l63 -21l63 -21l42 -21l42 -21l21 -42l63 -21l21 -42l42 -21l21 -42l21 -84v-42l-21 -63l-21 -42l-42 -21l-42 -21l-84 -21h-84l-84 21l-63 21l-42 21l-42 21l-42 21
l-42 21l-21 42l-42 21l-21 42l-42 42l-21 42l-21 21l-21 42l-21 21l-21 42l-21 42l-21 21l-42 -42v-147l21 -42l21 -42l21 -42l21 -42l42 -21l21 -63l42 -21l21 -42h42l21 -42h42l21 -42h42l63 -21l84 -21h210l63 21l42 21l42 21l21 21l42 42l21 21l21 42l21 63v126l-21 63
l-21 42l-21 42l-42 21l-21 42l-42 21l-21 42l-42 21l-42 21l-42 21l-42 21l-42 21l-42 21l-63 21l-42 21l-42 21l-63 21l-42 21l-42 21l-42 21l-42 21l-42 21l-42 21l-21 42v42l21 42l42 42l21 21l42 42l21 21l63 42l42 21l42 21l63 21h189l63 -21l21 -42l63 -21l21 -42
l63 -21v-42l42 -21l21 -42l21 -21l42 21v42v42l-42 63v0v21l-21 21l-21 42l-42 21l-21 42l-42 21l-42 42l-42 21l-84 21h-210l-84 -21l-42 -21l-42 -21l-42 -21l-42 -42l-42 -21l-42 -42l-21 -21l-42 -42l-21 -21l-42 -63l-21 -63v0v0z" />
    <glyph glyph-name="T" unicode="T" horiz-adv-x="1260" 
d="M52 1491l21 -84h21v0v-21h63l105 -21l189 -21l84 -21l-21 -84v-21l-21 -609v84l21 -252v0l21 -378v42l21 -63l63 42l21 126v399v714l483 21l63 21l21 21l-42 42l-399 42h-42l-483 42l168 -21l-336 21l-21 -21v0z" />
    <glyph glyph-name="U" unicode="U" horiz-adv-x="1365" 
d="M52 945l21 -483v168l21 -273v84l21 -147l21 -21l21 -84l42 -21l21 -63l42 -21l21 -42l63 -21l42 -21l63 -21l84 -21h189l84 21l63 21l42 21l42 21l21 21l63 42l21 21l42 42l21 21l42 42l21 42l21 42l21 42l21 42l21 63l21 63l21 168v147l-21 168l-21 84l-21 21l-42 -21
l-42 -525l21 105l-42 -189v-21l-42 -84l-21 -21l-42 -63l-21 -21l-42 -42l-21 -21l-42 -21l-42 -42h-21l-42 -21l-84 -21h-168l-63 21l-42 21l-42 21l-42 21l-21 42l-42 21l-21 42l-21 63l-21 63l-21 147v546l21 42l-42 231v0v21h-21l-63 -21v0v-21v-63v42l21 -21l-21 -63v0
l-21 -126v0l-21 -126v0l-21 -63v0z" />
    <glyph glyph-name="V" unicode="V" horiz-adv-x="1407" 
d="M52 1302l21 -105h21v0v-21l21 -63v0l21 -63l21 -63l21 -63l21 -42l21 -63l21 -63l21 -63l21 -63l21 -63l21 -63l21 -63l21 -63l21 -63l21 -63l21 -42l21 -42l21 -42l21 -42l42 -21l21 -42l21 -21l126 42v0l21 21v0l21 21v21v0v0l21 21l21 63l21 42l21 63l21 42l21 42
l21 63l21 42l21 42l21 42l21 42l21 63l21 42l21 42l42 42l21 63l21 42l42 42v21l21 42l42 42v21l42 42v21l21 42l42 42v21l21 63v21l-21 42l-63 -21v0l-21 -21v0l-21 -21v0l-21 -21v0l-21 -21v0l-21 -21v0l-21 -21v0v-21l-42 -63l-21 -21l-21 -42l-21 -21l-21 -42l-21 -42
l-21 -21l-21 -42l-21 -42l-21 -42l-21 -42l-21 -42l-21 -42l-21 -63l-21 -42l-21 -42l-21 -42l-21 -63l-21 -42l-21 -42l-21 -63l-21 -63l-21 -42h-21l-42 42l-21 42l-21 63l-21 63l-21 42l-21 84l-21 63l-21 63l-21 42l-21 63l-21 63l-21 63l-21 42l-21 63l-21 42l-21 42
l-21 42l-21 42l-21 42l-21 42l-21 42l-42 21h-63v0z" />
    <glyph glyph-name="W" unicode="W" horiz-adv-x="1428" 
d="M52 1491l21 -105l42 -21l21 -105l21 -126l21 -147l21 -147l21 -147l21 -126l21 -147l21 -168l21 -105l21 -105l21 -42l105 21l21 21l21 42l42 42l21 84l21 42l21 63l21 63l21 42l21 63l21 42l21 63l21 42l21 -63l21 -63l21 -63l21 -84l21 -63l21 -84l21 -84l21 -63
l21 -42l21 -42l42 -21h105l21 21l42 42v21l21 63l21 105l21 84l21 84l21 105l21 84l21 105l21 63l21 84l21 84l21 84v168h-42l-42 -63l-21 -42l-21 -63l-21 -63l-21 -63l-21 -63l-21 -63l-21 -105l-21 -84l-21 -84l-21 -105l-21 -84l-21 -84l-21 -42l-21 63l-21 84l-21 63
l-21 84l-21 63l-21 63l-21 63l-21 63l-21 42l-21 42l-21 42l-42 21h-63l-42 -42l-21 -42l-21 -42l-21 -63l-21 -42l-21 -63l-21 -63l-21 -42l-21 -63l-21 -42l-21 42l-21 126l-21 147l-21 126l-21 147l-21 147l-21 147l-21 84l-21 84l-21 42l-21 42l-21 42l-42 21h-63
l-42 -42v0v0z" />
    <glyph glyph-name="X" unicode="X" horiz-adv-x="1302" 
d="M52 189l21 -84h21l21 21v0v0l84 42v0h21l21 21v0v0l42 42l21 21l63 42l21 21l42 42l21 21l42 42l21 21l42 42l21 21l42 42l21 21l42 42l21 21l21 42l21 -42l21 -42l42 -21v-42l21 -42l21 -42l21 -42l42 -21v-42l21 -42l21 -42l42 -21v-42l21 -42l42 -21l21 -42h42l42 21
l-21 63l-21 42l-21 63l-21 42l-21 42l-42 63l-21 42l-21 42l-21 42l-21 21l-21 42l-21 42l-21 42l-21 21l-21 42v42l42 42l21 21l21 42l42 42l21 42l42 42l21 42l21 42l42 42l21 42l21 42l42 42l21 63l42 42l-21 21l-21 21h-21l-42 -21l-42 -63l-21 -21l-42 -42l-21 -21
l-42 -63l-21 -21l-42 -63l-21 -21l-42 -63l-21 -21l-42 -63l-21 -21h-21l-42 63l-21 42l-21 21l-21 42l-21 42l-21 42l-21 42l-21 21l-21 42l-21 42l-21 42l-21 42l-42 21l-21 42h-42l-21 -21l21 -105l21 -42l21 -42l21 -42l21 -42l21 -42l21 -42l21 -42l21 -42l21 -42
l21 -42l21 -42l42 -21v-42v-42l-21 -21l-42 -42l-21 -42l-21 -21l-42 -42l-21 -21l-42 -42l-21 -21l-42 -42l-21 -21l-42 -42l-21 -21l-42 -42l-42 -21l-42 -42l-21 -21l-42 -42l-21 -21l-21 -21v0z" />
    <glyph glyph-name="Y" unicode="Y" 
d="M52 1470l21 -63l21 -63v0l21 -294v105l21 -189l21 -21l21 -84l21 -42l42 -21l21 -63l42 -21l21 -42l63 -21l63 -21h189l63 21l42 21l42 21l42 21l21 21l42 42l21 21l42 42h21l-42 -420l21 147l-42 -231l21 63l-42 -126l-21 -42l-21 -21l-42 -21h-252l-84 21l-42 21
l-42 21l-42 21l-42 42l-42 42l-63 21h21l-21 -21l21 -126l42 -21l21 -42l42 -21l21 -42h42l42 -21l42 -21l63 -21h294l42 21l42 21l21 21l42 42l21 21l21 42l21 84l21 63l21 168l21 231v567l-21 63l-21 21l-63 -21v0l-21 -21v0v-21v-168v-21l-42 -105l21 21l-42 -63l-21 -42
l-21 -21l-42 -63l-42 -21l-42 -42l-63 -21l-42 -21l-63 -21v0l-147 42v-21l-21 42l-42 21l-21 42l-42 63l-21 42l-21 63l-21 84l-21 126l-21 84l-21 84l-21 42l-21 21h-84v-21z" />
    <glyph glyph-name="Z" unicode="Z" horiz-adv-x="1365" 
d="M52 294l21 -126h21h168v0v0v0v0v0v0v0v0v-21h210l315 -21h252h42h21h21l84 42v21l-21 42v0v0v0v21h-21l-567 42h-42l-210 42l42 -21l-42 21v0l42 42l21 21l42 42l21 21l42 42l21 21l42 42l21 21l42 42l21 21l21 42l42 42l21 21l42 42l21 21l21 42l42 42l21 21l42 42
l21 42l42 42l21 21l42 42l21 42l42 42l21 21l42 42l42 21l21 21l42 21l21 63l-21 42l-63 21v0l-252 21v0l-693 21h399h-42l-378 -21v0l-21 -21v0l-21 -21v0v-21l21 -63l147 21l21 -21l525 -21h105l-42 -42l-21 -21l-42 -42l-21 -21l-42 -63l-21 -21l-42 -42l-21 -42l-21 -21
l-42 -42l-21 -21l-42 -63l-21 -21l-42 -42l-21 -21l-42 -42l-21 -21l-42 -42l-21 -21l-42 -42l-21 -21l-42 -42l-21 -21l-42 -42l-21 -21l-42 -42l-21 -21l-42 -42l-21 -21l-42 -21l-42 -42v0v0z" />
    <glyph glyph-name="bracketleft" unicode="[" horiz-adv-x="756" 
d="M52 420l21 -273v42l21 -84l42 -21l21 -42h357v0h21v-21l63 21l84 21l21 21l-42 84v0h-21l-315 21v0l-105 42l-21 63v126l21 273l21 252v231v357l21 378v0v0v0v0v0v0v0v0v0v0v0v0v0l21 21l63 21l126 21h105h63l42 21l21 21l-21 21l-105 42v-21l-84 21v0l-189 -21l-105 -21
l-42 -42l-21 -21l-21 -126l-21 -294v-357l21 -21l-42 -462v-21l-21 -273v0z" />
    <glyph glyph-name="backslash" unicode="\" horiz-adv-x="693" 
d="M52 2058l21 -399v168l21 -252v63l21 -168l21 -84l21 -105l21 -84l21 -84l21 -63l21 -84l21 -63l21 -63l21 -63l21 -63l21 -63l21 -63l21 -63l21 -63l21 -63l21 -42l21 -63l21 -63l21 -42l21 -84l21 -21l63 21l21 126v-63l-42 147v42l-42 84l-21 63l-21 63l-21 84l-21 63
l-21 63l-21 84l-21 63l-21 84l-21 84l-21 84l-21 84l-21 84l-21 105l-21 84l-21 84l-21 84l-21 147l-21 63l-21 105l-21 63h-63l-21 -21v0z" />
    <glyph glyph-name="bracketright" unicode="]" horiz-adv-x="756" 
d="M52 1953l21 -105l147 42l105 21h42l21 -21l147 21l21 -462v189l21 -567v0l-21 -525l21 -21v-546v0h-126h-42l-147 42l-42 21h-105l21 -105h21v0v-21h21l63 -21l126 -21h231l42 21l42 21l21 63l-21 294v42v1050v0v42l-42 441l21 -168l-42 315l21 -105l-42 126v0h-21
l-399 -21h21l-84 -21l-63 -21v0z" />
    <glyph glyph-name="asciicircum" unicode="^" horiz-adv-x="735" 
d="M52 1554l21 -63l21 -21l105 42l21 21l42 42l21 42l42 42v21l21 42l21 -42l21 -63l21 -63l21 -42l42 -21l21 -63l21 -42l42 -21l21 -42l105 21v63l-21 42l-21 42l-42 42l-21 42l-21 42l-21 42l-21 84l-21 63l-21 63l-21 63l-21 42l-42 21h-63l-42 -42l-21 -42l-21 -42
l-21 -42l-21 -42l-21 -42l-21 -42l-21 -42l-21 -21l-42 -63l-21 -21v0z" />
    <glyph glyph-name="underscore" unicode="_" horiz-adv-x="924" 
d="M52 84l21 -84h21h21v0v-21h126h567l42 21l21 21l-42 84v0h-21l-609 21l-42 -21h-105v-21z" />
    <glyph glyph-name="a" unicode="a" horiz-adv-x="1197" 
d="M52 462l21 -189l21 -63l21 -42l42 -21l21 -63l63 -21l21 -42h42l63 -21l105 -21h42l126 21l84 21l42 21l42 21l42 21l21 21l42 42l21 21l21 42l42 21l21 -168l21 -63l42 -21h42l21 21v105l-21 105l-21 147l-21 210l-21 126l-21 84l-21 42l-21 21l-42 42l-21 42l-21 42
l-21 42l-42 21l-63 42h-42l-126 21v0l-168 -21l-42 -21l-84 -21l-42 -42h-21l-42 -42l-21 -21l-42 -84l-21 -42l-21 -63l-21 -63l-21 -84l-21 -126v0v0zM577 126h-105l-63 21l-42 21l-42 21l-42 21l-21 42l-42 63v42l21 273v-42l21 105l21 63l21 42l42 42l21 21l63 42l63 21
l63 21h147l84 -21l21 -42l42 -21l21 -63l21 -63l42 -21l-42 -336l-21 -63l-21 -42l-21 -21l-42 -42l-21 -21l-42 -21l-63 -21l-84 -21v0z" />
    <glyph glyph-name="a" unicode="&#xe0;" horiz-adv-x="1197" 
d="M52 462l21 -189l21 -63l21 -42l42 -21l21 -63l63 -21l21 -42h42l63 -21l105 -21h42l126 21l84 21l42 21l42 21l42 21l21 21l42 42l21 21l21 42l42 21l21 -168l21 -63l42 -21h42l21 21v105l-21 105l-21 147l-21 210l-21 126l-21 84l-21 42l-21 21l-42 42l-21 42l-21 42
l-21 42l-42 21l-63 42h-42l-126 21v0l-168 -21l-42 -21l-84 -21l-42 -42h-21l-42 -42l-21 -21l-42 -84l-21 -42l-21 -63l-21 -63l-21 -84l-21 -126v0v0zM577 126h-105l-63 21l-42 21l-42 21l-42 21l-21 42l-42 63v42l21 273v-42l21 105l21 63l21 42l42 42l21 21l63 42l63 21
l63 21h147l84 -21l21 -42l42 -21l21 -63l21 -63l42 -21l-42 -336l-21 -63l-21 -42l-21 -21l-42 -42l-21 -21l-42 -21l-63 -21l-84 -21v0z" />
    <glyph glyph-name="b" unicode="b" horiz-adv-x="1197" 
d="M52 1239l21 -147l21 -21l21 -315l21 -21l21 -273l21 -21l21 -399v105l21 -147v21l21 -42l105 42v21v21v0v0h21l63 -21l63 -21l63 -21h231l63 21l42 21l42 21l21 21l42 42l21 21l21 42l42 42v21l21 42l21 84l21 105v147l-21 105l-21 42l-21 63l-21 42l-42 42l-21 42
l-42 21l-21 21l-42 21l-42 21l-84 21l-105 21h-84l-105 -21l-42 -21l-42 -21l-42 -42l-21 -21l-42 -42l-21 -42l-21 -42l-21 105l-21 105l-21 84l-21 63l-21 42h-84v0zM640 966l105 -21l84 -21l42 -21l21 -42l42 -21l21 -42l21 -42l21 -42l21 -84v-147l-21 -84l-21 -63
l-21 -42l-21 -21l-42 -42l-21 -21l-42 -42h-21l-105 -21h-63l-84 21l-84 21l-63 21l-63 21l-21 21v42l21 420v-84l21 147v-21l21 63l21 42l42 42l21 21l126 21l21 21v0v0v0v0v0v0h21z" />
    <glyph glyph-name="c" unicode="c" horiz-adv-x="1113" 
d="M52 483l21 -231v63l21 -126l42 -21l21 -42l42 -21l21 -42h42l42 -21l63 -21l126 -21h126l147 21l84 21l63 21l84 21l21 21l42 42l-42 42l-147 -21v0l-252 -21v0h-63h-42l-147 42v-21l-42 42l-42 21l-42 21l-21 42l-21 84v63l21 105l21 63l21 63l21 42l21 42l42 42l21 42
l21 42l42 42l21 21l63 42l21 21l63 42l42 21l63 21h84l42 -21l21 -42l21 -42l21 -63l21 -42l21 -42l21 -42l63 21l-42 210l21 -21l-42 84l-21 42l-21 42l-42 21l-105 42h-42l-42 -21l-105 -21v0l-42 -21l-42 -21l-42 -21l-42 -42l-42 -21l-42 -42l-21 -21l-42 -42l-21 -42
l-21 -21l-42 -63l-21 -42l-21 -42l-21 -42l-21 -63l-21 -63l-21 -105v0v0z" />
    <glyph glyph-name="c" unicode="&#xe7;" horiz-adv-x="1113" 
d="M52 483l21 -231v63l21 -126l42 -21l21 -42l42 -21l21 -42h42l42 -21l63 -21l126 -21h126l147 21l84 21l63 21l84 21l21 21l42 42l-42 42l-147 -21v0l-252 -21v0h-63h-42l-147 42v-21l-42 42l-42 21l-42 21l-21 42l-21 84v63l21 105l21 63l21 63l21 42l21 42l42 42l21 42
l21 42l42 42l21 21l63 42l21 21l63 42l42 21l63 21h84l42 -21l21 -42l21 -42l21 -63l21 -42l21 -42l21 -42l63 21l-42 210l21 -21l-42 84l-21 42l-21 42l-42 21l-105 42h-42l-42 -21l-105 -21v0l-42 -21l-42 -21l-42 -21l-42 -42l-42 -21l-42 -42l-21 -21l-42 -42l-21 -42
l-21 -21l-42 -63l-21 -42l-21 -42l-21 -42l-21 -63l-21 -63l-21 -105v0v0z" />
    <glyph glyph-name="d" unicode="d" horiz-adv-x="1197" 
d="M52 546l21 -273v42l21 -63l42 -21l21 -42l63 -21l42 -21l42 -21l84 -21h294l84 21l63 21l42 21l42 21l42 21h21l21 -210h21v0v-21l42 21l21 21l21 63l21 378l21 63v105l-21 21l-21 168v-63l21 252v168l21 42l-42 168v0v21h-21l-21 -21l-21 -21l-21 -189v0l-21 -63v0
l-21 -42l-21 21l-21 42l-42 21l-63 21h-189l-84 -21l-42 -21l-42 -21l-42 -21l-42 -42l-42 -21l-42 -42l-21 -21l-42 -42l-21 -42l-21 -21l-42 -63l-21 -21l-42 -105l-21 -63l-21 -63v0v0zM703 252h-273l-63 21l-42 21l-42 21l-42 21l-21 42l-21 42v42l21 84l21 63l21 42
l21 42l21 42l42 42l21 42l42 42l21 21l42 42l21 21l63 42l21 21l126 42h126l42 -21l21 -42l21 -42l42 -21v-63v-504l-21 -21l-42 -21l-42 -21l-42 -21l-105 -21v0z" />
    <glyph glyph-name="e" unicode="e" horiz-adv-x="1050" 
d="M52 504l21 -252v63l21 -84h21v0v-21l21 -42l42 -21l21 -42l42 -21l42 -21l42 -21l63 -21l63 -21l105 -21h168l105 21l84 21l42 21l42 21v21l-21 21l-483 42l21 -21l-84 42l-42 21l-42 21l-42 21l-42 21l-21 42l-42 105v63l21 42l21 42v0l21 -21l63 -21l84 -21h210l105 21
l63 21l42 21l42 21l21 21l42 42l21 42l42 42v21v168l-21 42l-21 42l-42 21l-21 42l-42 21l-42 21l-63 21h-147l-63 -21l-42 -21l-42 -21l-42 -21l-42 -42l-21 -21l-42 -42l-21 -21l-42 -42l-21 -21l-42 -63l-21 -21l-42 -84l-21 -42l-21 -42l-21 -84v0v0zM682 609h-294
l-63 21l-42 21v21l21 42l42 42v21l42 42l21 21l42 42l21 21l63 42l42 21l63 21h105l42 -21l42 -21l21 -42l42 -21l21 -63v0l-42 -84l-21 -21l-42 -42l-21 -21l-42 -21l-63 -21v0z" />
    <glyph glyph-name="e" unicode="&#xe9;" horiz-adv-x="1050" 
d="M52 504l21 -252v63l21 -84h21v0v-21l21 -42l42 -21l21 -42l42 -21l42 -21l42 -21l63 -21l63 -21l105 -21h168l105 21l84 21l42 21l42 21v21l-21 21l-483 42l21 -21l-84 42l-42 21l-42 21l-42 21l-42 21l-21 42l-42 105v63l21 42l21 42v0l21 -21l63 -21l84 -21h210l105 21
l63 21l42 21l42 21l21 21l42 42l21 42l42 42v21v168l-21 42l-21 42l-42 21l-21 42l-42 21l-42 21l-63 21h-147l-63 -21l-42 -21l-42 -21l-42 -21l-42 -42l-21 -21l-42 -42l-21 -21l-42 -42l-21 -21l-42 -63l-21 -21l-42 -84l-21 -42l-21 -42l-21 -84v0v0zM682 609h-294
l-63 21l-42 21v21l21 42l42 42v21l42 42l21 21l42 42l21 21l63 42l42 21l63 21h105l42 -21l42 -21l21 -42l42 -21l21 -63v0l-42 -84l-21 -21l-42 -42l-21 -21l-42 -21l-63 -21v0z" />
    <glyph glyph-name="f" unicode="f" horiz-adv-x="1071" 
d="M52 798l21 -63h42h21l168 -21l21 -189v0l21 -126v0l21 -168l21 -105l21 -63l42 -21h21l42 21l21 63l21 42l-42 210v42l-21 315v-147l21 147l336 42v42v-42l21 42l-42 21l-21 21l-315 42v0v0l21 42l21 105l21 42l21 42l21 42l42 42l21 21l63 42h126l42 -21l21 -42l42 -21
l21 -42h42l-21 105l-21 42l-21 42l-42 21l-42 42l-42 21h-84l-84 -21l-63 -21l-42 -42l-42 -21l-42 -63l-21 -21l-42 -63l-21 -42l-21 -42l-21 -63l-21 -84l-21 -63h-42l-126 -21l-42 -21l-42 -42v0v0z" />
    <glyph glyph-name="g" unicode="g" horiz-adv-x="1113" 
d="M52 420l21 -252v84l21 -105h21v0v-21l21 -42l42 -21l21 -42l63 -21l21 -21l105 -21h252l84 21l63 21l42 21l21 21l42 42l21 21v-210l-21 -84l-21 -21l-42 -21l-147 -21l-42 -42v-21v0l63 -21l63 -21h126l63 21l21 21l42 42l21 42l21 84v819l-21 84l-21 42l-42 105l-21 42
l-21 42l-42 21l-42 42h-168l-105 -21l-42 -21l-63 -21l-42 -21l-42 -21l-42 -42l-42 -21l-42 -42l-21 -21l-42 -42l-21 -42l-21 -21l-21 -42l-21 -63l-21 -42l-21 -63l-21 -84v0v0zM577 105h-84l-84 21l-42 21l-42 21l-42 21l-21 42l-21 63h-21v0v0v21v63l21 84l21 63l21 42
l21 63l42 42l21 42l42 42l21 21l42 21l21 21l42 21l42 21l42 21l84 21h105l42 -21l21 -63l21 -84v-315l-21 -84l-21 -42l-21 -42l-21 -42l-21 -21l-42 -42h-21l-42 -21l-105 -21v0z" />
    <glyph glyph-name="h" unicode="h" 
d="M52 1344l21 -63l21 -63v0l21 -1155v399l21 -420h21v0v-21l84 21l21 21l21 252l21 105l21 63l21 42l21 42l21 42l21 42l21 42l42 42l21 42l63 42h126l42 -21l21 -42l42 -21l21 -42l42 -21l21 -63l42 -21l21 -84l21 -63v-231l-21 -84v-63l42 -21h63l21 21l21 84l21 84v210
l-21 84l-21 42l-21 42l-21 42l-21 42l-42 42l-21 42l-21 42l-42 21l-21 42l-42 21l-21 21l-42 21l-21 21l-63 21h-84l-84 -21l-42 -21l-42 -42l-21 -21l-42 -42l-21 -21l-21 -42l-21 -42h-21l-42 504l21 -105l-42 168l21 -21l-42 42l-21 42l-42 21h-21v0l-42 -42v0v0z" />
    <glyph glyph-name="i" unicode="i" horiz-adv-x="294" 
d="M52 441v-105v-21l21 -126v0l21 -63l21 -21l63 21l21 21l21 63v735l-21 84l-21 42h-63l-21 -21l-42 -609v0v0zM73 1260l21 -147v21l21 -21l105 42l21 63l-21 21l-21 42l-42 21h-42l-42 -42v0v0z" />
    <glyph glyph-name="j" unicode="j" horiz-adv-x="840" 
d="M52 -168l21 -84h21v0v-21h42l21 -42h42l42 -21l84 -21h105l84 21l42 21l42 21l21 21l42 42l21 21l21 42l21 42l21 63l21 63l21 126v546l-21 84l-21 63l-21 42l-21 84l-21 21l-42 -21l-21 -21l-21 -105l21 -21l21 -147l21 -21l-42 -567l21 105l-42 -189v-21l-42 -63
l-21 -42l-42 -21l-42 -42l-189 -21v0l-84 42l-63 21h-63v0zM598 1197l21 -105h21l63 21v0v0v0v0l42 42l-21 21l-21 42h-105v-21z" />
    <glyph glyph-name="k" unicode="k" horiz-adv-x="1029" 
d="M52 1386l21 -126l21 -21l21 -210v-420l-21 -231l-21 -168v-84l42 -21h42l42 21v21l21 42l21 105l21 126h63l42 -21l42 -21l42 -21l42 -21l42 -21l42 -21l21 -42h42l21 -42l63 -21l21 -42l42 -21v-42l42 -21l21 -42h84l42 21l-42 105h21l-42 21l-21 42l-21 21l-21 42
l-42 21l-42 42l-42 21l-42 42l-42 21l-42 21l-42 21l-42 21l-42 21l-42 21l-42 21l-42 21l21 21l63 42l21 21l42 42l21 21l42 42l21 42l42 42l21 42l42 42v21l21 42l21 42l21 63v42l-21 42h-63l-42 -84v0v0v-21l-42 -63l-21 -21l-42 -63l-21 -21l-42 -42l-21 -21l-42 -42
l-21 -21l-42 -42h-21l-21 294l-21 105l-21 84l-21 63l-21 63l-21 42l-42 21h-63l-21 -21v0z" />
    <glyph glyph-name="l" unicode="l" horiz-adv-x="294" 
d="M52 189l21 -252v21l21 -42l84 42v21v21v0v0l21 21l21 651l21 42l-42 462l21 -21l-42 84l-21 63h-63v-441l21 252l-42 -588v-21l-21 -315v0z" />
    <glyph glyph-name="m" unicode="m" horiz-adv-x="1575" 
d="M52 1029l21 -63l21 -126l21 -756l21 -21l126 42v21v0v0l21 21l21 315v-84l21 231l21 63l21 84l21 42l21 42l21 42l42 21h105l21 -42l42 -21l21 -63l21 -42l21 -105v-231v-21l21 -273h21l42 21v0v0v0l42 42l21 63v105l21 84l21 105l21 84l21 42l21 42l21 42l21 42l42 42
l42 21l42 21h147l42 -21l21 -42l21 -63l21 -105v-252v-21l21 -315h21l63 21v0v0v0v21l21 63l21 273v84l-21 168l-21 105l-21 42l-21 42l-21 42l-21 42l-42 21l-42 21l-84 21h-63l-105 -21l-42 -21l-42 -42l-42 -21l-42 -42l-21 -42l-21 -21l-21 -42l-21 42l-21 42l-21 42
l-21 42l-21 21l-21 42l-42 21l-42 21l-126 21v0l-105 -21v0l-21 -21h-21l-21 -21l-42 -63l-21 -42h-21l-21 63l-21 63l-21 42l-42 21h-63l-21 -42v0z" />
    <glyph glyph-name="n" unicode="n" horiz-adv-x="1071" 
d="M52 1008l21 -252v0l21 -189v0v-441v273l21 -21l-21 -399l84 -21l21 21v0v0v0v0l42 42v42l21 105l21 147l21 105l21 84l21 84l21 42l21 42l21 42l21 42l42 42l21 21l42 42l84 21h84l63 -21l21 -42l42 -21v-42l21 -63v-336l-21 -147v-189l21 -21l105 42v21v21v0v0l21 21
l21 315l21 42l-42 273l21 -84l-42 126h21l-42 42l-21 42l-21 42l-21 42l-42 21l-42 21l-63 21h-168l-63 -21l-42 -21l-42 -42l-42 -21l-42 -63l-21 -21l-21 -42l-21 -42l-21 -42l-21 -63l-21 168l-21 126l-21 42l-21 42h-84v0z" />
    <glyph glyph-name="o" unicode="o" 
d="M52 462l21 -210l21 -42l21 -42l21 -42l42 -21l21 -42l63 -21l21 -42l84 -21l63 -21l105 -21h42l105 21l63 21l42 21l42 21l42 21l21 21l42 42l21 21l42 42v21l42 42v21l21 42l21 42l21 63v63l-21 84l-21 63l-21 84l-21 63l-21 42l-21 42l-21 42l-42 21l-21 42l-42 21
l-21 21l-105 21l-84 21l-147 21h-63l-42 -21l-42 -21l-42 -21l-42 -63l-21 -21l-42 -63l-21 -42l-21 -42l-21 -42l-21 -42l-21 -63l-21 -84l-21 -63v0v0zM598 903l63 -21l84 -21l63 -21l21 -42l42 -21v-42l21 -42l21 -42l21 -63l21 -63l21 -84v-42l-21 -63l-21 -42l-21 -21
l-42 -63l-21 -21l-42 -42l-21 -21l-42 -21l-42 -21l-105 -21h-63l-84 21l-42 21l-42 21l-42 21l-42 21l-21 42l-42 42l-21 42v42l21 231v-42l21 105l21 63l21 42l21 42l42 42l21 63l63 21h147h21z" />
    <glyph glyph-name="p" unicode="p" horiz-adv-x="1092" 
d="M52 189l21 -546v63l21 -63l84 42v21v63v0v0v0v0l21 21l21 231l21 42l21 63v-21h42l63 -21l105 -21h231l63 21l63 21l42 21l21 21l63 42l21 42l42 42v21l21 63v210l-21 63l-21 42l-21 42l-21 42l-42 21l-21 42l-42 21l-21 21l-42 21l-21 21l-84 21l-84 21h-63l-63 -21
l-42 -21l-42 -21l-42 -42l-21 -21l-42 -63l-21 -21l-42 -84v63l21 84v168l-21 84h-42l-42 -168l-21 -84l-21 -84l-21 -147l-21 -378v0v0zM577 819l105 -21l42 -21l42 -21l42 -21l21 -42l42 -21l21 -42l21 -42l21 -63v-105l-21 -63l-21 -42l-21 -21l-42 -42l-42 -21l-42 -21
l-63 -21h-168l-84 21l-84 21l-42 21l-42 21v42l21 126l21 84l21 42l21 42l21 42l21 42l42 42l21 21l42 42l63 21v0h21z" />
    <glyph glyph-name="q" unicode="q" horiz-adv-x="1386" 
d="M52 567l21 -168l21 -21l21 -84l21 -42l42 -21l21 -42l42 -21l42 -21l21 -42l168 -21h126l105 21l63 21l21 21l63 42h21v-21l-21 -126v0l-21 -189v0l-21 -126v0l21 -105h21v0v-21l63 21l42 21l42 21l21 21l42 21l42 21l42 21l42 21l42 21l42 21l42 21l21 21l-21 21l-63 21
v0l-168 -21h21l-84 -21h-42l21 231l21 42l21 378v336l-21 42l-21 21l-84 42v21h-21v0v21h-21l-21 42l-42 42l-42 21l-105 21h42l-105 -21l-42 -21l-84 -21l-42 -21l-42 -21l-42 -21l-42 -21l-42 -42l-42 -21l-42 -42l-21 -21l-42 -63l-21 -42l-21 -63l-21 -105v0v0zM661 231
h-210l-63 21l-42 21l-42 42l-42 42l-21 42l-21 63v42l21 168v0l21 42l42 42l21 21l42 42l42 21l21 21l84 42l42 21l84 21h105l21 -42l21 -42h42l21 -105l42 -21l-42 -315l21 84l-42 -126l21 21l-42 -63l-21 -21l-42 -42l-42 -21l-42 -21v0zM913 777h-21v0h21z" />
    <glyph glyph-name="r" unicode="r" horiz-adv-x="1092" 
d="M52 1071l21 -84h21v0v-21l21 -210l21 -21l21 -252l21 -21l21 -273l21 -21l21 -189h21l63 21v0v0v0v21l21 105l21 252l21 105l21 126l21 63l21 42l21 42l42 42l21 21l21 21l126 42h21l189 -21l21 -42l63 -21l21 -42l42 42l-21 42l-21 42l-21 42l-42 21l-42 21l-63 21h-231
l-63 -21l-42 -21l-42 -42l-42 -21l-42 -63l-21 -21l-21 -63l-21 -42l-21 -84l-21 21l-42 231l21 -63l-42 126l-21 42l-21 42l-21 42l-84 42v-21z" />
    <glyph glyph-name="s" unicode="s" horiz-adv-x="945" 
d="M52 315l21 -147l42 -21v-42l42 -21l42 -21l42 -21l42 -21l84 -21h126l126 21l42 21l42 21l42 21l21 21l42 42l21 42l21 63v63l-21 63l-21 42l-42 42l-21 42l-42 21l-42 21l-42 42l-42 21l-21 21l-42 21l-42 21l-21 21l-42 21l-42 21l-21 21l-42 21l-42 21l-21 42l21 21
l42 42l42 21l42 21l63 21h210l21 -42l42 -21l42 -21l21 -42l105 21l-42 63v0v21l-21 21l-21 42l-42 21l-21 42l-42 21l-42 21h-189l-84 -21l-63 -21l-42 -21l-42 -21l-42 -42l-42 -21l-42 -63l-21 -42v-42l21 -63l42 -21l21 -42l42 -21l42 -21l21 -42h42l42 -21l42 -21
l42 -21l42 -21l21 -42h42l42 -21l42 -21l21 -42l42 -21l21 -42l21 -42v-21l-21 -42l-21 -21l-42 -21l-42 -21l-126 -21h-105l-63 21l-42 21l-42 21l-42 21l-21 42l-21 21l-21 105h-42l-42 -84v0v0z" />
    <glyph glyph-name="t" unicode="t" 
d="M52 945l21 -84l126 21h105l84 -21l-21 -189l-21 -315v-231l21 -126l42 -21h42l21 21l21 315l21 336l21 189h147h378l42 21l-21 84l-126 21v0l-399 42l42 -21l-42 42l-21 252l-21 42l-21 42l-21 42h-42l-42 -42v-42l21 -84l-42 -231l-273 -21h84l-105 -21v0l-21 -21v0v0v0
z" />
    <glyph glyph-name="u" unicode="u" horiz-adv-x="1176" 
d="M52 756l21 -399v105l21 -168v42l21 -84l21 -42l42 -21v-42l63 -21l21 -42l84 -21l63 -21h252l63 21l42 21l42 21l21 21l42 42l21 21l42 42v21l42 21l21 -105l42 -21l21 -42l63 42l-42 168v42l-21 273l-21 294l-21 84l-21 21l-84 -21v0v-21l-42 -567l21 42l-42 -84
l-21 -42l-21 -42l-21 -21l-42 -42l-42 -21l-42 -21l-147 -21v0l-126 42v-21l-42 42l-42 21l-21 42l-42 42l-21 105l-21 126v126l21 231v42l-21 84l-21 21h-21l-42 -42l-21 -84l-21 -63l-21 -126v0v0z" />
    <glyph glyph-name="v" unicode="v" horiz-adv-x="1008" 
d="M52 1050l21 -273v84l21 -168l21 -21l21 -84l21 -63l21 -63l21 -42l21 -63l21 -63l21 -63l21 -63l21 -42l42 -21l21 -42l63 21l21 21l42 21l21 42l21 42l21 42l21 42l21 42l21 42l21 42l21 42l42 42l21 42l21 42l21 42l42 42l21 42l42 42l21 42l42 42l21 63v84l-21 21
l-63 -21l-42 -42l-21 -42l-21 -21l-42 -42l-21 -42l-21 -21l-42 -63l-21 -21l-42 -84l-21 -21l-21 -42l-21 -42l-21 -21l-21 -42l-21 -42l-21 -42l-21 -42l-21 -42l-21 42l-42 84l-21 42l-21 63l-21 63l-21 42l-21 63l-21 42l-21 63l-21 84l-21 63l-21 63l-21 42l-63 42v-21
z" />
    <glyph glyph-name="w" unicode="w" horiz-adv-x="1617" 
d="M52 735l21 -483v105l21 -147v21l21 -63l42 -21v-42l63 -21l21 -42l126 -21l147 21l63 21l21 21l63 42l21 21l42 42l21 42l42 -21l21 -63l42 -21l21 -42l63 -21l42 -21l42 -21h210l63 21l42 21l21 21l42 42l21 21l42 42l21 42l21 42l21 42l21 42l21 126v210l-21 126
l-21 84l-21 42l-21 42l-21 42l-42 21h-63l-21 -63v0l21 -105l21 -63l21 -105v-273l-21 -63l-21 -42l-21 -42l-21 -21l-42 -42l-21 -21l-42 -21h-147l-42 21l-42 21l-21 21l-21 42l-21 21l-21 105v231v63l-21 42l-21 21h-42l-42 -42l-21 -63l-21 -84l-21 -105l-21 -63
l-21 -42l-21 -42l-21 -42l-21 -21l-42 -42h-21l-42 -42h-63h-63l-42 21l-42 21l-21 42l-21 21l-21 252l-21 504l-21 42l-63 -21l-21 -63v0l-42 -273v0v0z" />
    <glyph glyph-name="x" unicode="x" horiz-adv-x="1113" 
d="M52 84l21 -105l105 42v0l21 21v0l21 21v0l21 21v0l21 21v0l21 21v0h21l21 21v0v0l42 42l21 21l42 42l21 21l63 42l21 21l42 21l21 -63l42 -21l21 -42l42 -21v-42l42 -21l21 -42l42 -21l21 -42l42 -21l21 -42l84 42v21h-21v0v21l-21 21l-21 42l-21 42l-21 21l-21 42
l-42 42l-21 42l-42 21l-21 42l-21 21l-21 42l-21 21l42 42l21 21l21 42l42 42l21 21l42 42l21 21l42 42l21 21l42 42l84 21l-21 63l-42 21l-42 -21l-63 -21l-42 -21l-42 -42l-21 -21l-42 -42l-21 -21l-42 -42l-21 -21l-42 -42l-21 -21h-21l-42 21l-21 42l-42 42l-21 42
l-42 42l-21 42l-42 63l-21 42h-63v-84l21 -63l21 -42l21 -42l21 -42l21 -42l42 -21l21 -63l42 -21l-42 -63l-21 -21l-42 -42l-21 -21l-42 -42l-21 -21l-42 -21l-42 -42l-21 -21l-42 -42l-21 -21l-42 -42l-21 -21v0z" />
    <glyph glyph-name="y" unicode="y" horiz-adv-x="924" 
d="M52 567l21 -315l21 -21l21 -84l21 -42l42 -21l21 -42l63 -21l42 -21l63 -21l84 -21h63l84 21l63 21l21 21l63 42l21 21v-21l-42 -189v-21l-42 -105l21 21l-42 -42l-21 -21l-63 -21h-21h-42l-189 -21v0v-21h21l21 -42l63 -21l63 -21h147l63 21l21 21l42 42l21 21l21 63
l21 84l21 84l21 126v546l-21 231l-21 42l-84 -21v0v-21l21 -189v0l-42 -378l21 63l-42 -105l-21 -21l-42 -63l-42 -21l-42 -21l-189 42v-21l-42 42l-42 21l-21 42l-42 42l-21 105v378l21 42l-42 252l21 -21l-42 21l-63 -21v0v-21v-63v-21l-42 -315v0v0z" />
    <glyph glyph-name="z" unicode="z" horiz-adv-x="1008" 
d="M52 126l21 -105h21h231v0v0v0v0v0v0v0v0v0v0v0v-21h189l21 -21l336 42l-63 -21l84 42v21h-21v0v21h-21l-231 42l-126 21l-147 21v21l42 42l21 42l63 42l21 42l42 42l21 21l21 42l42 42l21 42l42 42l21 42l42 42v21l42 42v21l42 42v21l21 42l42 42l21 21l42 42v21v21
l-21 42l-21 42h-42l-420 -21l-42 -21l-147 21v0l-126 -21v0v-21l21 -84h21h63v0v0v0v-21h105h189l147 21h63l-21 -42l-21 -21l-21 -42l-21 -21l-21 -42l-21 -21l-21 -42l-21 -21l-21 -42l-21 -21l-42 -63l-21 -21l-42 -42l-21 -42l-21 -21l-42 -42l-21 -21l-42 -42l-21 -21
l-42 -42l-21 -21l-42 -21l-42 -42l-21 -21l-42 -42v0v0z" />
    <glyph glyph-name="braceleft" unicode="{" horiz-adv-x="819" 
d="M52 1071l21 -105h21h126v0v0v0v0v0v0v-21h21l-42 -189v-21l21 -483v147l21 -210v42l21 -84l42 -21l21 -42l126 -21l126 21l126 21l42 21l21 21l-42 84v0h-21l-231 -21h63h-84l-63 21l-42 84l-21 231v189l21 105v168l-21 42l-21 21l21 63l21 21v21v0v0l21 21l21 63v252
v252l21 63l21 42l63 42l42 21h105l42 -21h84l-21 42l-21 42l-42 21l-42 42h-126l-63 -21l-42 -21l-42 -42l-21 -21l-42 -42l-21 -42l-21 -63v-315l21 -21l-42 -231l21 42l-42 -63l-21 -42l-21 -21l-42 -21l-42 -21l-42 -42v0v0z" />
    <glyph glyph-name="bar" unicode="|" horiz-adv-x="8400" 
d="M52 147l21 -126v21l21 -42l126 -21h189l147 -21h294l21 21l-42 84v0h-21l-189 21v0l-189 21v0l-63 21v0l-147 21l21 21l21 42l21 42l42 42l21 21l21 42l42 42l21 42l42 42l21 42l42 42l21 42l21 42l42 42l21 42l21 42l42 42l21 63l21 42l21 42v84l-21 42l-126 21h-378
l-42 -21l21 -63l420 -21h-63l63 -21l-42 -63l-21 -42l-21 -21l-42 -63l-21 -21l-42 -63l-21 -42l-21 -21l-42 -63l-21 -42l-21 -21l-42 -63l-21 -21l-42 -42l-21 -21l-42 -63l-21 -21l-42 -63l-21 -42l-21 -42v0v0zM850 588l21 -315v63l21 -105l21 -42l42 -21l21 -42l42 -21
l21 -42l63 -21l42 -21l42 -21l63 -21h210l42 21l42 21l21 21l42 42l21 21l21 42l21 42l21 42l21 63l21 -189l21 -105l21 -21l84 42v21v0v0l21 21l-21 441l-21 63l-21 168l-21 147l-21 126l-21 21h-42l-42 -42l-42 42l-42 21l-84 21h-231l-84 -21l-42 -21l-42 -21l-42 -42
l-42 -21l-42 -63l-21 -21l-21 -42l-21 -42l-21 -42l-21 -63l-21 -84v0v0zM1438 126h-147l-63 21l-42 21l-42 21l-42 42l-42 21l-21 42l-21 42l-21 84v105l21 105l21 63l21 42l21 42l42 42l21 21l42 42l42 21l42 21l84 21h126l84 -21l21 -42l84 -21l-42 -420l21 84l-42 -168
v-21l-42 -84l-21 -42l-21 -21l-42 -42l-42 -21v0zM1858 987l21 -147l21 -21l21 -231v-21v-273l21 -105l21 -84l21 -84l42 -21l21 -42l63 21l21 21v357l-21 105l-21 84v126l21 42l21 42l42 42l21 21l63 21l21 21v0v0v0l294 -21l-42 -63l-21 -42l-21 -42l-21 -84v-210l21 -63
l21 -42l21 -42l42 -21l21 -63l42 -21l42 -21l21 -42l63 -21l42 -21l63 -21h210l63 21l21 21l63 42l21 42l42 42l21 42l21 42l21 42l21 -42l21 -126l21 -63l21 -21l63 42l21 126l-21 126l-21 252l-21 294l-21 42l-63 21l-42 21l-42 42l-42 21l-42 21l-189 21v0l-189 -21h42
l-105 -21l-42 -21l-42 -42l-21 -21l-42 -42l-105 42l-105 21h-168l-63 -21l-42 -21l-42 -21l-42 -42h-21l-42 42l-21 63l-21 42l-21 21h-21v0l-42 -63v0v0zM2992 168l-84 21l-42 21l-42 21l-42 21l-42 42l-42 42l-21 42l-21 21l-21 63v84l21 84l21 63l21 42l21 42l42 42
l21 21l42 42l21 21l63 21l105 21h126l63 -21l42 -21l63 -21l21 -21l-42 -336l21 63l-42 -126l-21 -42l-21 -42l-21 -42l-21 -42l-21 -21l-42 -42l-21 -21l-42 -42h-63v0zM4294 672l21 -294v105l21 -168v42l21 -84l21 -42l42 -21l21 -42l42 -21l21 -42l84 -21l63 -21h231
l63 21l21 21l63 42l21 21l42 42l21 21l21 42l21 42l21 42l21 42v-105l-21 -189l-21 -105l-21 -84l-21 -63l-21 -42l-21 -42l-21 -42l-21 -21l-42 -42l-21 -21l-147 -21l21 -63l105 -21h42l63 21l42 21l21 21l42 42l21 42l21 42l21 42l21 63l21 63l21 84l21 105l21 189
l21 147l21 -63l21 -84l21 -42l21 -42l42 -21l21 -63l63 -21l21 -42h42l42 -21l63 -21l63 -21l105 -21h147l105 21l63 21l42 21l42 21l21 21l42 42l42 21v21l42 42l21 42l42 42v21l21 63l42 -21v-147l21 -63l21 -42l21 -42l42 -21l21 -42h42l42 -21h168l42 21l42 21l21 21
l42 42l42 21l21 42l63 -21l21 -42l63 -21l42 -21l42 -21l42 -21l84 -21l84 -21h147l105 21l42 21l42 21l21 21l42 42l21 21l42 42v21l21 42l21 63l21 84v336l-21 63l-21 42l-21 42l-21 42l-42 42l-21 42l-42 21l-42 21l-21 21l-63 21l-84 21h-84l-42 -21l-42 -21l-21 -126
v63l21 -63l84 21l21 -21l84 -21l42 -21l42 -21l21 -42l42 -21l21 -42l21 -42l21 -63v-294l-21 -84l-21 -42l-21 -42l-21 -21l-42 -21l-42 -21h-189l-84 21l-42 21l-42 21l-42 21l-42 21l-42 21l-21 42v63v84l-21 21l-105 -21v0v-21l-21 -63v0l-42 -42l-21 -42l-21 -21
l-21 -42l-42 -21l-42 -42l-126 -21h63l-84 42h-21v0v21h-21l-21 42l-21 63v231l21 105l21 63l21 84l21 42l21 63l21 42l21 42l21 63v42l-21 21l-63 -21v0l-21 -21v0l-21 -21v0l-21 -21v0v-21l-42 -63l-21 -42l-21 -42l-21 -42l-21 -42l-21 -63l-21 -84l-21 42l-21 42l-21 42
l-21 42l-42 21l-21 42l-42 21l-42 42l-42 21l-42 21l-42 21l-42 21l-63 21l-105 21l-63 21l-42 21l-63 21v0l-126 -21l-42 -21l-42 -42l-21 -21l-42 -42l-21 -21l-42 -63l-21 -42l-21 -42l-21 -42l-21 -42l-21 -63l-21 -84l-21 336l-21 63l-21 42l-21 21l-84 -21l-42 -210
l-21 -126l-21 -84l-21 -63l-21 -42l-21 -42l-21 -42l-21 -21l-42 -63l-42 -21l-42 -21h-189l-63 21l-42 21l-42 42l-42 42l-21 42l-21 42l-21 105v126l21 147l21 84l21 63l42 21l-42 63v0v21h-21l-63 -21l-42 -63l-21 -42l-21 -63l-21 -84l-21 -105v0v0zM5890 966l21 -63h42
l63 -21l42 -21l42 -21l42 -21l21 -42l84 -21l21 -42h42l21 -42l42 -21l21 -42l21 -42v-126l-21 -63l-21 -42l-21 -42l-21 -42l-21 -21l-42 -42l-21 -21l-42 -21l-42 -21l-63 -21h-231l-63 21l-63 21l-42 21l-42 21l-42 21l-21 42l-42 21l-21 42l-21 105v21l21 105l21 63
l21 42l21 42l42 42v21l42 42v21l42 42v21l42 42l21 21l84 42zM8158 105l21 -147h21v0v-21l105 21l21 21l21 42v42l-21 63l-21 42h-84l-42 -42l-21 -21v0z" />
    <glyph glyph-name="braceright" unicode="}" horiz-adv-x="903" 
d="M52 189l21 -105l21 -42l63 -21l21 -42l63 -21h42h63l42 21l21 21l42 42l21 42l21 42l21 42l21 42l21 63l21 63l21 168l21 252l21 42l42 42l42 21l42 21l63 21l21 21v84l-63 42l-42 21l-21 42l-21 21v42l21 336v-84l21 168l21 42l21 210l-21 21l-21 42l-42 21l-42 42h-189
l-42 -21l-42 -42l-21 -21v-84l147 42h21l105 -21v0v-21h21l-42 -147l-21 -105l-21 -84l-21 -168v-126l21 -84l21 -42l21 -42v-42l-21 -21l-42 -42l-21 -21l-42 -63l-21 -105l-21 -336l-21 -63l-21 -63l-21 -42l-21 -42l-21 -42l-21 -42l-63 21l-42 21l-42 21l-21 42l-42 21
h-42l-21 -21v0z" />
    <glyph glyph-name="asciitilde" unicode="~" horiz-adv-x="1029" 
d="M52 987l21 -42l63 42l21 21l42 42v21l21 42l63 21h42l21 -63l21 -42l21 -42l42 -21l21 -63l63 -21l21 -42h42l63 -21h84l63 21l42 21l42 21l21 21l42 42l21 42l21 42v63l-21 21l-63 -21v0l-21 -21v0l-21 -21v0l-21 -21v0l-21 -21v0l-21 -21v0l-21 -21v0l-21 -21h-21
l-63 -21v0l-63 42l-42 21l-21 42l-42 21l-21 42l-21 42l-21 42l-21 42l-42 21l-63 21h-42l-42 -21l-42 -21l-42 -63l-21 -42l-21 -21l-42 -105v0v0z" />
  </font>
</defs>
</svg>
