<?xml version="1.0" standalone="no"?>
<!DOCTYPE svg PUBLIC "-//W3C//DTD SVG 1.1//EN" "http://www.w3.org/Graphics/SVG/1.1/DTD/svg11.dtd" >
<svg>
<metadata>
Created by FontForge 20120731 at Fri Oct 18 14:35:46 2019
 By www-data
Full character set added by Dieter Steffmann, Kreuztal.
</metadata>
<defs>
<font id="CoasterBlack" horiz-adv-x="468" >
  <font-face 
    font-family="Coaster"
    font-weight="400"
    font-stretch="normal"
    units-per-em="1000"
    panose-1="0 0 4 0 0 0 0 0 0 0"
    ascent="800"
    descent="-200"
    x-height="635"
    cap-height="800"
    bbox="-157 -249 1415 1048.44"
    underline-thickness="20"
    underline-position="-123"
    unicode-range="U+0020-F002"
  />
<missing-glyph horiz-adv-x="500" 
d="M63 0v763h375v-763h-375zM125 63h250v638h-250v-638z" />
    <glyph glyph-name=".notdef" horiz-adv-x="500" 
d="M63 0v763h375v-763h-375zM125 63h250v638h-250v-638z" />
    <glyph glyph-name=".null" horiz-adv-x="0" 
 />
    <glyph glyph-name="nonmarkingreturn" horiz-adv-x="359" 
 />
    <glyph glyph-name="space" unicode=" " horiz-adv-x="359" 
 />
    <glyph glyph-name="exclam" unicode="!" horiz-adv-x="288" 
d="M275 754q0 -56 -13 -138l-22 -139l-7 -56q-2 -18 -8 -67q-5 -38 -14 -55q-14 -24 -45 -34q-25 -8 -43 -8q-27 0 -49.5 15.5t-23.5 98.5q0 21 -1 109q-1 55 -3 88l-9 111q0 47 13 76q30 33 126 41q47 4 37 4q2 0 8 -1t8 -1q23 0 31 -4q15 -8 15 -40zM272 118
q0 -56 -37.5 -91.5t-94.5 -35.5q-51 0 -89 27q-42 30 -42 79q0 26 15 56q34 69 130 69q52 0 84 -25q34 -28 34 -79z" />
    <glyph glyph-name="quotedbl" unicode="&#x22;" horiz-adv-x="262" 
d="M235 757q0 -38 -10 -108q-1 -10 -5 -38q-4 -13 -22.5 -28t-32.5 -15q-16 0 -16 20q0 -31 4 47q6 106 8 129q5 17 26 27q18 9 38 9q7 -7 9 -10q1 -11 1 -33zM125 760q0 -82 -13 -140q-8 -37 -54 -50q-18 6 -18 28q0 4 1.5 18t1.5 19t-2 13q1 7 1 24v23q-1 10 -1 23
q0 66 53 81q7 2 9 2q11 0 21 -10q1 -11 1 -31z" />
    <glyph glyph-name="numbersign" unicode="#" horiz-adv-x="520" 
d="M263 0l25 185h-87l-26 -185h-106l26 185h-82v106h96l17 116h-85v106h99l26 185h106l-26 -185h88l25 185h106l-25 -185h67v-106h-82l-16 -116h67v-106h-82l-25 -185h-106zM303 291l16 116h-87l-17 -116h88z" />
    <glyph glyph-name="dollar" unicode="$" horiz-adv-x="452" 
d="M431 383q0 -42 -28.5 -81t-68.5 -52q-28 -9 -28 -43q0 -48 -11 -58q-16 -15 -65 -15q-22 0 -38 4q-11 13 -11 32q0 2 1 13t1 15q0 18 -9 30q-13 -3 -27 -3q-54 0 -90 31t-36 84q0 38 24 60q13 12 44 21t51 9q24 0 46 -9q5 -5 7 -32q1 -20 20 -20q23 0 23 20q0 32 -37 46
q-24 9 -44 17q-3 1 -22 14q-6 4 -22 15q-57 43 -57 95q0 50 35 85q19 19 69 38q14 3 22 9q5 5 5 15v10q0 5 3 9q18 33 71 33h24q12 -2 19 -12q0 -46 22 -50q7 -1 27 -5q61 -15 73 -59q1 -2 1 -10q0 -39 -27 -57q-42 -28 -74 -28q-28 0 -43.5 30.5t-22.5 30.5q-23 0 -23 -24
q0 -17 11 -25q30 -14 55 -26q130 -63 130 -157z" />
    <glyph glyph-name="percent" unicode="%" horiz-adv-x="724" 
d="M626 787v-3q-22 -65 -65 -138q-26 -43 -78 -131l-115 -198q-67 -119 -107 -202q-17 -53 -18 -55q-14 -29 -39 -37q-46 -14 -67 -14q-12 0 -23 3q-9 12 -9 26q0 15 21 58q39 79 125 204q101 147 133 199q55 90 81 135q48 84 74 139q29 25 71 25q8 0 12 -1q4 -4 4 -10z
M340 592q0 -168 -95 -218q-29 -15 -60 -15q-77 0 -117 60q-34 51 -34 132q0 69 24 131q34 88 102 114q10 4 36 4q144 0 144 -208zM691 233q0 -168 -95 -218q-29 -15 -59 -15q-78 0 -118 59q-34 50 -34 132q0 69 24 132q33 87 102 113q11 4 36 4q144 0 144 -207zM239 586
q-1 4 -4 18q-14 57 -45 57q-26 0 -26 -63q0 -43 22 -70q7 -9 25 -9q21 0 26 25q2 11 2 42zM590 227q0 2 -4 18q-14 57 -45 57q-26 0 -26 -65q0 -28 10 -49q12 -29 36 -29q20 0 25 17q3 10 3 35q0 2 1 8v8z" />
    <glyph glyph-name="ampersand" unicode="&#x26;" horiz-adv-x="650" 
d="M617 419q0 -23 -14 -32q-30 -70 -30 -196q0 -141 -1 -147q-2 -13 -15 -28t-24 -15t-13 -1q-16 0 -48.5 4.5t-48.5 4.5t-31 -3q-113 -22 -162 -22q-74 0 -116 26q-47 27 -71 92q-17 46 -17 90q0 115 125 210q-1 12 -41 30q-7 5 -32 29q-40 42 -40 107q0 55 27 102.5
t74 73.5q88 49 190 49q133 0 167 -73q7 -15 7 -44q0 -52 -37 -85t-90 -33q-26 0 -49 9q-31 12 -31 33v4q13 13 13 24q0 26 -33 26q-12 0 -24 -18t-12 -34q0 -41 41 -61q13 -4 38.5 -12.5t37.5 -13.5q11 -13 11 -29q0 -11 -6.5 -31t-18.5 -58q-7 -16 -62 -44q-44 -22 -44 -57
q0 -50 28 -82.5t75 -32.5q19 0 26 3q23 10 34 48q-4 26 -5 29q-6 14 -23 14q-38 0 -38 24q0 68 76 144q61 16 171 16q22 0 34 -14q1 -23 2 -26z" />
    <glyph glyph-name="quotesingle" unicode="'" horiz-adv-x="198" 
d="M179 708q0 -66 -41 -148q-3 -7 -14 -26q-21 -27 -39 -27q-28 0 -28 44v17q1 7 1 16q0 11 -15 36t-15 47q0 38 28 82q30 49 66 49q57 0 57 -90z" />
    <glyph glyph-name="parenleft" unicode="(" horiz-adv-x="228" 
d="M218 780q0 -3 -2 -8q-88 -214 -88 -453q0 -183 43 -322q10 -28 19 -55q12 -36 12 -56q0 -29 -27 -56.5t-56 -27.5q-8 0 -14 2q-24 12 -55 94q-2 6 -10 38q-31 128 -31 296q0 294 118 486q32 53 71 82q20 -8 20 -20z" />
    <glyph glyph-name="parenright" unicode=")" horiz-adv-x="220" 
d="M210 344q0 -272 -110 -459q-34 -58 -71 -83q-20 8 -20 21q0 2 2 7q82 208 82 437q0 186 -47 337q-7 18 -21 55q-12 33 -12 57q0 29 27 56.5t56 27.5q32 0 69 -95q1 -4 11 -42q34 -136 34 -319z" />
    <glyph glyph-name="asterisk" unicode="*" horiz-adv-x="369" 
d="M336 640q0 -27 -47 -27q-13 0 -19 -11v-3q0 -3 3.5 -12.5t3.5 -10.5l-1 -2q8 -5 8 -19q0 -7 -2 -25q-10 -15 -25 -15q-4 0 -7 1q-26 26 -71 60l-30 -34q-20 -20 -38 -20q-24 0 -30 28q8 18 23 75q-4 4 -41 24q-28 15 -28 32q0 8 5 14.5t27.5 11.5t29.5 12q1 2 1 7
q0 9 -9 27.5t-9 26.5q0 23 26 23q17 0 40 -31t33 -31t27.5 23t25.5 24q34 -6 34 -32q0 -5 -2.5 -21.5t-2.5 -22.5q0 -20 37.5 -35t37.5 -37z" />
    <glyph glyph-name="plus" unicode="+" horiz-adv-x="565" 
d="M355 411q0 -10 20 -10q4 0 15 2t13 2l88 -1q39 0 39 -31q0 -14 -2 -41t-2 -40q0 -27 -24 -33q-4 -1 -48 -1q-14 0 -43 2t-43 2q-12 0 -13 -13v-22q0 -3 -2 -14t-2 -15q0 -20 2 -49q3 -43 3 -49q0 -8 -7.5 -15.5t-16.5 -7.5q-14 0 -41 1.5t-40 1.5q-30 0 -35 2
q-11 4 -8 33q-2 12 -2 41q0 15 2 45t2 45q0 8 -12 11q-7 1 -25 0q-14 -1 -22 -2q-3 0 -17 2.5t-18 2.5q-6 0 -30 -1t-31 -1q-19 0 -19 23v54q0 50 1 54q3 18 25 18q2 0 12 -2.5t14 -2.5h93q8 0 13 1h13v37q0 -24 -2 46q-2 40 3 63q6 32 24 32h13q10 -1 19 -1h33q61 0 61 -33
q0 -23 -1.5 -68t-1.5 -68z" />
    <glyph glyph-name="comma" unicode="," horiz-adv-x="345" 
d="M308 112q0 -39 -19.5 -81.5t-49.5 -68.5q-23 -21 -66 -31q-8 -2 -12 -2q-21 0 -21 34q0 2 2.5 14t2.5 16q0 19 -20 25q-23 -2 -45 14.5t-28 40.5q-3 11 -3 29q0 46 25 72q50 52 123 52q30 0 58.5 -16t40.5 -40.5t12 -57.5z" />
    <glyph glyph-name="hyphen" unicode="-" horiz-adv-x="384" 
d="M335 448q0 -13 -17 -64q-3 -9 -6.5 -17.5l-3.5 -8.5q-8 -18 -18 -19q-22 -1 -73.5 -3.5t-156.5 -8.5q-24 9 -24 19q0 45 24 88q6 17 19 17q5 0 8 -1h9q84 -155 137 -274q3 -7 6 -13q-41 112 -93 291q92 8 114 8q40 0 68 -5q7 -1 7 -9z" />
    <glyph glyph-name="hyphen" unicode="&#x2010;" horiz-adv-x="384" 
d="M335 448q0 -13 -17 -64q-3 -9 -6.5 -17.5l-3.5 -8.5q-8 -18 -18 -19q-22 -1 -73.5 -3.5t-156.5 -8.5q-24 9 -24 19q0 45 24 88q6 17 19 17q5 0 8 -1h9q84 -155 137 -274q3 -7 6 -13q-41 112 -93 291q92 8 114 8q40 0 68 -5q7 -1 7 -9z" />
    <glyph glyph-name="period" unicode="." horiz-adv-x="357" 
d="M319 113q0 -29 -6 -45q-14 -36 -59 -53q-37 -14 -81 -14q-52 0 -86 20q-41 24 -41 72q0 44 25 70q44 46 121 46q53 0 87 -21q40 -25 40 -75z" />
    <glyph glyph-name="slash" unicode="/" horiz-adv-x="354" 
d="M124 1h-82q-23 0 -24 1q-14 6 -14 21q0 6 10 43l15 56q3 12 11 43q11 25 23 62q3 14 20 86q9 24 32 87q7 24 20 72q5 14 17 51q3 14 14 48q4 10 13 37l27 102q19 71 31 82q8 7 27 8q49 2 74 1q37 -2 37 -23t-55 -186q-8 -24 -25 -99q-11 -29 -28 -85q-6 -22 -22 -77
q-6 -16 -20 -58l-15 -57q-3 -11 -10 -37q-3 -12 -11 -37t-24 -78q-1 -8 -5 -28q-6 -23 -12 -29t-24 -6z" />
    <glyph glyph-name="zero" unicode="0" horiz-adv-x="541" 
d="M519 422q0 -108 -27 -224q-21 -90 -80 -144t-150 -54q-48 0 -95.5 22t-73.5 57q-7 10 -19 34q-51 103 -51 251q0 252 109 366q67 70 162 70q110 0 156 -82q69 -122 69 -296zM336 397q0 166 -68 166q-18 0 -33 -19q-18 -23 -18 -143q0 -135 64 -135q12 0 26.5 11.5
t18.5 23.5q10 24 10 96z" />
    <glyph glyph-name="one" unicode="1" horiz-adv-x="284" 
d="M271 48q0 -15 -21 -29q-29 -19 -143 -19q-41 0 -56 19q-9 65 -9 143q0 69 3 148q4 105 4 148q0 44 -18 124t-18 116q0 25 12 41q61 61 185 61h10q43 0 46 -46q1 -14 1 -85q0 -66 -3.5 -197t-3.5 -197q0 -154 10 -221q1 -4 1 -6z" />
    <glyph glyph-name="two" unicode="2" horiz-adv-x="556" 
d="M531 606q0 -63 -39 -135q-14 -26 -27.5 -41.5t-96.5 -74.5q-65 -46 -81 -86q3 -24 32 -24q36 0 83 20q17 7 78 40h7q28 0 28 -51q0 -9 -3.5 -37.5t-3.5 -36.5q0 -98 -20 -134.5t-72 -42.5q-14 -2 -139 -2q-117 0 -213 10q-27 20 -32 64q-1 9 -1 76q0 2 7 30
q27 110 113 187l93 84q55 50 62 106q2 16 2 22q0 22 -10 39q-12 21 -32 21q-30 0 -30 -28q0 -15 16.5 -22t16.5 -18q0 -9 -16 -52q-1 -3 -2 -7q-46 -61 -120 -61q-56 0 -87 51q-8 13 -9 17q-10 35 -10 66q0 68 42 123q5 6 17 20q1 1 25 17q82 54 169 54q103 0 172 -44
q81 -53 81 -150z" />
    <glyph glyph-name="three" unicode="3" horiz-adv-x="578" 
d="M553 259q0 -121 -88 -192q-82 -67 -205 -67q-100 0 -141 22q-93 50 -93 144q0 55 34.5 98.5t88.5 43.5q4 0 19 1t19 1q74 0 99 -46q-20 -40 -20 -49q0 -26 27 -26q22 0 35 23q11 20 11 44q-1 2 -4 16q-11 46 -54 64q-12 5 -47 9q-22 3 -51 7q-22 6 -22 31q0 21 8 52
q9 36 23 44q31 12 91 35q47 24 47 81q0 51 -40 51q-31 0 -31 -24q0 -7 13.5 -19.5t13.5 -20.5q0 -34 -61 -60q-31 -13 -68 -13q-75 0 -101 51q-15 29 -15 63q0 8 3 23q11 58 60 97q43 35 106 48q45 9 106 9h13q90 0 144 -37q64 -43 64 -129q0 -56 -31 -99q-10 -14 -73 -77
q8 -14 26 -27q29 -20 31 -22q63 -56 63 -150z" />
    <glyph glyph-name="four" unicode="4" horiz-adv-x="556" 
d="M530 343q0 -106 -14 -142q-5 -13 -32 -18.5t-30 -21.5q-1 -6 -1 -24q0 -7 1 -31.5t1 -32.5q0 -19 -3 -36q-16 -19 -59 -29q-35 -8 -67 -8q-54 0 -70 25q-3 5 -3 29q0 16 2 48t2 48q0 19 -6 23q-70 0 -189 6q-23 1 -31 31q-6 23 -6 98q0 99 26 157q2 5 11 22.5t15 31.5
l54 120q19 41 55 109q27 40 150 49q43 3 36 3q49 0 68 -15q16 -12 17 -44q-1 22 -1 -73q0 -32 -2.5 -95.5t-2.5 -95.5q0 -36 1 -38q5 -24 23 -24q4 0 18 2.5t18 2.5q19 0 19 -26v-51zM272 457q0 4 -1 17t-1 17t1 15t1 13q0 7 -1.5 25t-1.5 21l-6 1q-21 -27 -38 -67
q-19 -44 -19 -74q0 -18 33 -18h12q21 14 21 50z" />
    <glyph glyph-name="five" unicode="5" horiz-adv-x="544" 
d="M520 308q0 -78 -36 -155q-72 -153 -266 -153q-114 0 -160 61q-34 45 -34 104q0 130 152 142l27 2q4 -1 15 -4q50 -14 50 -46q0 -4 -9 -12t-9 -10q0 -37 27 -37q25 2 39.5 17t10.5 37q0 36 -28 66.5t-63 30.5h-47q-4 0 -31 -7q-46 -12 -70 -12q-28 0 -38 7q-13 7 -15 33
q-1 14 -1 51q0 93 14 238q4 46 9 84q4 30 10.5 42t36.5 12q1 0 8 -1l14 -0.5t32 -1.5q70 -2 115 -2q87 0 177 6q10 -7 12 -20q5 -38 5 -52q0 -143 -79 -143q13 0 -56 5q-41 3 -61 3q-30 0 -47 -4q-11 -19 -11 -36q0 -22 14 -30q40 5 68 5q104 0 164.5 -58t60.5 -162z" />
    <glyph glyph-name="six" unicode="6" horiz-adv-x="512" 
d="M489 304q0 -68 -16 -131q-23 -93 -101 -139q-57 -34 -126 -34q-223 0 -223 334q0 58 5 95q2 13 14 61q79 310 263 310q21 0 40 -3q8 -2 15 -8q5 -12 5 -22q0 -16 -17 -36q-10 -9 -30 -28q-1 0 -16 -23q-6 -9 -13 -17q-33 -48 -33 -88q0 -12 15 -12q2 0 12 1t14 1
q1 0 10 -1q182 -22 182 -260zM323 267q0 42 -17 79q-22 48 -58 48q-15 0 -30 -26q-2 -18 -2 -27q0 -40 16 -76q20 -46 54 -46q37 0 37 48z" />
    <glyph glyph-name="seven" unicode="7" horiz-adv-x="512" 
d="M489 730q0 -47 -3 -64q-2 -8 -11 -39q-19 -62 -55 -186q-29 -104 -36 -221q-3 -53 -3 -86q0 -37 5 -85q-9 -27 -69 -37q-7 -1 -31 -4q-69 -8 -104 -8q-44 0 -53 4q-26 8 -26 41q0 87 58 240q9 23 98 234q2 5 2 9q0 16 -13 16q27 0 -34.5 -3.5t-80.5 -3.5q-59 0 -63 1
q-37 5 -42 36q-4 21 -5 40q8 72 10 82q8 48 24 78q14 26 30 26q5 0 45 -9q31 -7 62 -7h6q51 0 158 10q64 6 77 6q29 0 41.5 -15t12.5 -55z" />
    <glyph glyph-name="eight" unicode="8" horiz-adv-x="573" 
d="M547 230q0 -79 -49.5 -141t-126.5 -78q-53 -11 -103 -11q-106 0 -170 50q-71 55 -71 159q0 100 103 199q7 7 7 12q0 10 -23 33q-30 30 -44 54q-24 41 -24 90q0 53 20 90q8 15 29 36q75 76 218 76q114 0 179 -71l-1 1q38 -36 38 -103q0 -32 -20 -80q-1 -5 -8 -19
q-9 -20 -58 -75q-2 -4 -2 -7t2 -7q9 -9 33 -34q71 -80 71 -174zM342 572q0 63 -47 75q-30 -7 -30 -37q0 -40 43 -74q8 -6 13 -6q21 0 21 42zM327 215q0 22 -18 57.5t-36 47.5q-10 1 -17 2q-29 0 -29 -46q0 -18 8 -46t18 -39q17 -19 42 -19q32 0 32 43z" />
    <glyph glyph-name="nine" unicode="9" horiz-adv-x="528" 
d="M505 535q0 -123 -67 -295q-45 -116 -71 -155q-55 -85 -133 -85q-57 0 -57 37q0 10 4 18l24 51q22 46 43 102q13 34 13 42q0 16 -10 20q-5 2 -26 2q-57 0 -86 12q-115 47 -115 239q0 39 4 58q8 37 21 52q39 96 130 143q19 10 34 15q29 10 76 10q109 0 166 -81
q50 -71 50 -185zM304 496q0 47 -35 93q-9 12 -22 12q-33 0 -33 -36q0 -31 11 -64q14 -43 40 -43q39 0 39 38z" />
    <glyph glyph-name="colon" unicode=":" horiz-adv-x="320" 
d="M282 457q0 -53 -43.5 -94t-96.5 -41q-46 0 -79 32t-33 78q0 53 48 89q43 32 98 32q47 0 76.5 -25.5t29.5 -70.5zM287 117q0 -52 -46.5 -90t-99.5 -38q-45 0 -77 31t-32 76q0 56 46 88q41 29 99 29q49 0 79.5 -24t30.5 -72z" />
    <glyph glyph-name="semicolon" unicode=";" horiz-adv-x="318" 
d="M286 456q0 -48 -44.5 -86t-92.5 -38q-47 0 -79 29t-32 74q0 52 46 88q43 32 97 32q46 0 75.5 -27t29.5 -72zM294 101q0 -58 -43 -107.5t-101 -62.5q-9 -2 -12 -2q-21 0 -21 34q0 2 2.5 14t2.5 16q0 19 -20 25q-33 -3 -57 26q-22 26 -22 60q0 31 28 70q39 55 110 55
q55 0 94 -36.5t39 -91.5z" />
    <glyph glyph-name="less" unicode="&#x3c;" horiz-adv-x="600" 
d="M553 514v-122l-342 -139l342 -139v-121l-506 207v106z" />
    <glyph glyph-name="equal" unicode="=" horiz-adv-x="565" 
d="M341 518q16 0 48 2t48 2q17 0 49.5 -1t49.5 -1q27 0 27 -54q0 -66 -3 -72q-8 -20 -61 -20l-372 1q21 0 -53 -3q-34 -1 -50 6q-23 10 -23 38q0 74 1 68q12 36 15 38t47 2q46 0 138.5 -3t138.5 -3zM423 282q8 0 33.5 1t32 1t26.5 2t25 2q25 0 25 -26q0 -17 -1 -49.5
t-1 -49.5q0 -10 -6.5 -17.5t-141.5 -6.5l-221 1l-106 -4q-84 2 -87 31v25v33q-1 15 -1 13q0 36 20 43q13 5 46 5q4 0 18 2t18 2q27 0 82 -1.5t81.5 -1.5t79 -2.5t78.5 -2.5z" />
    <glyph glyph-name="greater" unicode="&#x3e;" horiz-adv-x="600" 
d="M47 -7v121l342 139l-342 139v122l506 -208v-106z" />
    <glyph glyph-name="question" unicode="?" horiz-adv-x="555" 
d="M530 641q0 -86 -88 -182q-10 -10 -35 -37q-36 -41 -36 -84q0 -23 17 -42q1 -3 1 -7q0 -55 -117 -55q-41 0 -57 4q-30 8 -41 36q-4 10 -4 26q0 25 31 79q4 7 13 25l61 89q36 53 36 100q0 73 -48 73q-13 0 -23 -7q-14 -8 -14 -18q0 -18 24 -24.5t24 -17.5q0 -66 -34 -104.5
t-98 -38.5q-71 0 -100 59q-17 34 -17 80q0 98 82 147q97 58 203 58q64 0 118 -21q67 -25 90 -74q12 -25 12 -64zM403 113q0 -112 -140 -112q-106 0 -128 56q-8 20 -8 38q0 32 25 68q33 48 102 48q60 0 98 -19q51 -25 51 -79z" />
    <glyph glyph-name="at" unicode="@" horiz-adv-x="800" 
d="M308 331q0 -43 22.5 -70.5t61.5 -27.5q42 0 67.5 31t25.5 80q0 41 -23 67.5t-60 26.5q-44 0 -69 -31t-25 -76zM613 137h102q-108 -148 -303 -148q-163 0 -269 99t-106 261q0 161 111 262q108 99 270 99q149 0 242 -74q103 -82 103 -234q0 -131 -102 -206
q-77 -57 -151 -57q-52 0 -53 49h-2q-43 -49 -109 -49q-64 0 -105 62q-35 54 -35 121q0 90 46 148q50 62 138 62q79 0 120 -56l9 47h94l-34 -209q-10 -61 -10 -55q0 -19 17 -19q33 0 55 36q27 44 28 122q2 218 -259 218q-117 0 -194 -76.5t-77 -192.5q0 -123 73.5 -194
t197.5 -71t203 55z" />
    <glyph glyph-name="A" unicode="A" horiz-adv-x="569" 
d="M543 48q0 -23 -28 -33q-42 -15 -91 -15q-52 0 -84 21q-8 25 -11 64q-3 44 -8 64q-14 10 -35 10q-7 0 -45 -6q-6 -14 -16 -70q-5 -27 -9 -54q-4 -5 -15 -9l-18 -9q-42 -11 -84 -11q-44 0 -58.5 9.5t-14.5 32.5q1 8 7 55q5 39 35 176l37 167q23 107 23 164q0 16 -10.5 47.5
t-10.5 47.5q0 24 15 38q2 2 19 11q69 37 175 46l63 5q59 0 75 -34q8 -138 34 -325l46 -323q9 -65 9 -69zM309 424q0 19 -4 56.5t-4 56.5q0 13 1 19l-10 6q-34 -112 -34 -156q0 -28 22 -28q13 0 26 10q3 17 3 36z" />
    <glyph glyph-name="B" unicode="B" horiz-adv-x="550" 
d="M524 243q0 -130 -97 -192q-80 -51 -218 -51q-144 0 -154 46q-8 35 -8 199q0 74 2 181l3 181q0 18 -13.5 56t-13.5 58q0 34 31 50l21 7q66 22 143 22q135 0 197 -27q95 -40 95 -154q0 -45 -17 -81q-10 -21 -36 -49q-30 -33 -39 -46q104 -66 104 -200zM303 546q0 23 -12 45
q-19 11 -24 11q-30 0 -30 -58q0 -40 29 -40q37 0 37 42zM320 276q0 20 -6 29q-4 5 -22 20q-2 0 -13 1.5t-15 1.5q-12 0 -20 -9q0 -5 -2.5 -24.5t-2.5 -25.5q0 -21 12 -35q8 -3 18 -3q51 0 51 45z" />
    <glyph glyph-name="C" unicode="C" horiz-adv-x="462" 
d="M441 265q0 -128 -63 -202q-17 -20 -31 -30q-46 -33 -114 -33q-3 0 -15 2q-94 13 -132 71q-67 101 -67 270q0 457 288 457q99 0 105 -38q5 -31 5 -92q0 -15 -3 -105q-1 -35 -3 -45q-5 -26 -23 -37q-3 -1 -11 -1q-32 0 -80 44.5t-50 44.5q-15 0 -24 -15q-2 -3 -13 -29
q-4 -55 -4 -88q0 -155 78 -155q28 0 71 38.5t53 38.5q21 0 31 -53q2 -10 2 -43z" />
    <glyph glyph-name="D" unicode="D" horiz-adv-x="543" 
d="M518 438q0 -65 -12 -168q-5 -39 -8 -54q-5 -25 -16 -53q-52 -128 -156 -149q-64 -13 -142 -13q-53 0 -81 5q-39 7 -47 50q-1 1 -2 44q-2 58 -2 101q0 66 2 163l3 205v23q-1 14 -1 17q0 19 -15.5 55t-15.5 56q0 25 27 42q2 1 26 10q76 28 158 28q142 0 202 -72
q8 -10 22 -33q58 -98 58 -257zM336 402q0 68 -24 131q-11 29 -36 29q-9 0 -19 -6q-15 -9 -15 -166q0 -78 2 -96q2 -7 10 -14q20 -5 28 -5q54 0 54 127z" />
    <glyph glyph-name="E" unicode="E" horiz-adv-x="494" 
d="M472 641q0 -75 -48 -75q-18 0 -58.5 21t-65.5 21q-39 0 -44 1q-37 -9 -37 -48q0 -18 7 -45q8 -6 16 -6q15 0 56 17.5t59 17.5q27 0 37 -18q6 -11 6 -43q0 -16 -2 -48.5t-2 -48.5v-15q-2 -15 -12 -32q-12 -20 -26 -20q-30 0 -73 22q-27 14 -44 23q-20 0 -20 -60
q0 -38 15 -52q10 -9 34 -9q31 0 93 27t73 27q9 0 19 -15t13 -30t3 -28q0 -8 -2 -35t-2 -35q0 -100 -26 -141q-25 -12 -55 -12h-8q-4 1 -9 1q-47 -1 -187 -1q-78 0 -100 6q-43 12 -43 78q0 87 4 256l6 261q0 21 -14 64q-13 40 -13 63q0 21 9 39q30 25 99 29q34 2 26 2h99
q6 0 25 -1.5t23 -1.5q50 0 136 -8q22 -8 26 -72q0 -6 3 -21q4 -23 4 -55z" />
    <glyph glyph-name="F" unicode="F" horiz-adv-x="469" 
d="M447 628q0 -75 -1 -80q-7 -49 -47 -49q-23 0 -57 23q-43 29 -55 34q-2 0 -11 1.5t-12 1.5q-12 0 -18 -10q-11 -5 -11 -46q0 -47 4 -67q11 -9 23 -9q13 0 43 21t46 21q35 0 41 -77q1 -12 1 -81q0 -53 -5 -70q-11 -37 -50 -37q-5 1 -12 4q-18 9 -60 46q-1 1 -5 1
q-3 0 -18 -17q-2 -20 -2 -34q0 -37 9 -99q7 -48 7 -62q0 -11 -3 -16q-6 -21 -98 -25q-44 -2 -35 -2q-2 0 -9.5 1t-9.5 1q-42 0 -56 15q-13 36 -13 90q0 17 1.5 52t1.5 52v33v20q-1 11 -1 13q0 37 3.5 109.5t3.5 109.5q0 15 -1.5 45t-1.5 45q0 94 -18 139q0 40 17 52
q32 23 145 23q-11 0 139 -3q92 -2 104.5 -10t14.5 -20q6 -30 6 -139z" />
    <glyph glyph-name="G" unicode="G" horiz-adv-x="532" 
d="M508 434q0 -10 -12 -58q-11 -85 -11 -168q0 -136 -10 -175q-19 -24 -63 -24q-7 0 -29 1.5t-28 1.5q-17 0 -51.5 -6t-51.5 -6q-202 0 -224 278q-5 62 -5 111q0 268 144 367q28 19 82 32q50 12 87 12q72 0 106 -18q23 -12 23 -123q0 -43 -9 -81q-19 -25 -41 -25
q-24 0 -68 30t-64 30q-68 0 -68 -160q0 -6 -1.5 -26t-1.5 -26q0 -4 1.5 -16.5t1.5 -14.5q5 -50 10 -69q11 -39 40 -53h10q19 0 29 13q5 25 5 47q0 73 -38 103q-2 12 -2 18q0 29 24 37q36 12 89 12q54 0 101 -10q17 -4 21 -9.5t4 -24.5z" />
    <glyph glyph-name="H" unicode="H" horiz-adv-x="565" 
d="M540 726q0 -65 -4.5 -194.5t-4.5 -194.5q0 -134 6 -241q1 -17 1 -28q0 -42 -27 -50q-59 -17 -99 -17q-20 0 -15 1q-1 0 -7 -1t-8 -1q-21 0 -37 13q-14 26 -14 118q0 -9 2 23t2 44v68q-13 31 -28 31h-9q-3 -1 -8 -1q-24 0 -26 -1q-19 -3 -23 -32q-1 -5 -1 -44q0 -18 2 -54
t2 -54q0 -54 -12 -85q-5 -12 -56 -18q-42 -5 -65 -5h-37q-21 3 -28 19l-9 21q15 360 15 535q0 68 -16 117q-2 4 -10 26v6q0 28 18 41q1 1 9 4l8 3q59 23 126 23q20 0 30 -1q5 -3 10 -5q7 -5 12 -21q1 -6 1 -41q0 -20 -1.5 -61t-1.5 -61q0 -25 3 -54q14 -17 51 -17
q30 0 41 15q8 12 8 44q0 4 1 17t1 16q0 16 -5.5 47.5t-5.5 47.5q0 39 19 51q9 6 59 15q55 10 80 10q28 0 36 -8q15 -18 15 -66z" />
    <glyph glyph-name="I" unicode="I" horiz-adv-x="267" 
d="M246 60q0 -20 -3 -23q-29 -43 -108 -37l-78 6q-22 12 -27 44v54q0 5 -1 9v9q0 20 1 38l2 37q0 18 4 317q0 21 1 74q1 18 2 21q0 20 -13.5 61t-13.5 62v9q19 30 56 38l69 15q28 6 45 6q42 0 52 -25q11 -28 11 -135q0 -41 -3.5 -123.5t-3.5 -123.5q0 -56 4 -166.5t4 -166.5
z" />
    <glyph glyph-name="J" unicode="J" horiz-adv-x="484" 
d="M462 775q-7 -109 -8 -383q0 -17 1 -64q1 -41 1 -65q-1 -36 -5 -63q-2 -13 -6 -32q-35 -168 -223 -168q-200 0 -200 204q0 25 2 41q7 52 49 89.5t87 32.5q20 0 32 -5q46 -19 50 -58q2 -19 2 -25q0 -19 -13 -26q-9 2 -18.5 -3t-9.5 -13q0 -24 25 -24q14 0 29 15q9 22 10 80
q2 8 2 20q0 13 -6 116q-8 135 -22 207q-2 11 -16 44q-11 28 -11 46q0 16 10 29q63 30 143 30q44 0 53 -1q34 -5 42 -24z" />
    <glyph glyph-name="K" unicode="K" horiz-adv-x="588" 
d="M562 773q0 -7 -6 -21q-18 -41 -75 -157q-50 -101 -68 -161q5 -24 15 -71q9 -40 36 -60q3 -1 12 -1h11q5 1 12 1q26 0 39 -32q10 -25 10 -55q0 -15 -5 -56q-19 -159 -129 -159q-36 0 -53 11q-40 26 -60 102q-14 52 -29 120q-8 8 -11 8q-1 0 -3 -1q-17 -32 -17 -95
q0 -14 1.5 -42.5t1.5 -42.5q0 -21 -5 -28q-16 -18 -54 -24q-16 -1 -61 -5q-21 -2 -25 -2q-34 0 -41 23q-10 32 -10 84q0 110 1 197l2 198q0 71 -1 118q0 10 -2 46q-1 9 -12 33q-10 21 -10 34q0 17 12 27q4 2 18 10q55 28 119 28q23 0 50 -5q15 -12 15 -15q0 -33 -1.5 -99.5
t-1.5 -99.5t2 -83q3 -4 7 -4q5 0 17 20q34 84 41 102q20 55 28 107q2 11 3 23q3 8 8 13q13 19 49 27q17 4 58 9t59 5q53 0 53 -27z" />
    <glyph glyph-name="L" unicode="L" horiz-adv-x="432" 
d="M413 164q0 -101 -16 -135q-8 -18 -48 -22q-17 0 -45 -2q-34 -2 -45 -2q-56 -2 -122 -2q-51 0 -70 8q-32 14 -32 57q0 81 3 185l7 266q1 38 1 81q0 4 -3 24q-9 65 -22 107q-2 6 -2 12q0 22 18 31q57 29 141 29q30 0 53 -4l15 -11q6 -11 11 -24q0 -68 -9.5 -204t-9.5 -204
q0 -59 2 -67q6 -24 34 -24q16 0 50 19t48 19q20 0 35 -25q6 -67 6 -112z" />
    <glyph glyph-name="M" unicode="M" horiz-adv-x="766" 
d="M732 712q0 -24 -2.5 -72t-2.5 -72q0 -60 -1 -180.5t-1 -180.5q0 -39 1 -70l2 -70q0 -10 -14 -40q-37 -23 -143 -23q-8 0 -21 7.5t-17 14.5q-7 13 -7 41q0 116 10 247q1 20 5 71q1 10 1 7q0 17 -12 21q-9 -6 -14 -26q-17 -64 -33 -146l-29 -148q-2 -8 -7 -30
q-3 -11 -14 -39q-7 -18 -62 -18q-21 0 -56 5q-27 4 -49 132q-6 43 -20 127q-5 25 -16 84q-1 11 -7 37q-1 5 -5 5q-6 0 -11 -11t-5 -19q0 -3 2 -15t2 -16t-1 -17.5t-1 -17.5q0 -39 7.5 -117.5t7.5 -117.5q0 -38 -23 -49q-34 -16 -86 -16q-7 0 -42 12q-15 13 -16 47
q-2 57 -2 150q0 48 1 145t1 145q0 19 -2 105q0 11 -2 44q-1 7 -8 30q-6 19 -6 33q0 53 63 65q60 11 148 20q41 4 52 4q43 0 52 -32q12 -42 23 -145q10 -94 28 -144q1 -4 4 -4t7 4q16 44 26 96q6 33 19 98q4 21 23 78q12 24 62 33q9 1 30 3q77 8 86 8q73 0 73 -36q0 -5 1 -23
t1 -24z" />
    <glyph glyph-name="N" unicode="N" horiz-adv-x="570" 
d="M544 723q0 -48 -4 -121q-4 -78 -5 -121q0 -47 -2 -167l-4 -183q0 -99 -32 -112q-40 -16 -119 -16q-35 0 -60 6q-14 3 -24 39l-25 88q-15 54 -57 187q-2 6 -10 14q-7 -15 -7 -39q0 -7 2 -33.5t2 -34.5v-19q-1 -8 -1 -18q0 -24 5 -71.5t5 -71.5q0 -9 -8.5 -22.5
t-16.5 -16.5q-25 -10 -75 -10q-29 0 -47 7q-23 -3 -28 32q1 -6 1 52q0 87 8 260t8 260q0 18 -12.5 55.5t-12.5 57.5q0 15 6 28q25 20 64 30q36 9 126 17q44 0 58 -20q9 -14 26 -88q6 -32 20 -96q14 -59 39 -128q5 -3 10 -3q4 0 5 1q6 30 6 58q0 21 -3 47q-14 121 -14 163
q0 41 29 50q49 16 113 16q2 0 8 -2q23 -8 25 -30q1 -12 1 -45z" />
    <glyph glyph-name="O" unicode="O" horiz-adv-x="536" 
d="M512 410q0 -287 -140 -381q-43 -29 -121 -29q-66 0 -106 29q-98 70 -116 252q-5 51 -5 69q0 170 58 308q60 142 203 142q81 0 123 -43q65 -67 88 -161q16 -66 16 -186zM329 373v74q0 114 -63 114q-18 0 -33 -19q-20 -26 -20 -141q0 -54 7 -79q13 -48 52 -48q37 0 49 34
q8 22 8 65z" />
    <glyph glyph-name="P" unicode="P" horiz-adv-x="498" 
d="M475 482q0 -136 -69 -220q-52 -63 -153 -64q-10 -9 -10 -28q0 -3 1 -15t1 -16v-6q-1 -3 -1 -6q0 -7 4 -32t4 -33q0 -18 -7 -31q-48 -30 -119 -30q-50 0 -66 6t-18 28t-2 102q0 67 2 164l3 164q0 21 -1 39t0 38l2 34q0 16 -3 48.5t-3 48.5q0 12 -8.5 34.5t-8.5 26.5
q0 10 8 21q4 4 15 11q55 34 180 34h9q63 0 120.5 -32t82.5 -87q37 -80 37 -199zM295 506q0 65 -37 65q-21 0 -25 -9q-3 -5 -3 -29q0 -8 -1 -38t-1 -39q0 -28 26 -28q18 0 24 10q17 29 17 68z" />
    <glyph glyph-name="Q" unicode="Q" horiz-adv-x="532" 
d="M526 115q0 -55 -33 -105t-83 -76h-4q-30 0 -60 26q-41 36 -53 41h-9q-6 0 -29.5 -1.5t-30.5 -1.5q-13 0 -25 3q-103 26 -147 190q-5 19 -14 58q-8 46 -8 135q0 164 46 270q63 147 204 147q121 0 169 -99q59 -122 59 -286q0 -44 -21 -128.5t-21 -125.5q0 -12 30 -23
t30 -24zM323 383q0 125 -25 159q-4 22 -33 22q-53 0 -53 -133q0 -62 14 -104q8 -5 15 -5q4 0 11.5 4.5t13.5 4.5t22 -6t20 -6q6 0 10 3q5 33 5 61z" />
    <glyph glyph-name="R" unicode="R" horiz-adv-x="544" 
d="M533 204q0 -80 -27 -133q-36 -70 -108 -70q-25 0 -41 9q-50 27 -66 92q-8 38 -25 114q-1 1 -11 19q-7 12 -16 12q-14 0 -18 -27q-2 -12 -2 -34q0 -18 3 -53.5t3 -53.5q0 -25 -3 -39q-6 -26 -76 -26q-6 0 -30.5 -2t-31.5 -2q-40 0 -44 28q-1 2 -1 69q0 82 4.5 247t4.5 247
q0 15 -11.5 49t-11.5 52q0 22 17 39q25 25 68 37q11 3 78 14l11 2q12 2 23 4q40 2 46 2q15 0 54 -6q95 -15 148 -66q58 -56 58 -147q0 -82 -43 -147q-13 -20 -51 -52q-23 -20 -23 -30q0 -18 18 -32t38 -14q4 0 12.5 2.5t12.5 2.5q22 0 33 -44q8 -32 8 -63zM328 523
q0 58 -53 58q-12 0 -15 -1q-26 -8 -26 -59v-27q0 -25 48 -25q21 0 33.5 15.5t12.5 38.5z" />
    <glyph glyph-name="S" unicode="S" horiz-adv-x="502" 
d="M479 251q0 -55 -20 -108q-22 -59 -61 -91q-63 -52 -222 -52q3 0 -0.5 0.5t-11.5 1.5q-24 2 -71 5q-40 3 -57 36q-3 35 -8 75q-6 45 -6 74q0 51 20 96q14 12 34 12q13 0 62 -36.5t80 -36.5q8 0 11 1q15 9 15 34q0 30 -54 76q-81 69 -101 94q-54 67 -54 145q0 73 34 120
q55 75 157 97q28 6 36 6q5 0 22.5 -1t21.5 -1q86 0 113 -6q40 -27 40 -115q0 -46 -8 -82q-9 -40 -37 -40q-23 0 -67 29t-64 29q-15 0 -29 -8q-4 -8 -4 -18q0 -27 59 -79q93 -81 111 -104q59 -74 59 -153z" />
    <glyph glyph-name="T" unicode="T" horiz-adv-x="533" 
d="M508 722q0 -13 -2 -38t-2 -38v-34q0 -9 1 -20v-14q0 -75 -40 -75q-14 0 -42 24t-43 25q-17 -6 -17 -28q0 -56 1 -167.5t1 -167.5q0 -19 6.5 -56.5t6.5 -55.5q0 -61 -61 -73q-13 -3 -112 -3h-34q-32 17 -32 64q0 4 1 22t1 24q0 2 -1 8v8q0 15 3 51q4 48 5 71q5 84 15 247
q-4 7 -2 31q1 20 -10 28q-19 0 -49.5 -27.5t-48.5 -27.5q-29 0 -29 70q0 2 1 13v20v69v21q-1 12 -1 15q0 64 19 77q9 15 213 15q194 0 231 -15q21 -9 21 -63z" />
    <glyph glyph-name="U" unicode="U" horiz-adv-x="543" 
d="M518 736q0 -18 -9 -63q-3 -28 -3 -118q0 -32 1 -96t1 -96q0 -103 -7 -174q-14 -144 -113 -171q-67 -18 -134 -18q-195 0 -210 188q-6 75 -6 173q0 37 4 111.5t4 111.5q0 67 -7 104q-1 6 -8 26q-6 16 -6 26q0 42 86 51q8 1 34 5q21 4 34 4q54 0 61 -37q1 -3 1 -48
t-3.5 -136t-3.5 -136q0 -32 2 -86q4 -12 4 -42q0 -41 32 -41q41 0 47 30q1 1 5 62q6 82 6 150q0 78 -8 145q-1 6 -3 21q-11 39 -11 45q0 12 3 25q24 29 98 38q35 4 40 4q36 0 52.5 -12t16.5 -46z" />
    <glyph glyph-name="V" unicode="V" horiz-adv-x="601" 
d="M574 755q0 -64 -58 -330l-77 -351q-8 -37 -28 -52q-30 -22 -116 -22q-87 0 -110 8q-28 10 -37 57t-54 358q-9 55 -31 198q-2 13 -13 46q-22 38 -22 60q0 40 63 57q20 6 96 13q30 3 36 3q40 0 49 -34q6 -24 12 -121q4 -69 19 -247q7 -62 20 -62q15 0 19 25q1 2 3 19l8 70
q15 122 15 194q0 31 -8 57q-4 13 -4 25q0 34 32 48q50 22 133 22q53 0 53 -41z" />
    <glyph glyph-name="W" unicode="W" horiz-adv-x="869" 
d="M829 757q0 -9 -1 -15l-48 -282q-16 -103 -61 -370q-3 -16 -8 -38q-1 -5 -11 -16q-31 -35 -117 -35h-24q-11 -1 -24 -1q-39 0 -50 23q-25 54 -46 227q-2 20 -11 80q-2 5 -4 5q-12 0 -23 -67q-14 -93 -29 -185q-9 -50 -37 -63q-11 -5 -79 -13q-7 -1 -26 -4h-41
q-53 0 -62 33q-5 19 -29 323q-4 61 -13 182q-9 97 -43 177q-3 7 -3 13q0 36 70 55q51 14 100 14q22 0 34 -1q3 -2 16 -12q6 -5 10 -18q2 -52 12 -286l2 -48q1 -30 17 -30q9 0 17 55q4 33 35 204q5 25 16 84q7 32 64 42q21 1 61 5q17 -1 45 -12q12 -10 15 -45q7 -74 29 -264
q6 -45 6 -46q0 -25 13 -25q1 0 2 1t2 1q10 5 17 61q1 13 3 45q8 103 8 117q0 18 -7.5 53.5t-7.5 53.5q0 25 38.5 43.5t99.5 18.5q36 0 48 -4q25 -9 25 -36z" />
    <glyph glyph-name="X" unicode="X" horiz-adv-x="649" 
d="M620 754q0 -5 -2 -11q-21 -63 -72 -144l-85 -138q-6 -11 -6 -24q0 -16 23 -73q7 -16 25 -56q56 -126 94 -184q21 -15 21 -41q0 -20 -19 -38q-47 -45 -150 -45q-25 0 -33 1q-24 3 -47 64l-28 84q-5 14 -17 41q-13 22 -23 22q-21 0 -40 -69q-11 -40 -11 -67q0 -8 2 -24
q-8 -32 -41 -44q-17 -6 -62 -7l-45 -1q-74 0 -74 36t88 208q45 88 67 146q-23 90 -90 230l-50 105q-1 3 -1 9q0 31 83 51q63 15 110 15q23 0 36 -12q17 -31 35 -103.5t36 -103.5q4 -7 9 -7q4 0 10 3q32 73 32 121q0 3 -1 13t-1 12q0 6 3 15q17 53 155 53q69 0 69 -37z" />
    <glyph glyph-name="Y" unicode="Y" horiz-adv-x="591" 
d="M564 758q0 -23 -26 -93q-2 -6 -8 -23q-1 -3 -39 -85t-83 -178q-24 -51 -24 -120q0 -29 5 -87t5 -87q0 -24 -1 -31q-5 -31 -36 -42q-17 -6 -59 -6q-14 0 -42 -2.5t-42 -2.5q-38 0 -51 22q-7 38 -7 47q0 7 7 52q5 33 5 62v70q0 91 -21 153q-9 24 -30 85q-15 47 -31 95
q-19 55 -42 90q-17 26 -17 43q0 11 8 22q12 17 89 39q66 19 99 19q28 0 33 -20q13 -12 31 -119q17 -99 30 -99q14 0 25 49q10 43 10 63q0 26 -8 50q3 49 118 63q34 4 53 4q49 0 49 -33z" />
    <glyph glyph-name="Z" unicode="Z" horiz-adv-x="488" 
d="M466 254q0 -17 -3.5 -50.5t-3.5 -50.5q0 -106 -38 -136q-31 -9 -131 -15q-14 -1 -23 -1q-14 0 -25 1h-25q-14 0 -42.5 -1t-42.5 -1q-56 0 -76 8q-34 15 -34 62q0 7 1.5 29t1.5 28v9q-1 3 -1 8q0 78 30 121q51 74 133 175q19 22 66 82q10 13 10 27q0 24 -21 24
q-9 0 -30 -4q-39 -8 -87 -39q-26 -26 -50 -26q-13 0 -23 7q-17 29 -17 77q0 6 1.5 28.5t1.5 29.5q0 72 2 84q8 51 50 59q6 1 52 5q72 6 163 6h67q2 0 11 -1.5t12 -1.5q58 0 68 -30v-95q0 -99 -24 -149q-16 -33 -91 -126q-6 -7 -24 -27q-6 -9 -43 -75v-2q0 -28 36 -28
q29 0 70.5 26.5t51.5 26.5q27 0 27 -64z" />
    <glyph glyph-name="bracketleft" unicode="[" horiz-adv-x="306" 
d="M216.5 359.5q-1.5 -27.5 -1.5 -35.5q0 -29 2.5 -88t2.5 -88q0 -7 -1 -20t-1 -14q0 -16 33 -16q37 0 37 -32v-119q0 -33 -34 -33q-8 0 -38 2.5t-39 2.5q-16 0 -46.5 -3t-46.5 -3q-59 0 -59 36q0 26 4.5 77.5t4.5 77.5v199q0 18 -1.5 54t-1.5 54q0 63 1 112l2 112
q0 16 -2.5 47t-2.5 47q0 38 7 50q11 19 45 19q9 0 39 -2.5t38 -2.5q16 0 47.5 3.5t47.5 3.5q39 0 39 -35l-1 -103q0 -35 -11 -41q-6 -2 -40 -2q-23 0 -23 -28q0 -4 1 -19t1 -18v-80v-46q-1 -27 -1 -34t-1.5 -34.5z" />
    <glyph glyph-name="backslash" unicode="\" horiz-adv-x="406" 
d="M387 691q0 -65 -55 -88q-29 -12 -52 -12q-52 0 -52 27q3 6 3 15q0 7 -1 11q-4 9 -14 9q-4 0 -7 -1q-12 -10 -12 -30q0 -5 2 -19t2 -17q9 -12 26 -149v-3q0 -12 11 -92q4 -27 4 -31q0 -46 4 -137.5t4 -137.5q-17 -35 -72 -35h-35h-21q-12 -1 -15 -1q-12 0 -22 10
q-13 29 -13 74q0 67 1 128l2 129q-6 10 -31 18q-21 7 -23 26q-3 36 -3 85q0 56 10 75q3 7 18 15t16 9q8 231 192 231q56 0 92 -26q41 -29 41 -83z" />
    <glyph glyph-name="bracketright" unicode="]" horiz-adv-x="306" 
d="M275 139q0 -7 -2 -32t-2 -33q0 -15 3 -45t3 -45q0 -38 -7 -50q-11 -19 -44 -19q-13 0 -40 2.5t-41 2.5q-16 0 -48 -3.5t-48 -3.5q-35 0 -35 32q0 6 2 28t2 28t-1.5 25t-1.5 24q0 33 13 40q6 2 43 2q16 0 17 7q-1 -3 -1 17q0 18 1.5 55t1.5 55q0 20 -2 185l-2 187
q0 15 -11 17q5 -1 -26 -1q-27 0 -32 28q-1 4 -1 50v48q0 59 36 59q8 0 37 -2.5t38 -2.5q18 0 55 3t55 3q43 0 43 -35q0 -27 -4.5 -82t-4.5 -83q0 -16 2 -144l2 -144v-173z" />
    <glyph glyph-name="asciicircum" unicode="^" horiz-adv-x="600" 
d="M70 333l173 365h114l173 -365h-122l-108 227l-108 -227h-122z" />
    <glyph glyph-name="underscore" unicode="_" horiz-adv-x="500" 
d="M0 -124v50h500v-50h-500z" />
    <glyph glyph-name="grave" unicode="`" 
d="M249 696q0 -6 -4 -9.5t-54 -3.5h-22q-14 -2 -19 0q-4 2 -53 51q-42 42 -42 50q2 6 3 7q5 6 24 6q6 0 29.5 -1t31.5 -1q13 2 47 4q20 1 35 -40l12 -32q12 -32 12 -31z" />
    <glyph glyph-name="a" unicode="a" 
d="M446 180q0 -143 -76 -171q-16 -6 -36 -9h-3q-14 0 -36.5 20.5t-32.5 20.5q-9 0 -33 -20q-29 -19 -77 -19q-26 0 -39 2q-46 7 -71 63q-21 45 -21 98q0 126 101 196q14 10 60 28q40 16 55 31q23 23 23 64q0 5 -6 15l-6 12q-10 3 -18 3q-21 0 -21 -19q0 -6 8 -20.5t8 -18.5
q0 -5 -11 -18q-33 -37 -91 -37q-70 0 -85 39q-6 16 -6 49q0 37 16 59q63 87 243 87q129 0 129 -129q0 -28 -8 -82.5t-8 -82.5q0 -29 6 -53l34 -37zM255 269q0 13 -7 24.5t-18 11.5q-2 0 -8.5 -1t-8.5 -1q-26 -12 -26 -50q0 -21 17 -41q10 -2 16 -2q18 0 23 10q12 26 12 49z
" />
    <glyph glyph-name="b" unicode="b" horiz-adv-x="471" 
d="M451 320q0 -124 -59 -238q-44 -84 -182 -84q-65 0 -86 3q-63 8 -69 37q-11 54 -11 158q0 51 3.5 152t3.5 152q0 108 -9 166q-1 7 -13 31q-10 20 -10 34q0 11 6 20q1 2 12 9q56 35 138 35q20 0 32 -5l11 -13q1 -9 1 -27q0 -19 -2 -57t-2 -57q0 -18 1 -27q8 -3 15 -3
q8 0 32 7t31 7h13q58 0 90 -61q54 -103 54 -239zM287 326q0 94 -48 94q-43 0 -43 -75q0 -33 13 -64q17 -40 44 -40q17 0 27 35q7 26 7 50z" />
    <glyph glyph-name="c" unicode="c" horiz-adv-x="399" 
d="M381 231q0 -119 -66 -187q-42 -43 -116 -43q-181 0 -181 269q0 290 158 356q22 9 63 9q59 0 90 -31q48 -48 48 -122q0 -122 -112 -122q-14 0 -28 5q-19 6 -19 17q0 2 1 4q10 10 10 27q0 19 -22 25q-31 -4 -31 -58q0 -126 66 -126q53 0 102 52q6 2 8 2q8 0 25 -26
q4 -23 4 -51z" />
    <glyph glyph-name="d" unicode="d" horiz-adv-x="467" 
d="M446 176q0 -116 -55 -159q-15 -12 -35 -12q-28 0 -39.5 2t-27 17.5t-18.5 15.5q-7 0 -29 -19q-31 -21 -88 -21q-54 0 -91 60q-28 45 -37 110q-6 42 -6 124q0 179 83 282q32 40 94 40q24 0 58 -8q15 11 15 28q0 21 -13 52q-1 3 -15 23q-9 13 -9 25q0 8 5 18q27 18 74 32
t80 14q12 0 19 -3q4 -4 13 -16q5 -6 5 -56q0 -66 -6 -197.5t-6 -197.5q0 -38 1 -42q4 -16 25 -35zM261 303q0 37 -11 75q-14 49 -43 49q-18 0 -29 -21q-9 -17 -9 -37q0 -32 5 -65l5 -15q16 -49 48 -49q34 18 34 63z" />
    <glyph glyph-name="e" unicode="e" horiz-adv-x="433" 
d="M414 217q0 -38 -13 -87q-15 -56 -36 -79q-47 -51 -136 -51q-170 0 -204 223q-7 46 -7 86q0 164 89 264q22 25 41 38q35 24 98 24q69 0 98 -27q8 -7 21 -27q47 -71 47 -167q0 -44 -10 -83q-11 -15 -66 -18q-9 -1 -18 -1q-8 0 -36 1t-36 1q-53 0 -61 -12q-1 -3 -1 -8
q0 -26 25 -48.5t51 -22.5q7 0 25 4q26 6 59 35q23 20 42 20q7 0 11 -1q17 -14 17 -64zM243 428q0 1 -1 8q-4 21 -5 35q-6 19 -25 19h-4q-27 0 -35 -41l-3 -15q0 -21 29 -21h13q6 1 13 1q18 0 18 14z" />
    <glyph glyph-name="f" unicode="f" horiz-adv-x="381" 
d="M387 691q0 -64 -55 -88q-28 -12 -52 -12q-52 0 -52 27q3 6 3 15q0 7 -1 11q-6 9 -14 9q-4 0 -7 -1q-12 -12 -12 -30q0 -4 2 -18.5t2 -17.5q14 -18 45 -18q4 0 19 1t20 1q44 0 50 -49v-59q0 -56 -9 -89q-9 -8 -43 -11q-30 -3 -39 -17q-2 -6 -2 -34q0 -46 4 -137.5
t4 -137.5q-17 -35 -72 -35h-35h-21q-12 -1 -15 -1q-12 0 -22 10q-13 29 -13 74q0 67 1 128l2 129q-4 8 -31 17q-22 9 -23 27q-3 60 -3 85q0 53 10 75q3 6 18 14.5t16 9.5q9 231 192 231q56 0 92 -26q41 -29 41 -83z" />
    <glyph glyph-name="g" unicode="g" horiz-adv-x="516" 
d="M465 28q0 -35 -10 -60q-40 -101 -186 -129q-31 -6 -46 -6q-170 0 -213 88q-8 16 -8 42q0 39 19 66q1 3 9 13q1 1 20 13q14 9 12 17v3q-34 55 -34 87q0 22 13 38q9 11 60 62q-25 31 -34 43q-18 26 -25 49q-11 35 -11 70q0 90 74 160q52 50 142 50q28 0 53 -3q20 7 52 56
q29 44 54 44q9 0 18 -3q26 -38 26 -51q0 -16 -26.5 -44.5t-26.5 -44.5q0 -4 2 -12q54 -70 54 -145q0 -36 -11 -74q-27 -91 -123 -123q-28 -9 -36 -9l-69 3l-10 -11q-2 -15 48 -23q21 -3 63 -8q69 -9 109.5 -50.5t40.5 -107.5zM288 432q0 23 -5 44q-3 13 -16.5 22.5
t-27.5 9.5q-32 0 -32 -46q0 -71 42 -71q39 0 39 41zM275 -12q0 28 -43 43q-24 8 -38 8q-45 0 -45 -33q0 -24 33 -37q24 -10 53 -10q27 0 39 18q1 4 1 11z" />
    <glyph glyph-name="h" unicode="h" horiz-adv-x="497" 
d="M474 178q0 -76 -15 -118q-10 -27 -34.5 -43.5t-54.5 -16.5q-58 0 -74 59q-8 27 -8 107v40q0 10 1 23v16q0 37 -3 69q0 1 -1.5 14t-1.5 18q0 36 -29 36q-41 0 -41 -122q0 -32 4.5 -96.5t4.5 -96.5q0 -9 -2 -20q-8 -41 -121 -41q-20 0 -28.5 4t-17.5 20q-4 1 -4 33
q0 14 5 150q6 164 6 260q0 126 -7 180q-1 11 -16 37q-14 23 -14 37q0 10 4 18q23 21 74 38t85 17q32 0 39 -27q2 -7 2 -26q0 -17 -3.5 -51t-3.5 -52q0 -52 20 -52q1 0 36.5 18.5t64.5 18.5q45 0 68 -19q42 -35 42 -128q0 -25 -6 -75t-6 -75q0 -49 28 -65q7 -41 7 -89z" />
    <glyph glyph-name="i" unicode="i" horiz-adv-x="265" 
d="M252 719q0 -42 -33.5 -71t-75.5 -29q-53 0 -72 5q-22 6 -40.5 28t-18.5 44q0 50 46 79q40 25 93 25q42 0 69 -19q32 -22 32 -62zM220 165q0 -39 -2 -99q1 -7 -1 -34q-8 -32 -110 -32q-63 0 -68 26v26q0 49 8.5 146t8.5 146q0 52 -8 105q-1 10 -3 20q-1 4 -14 33
q-9 20 -9 34q0 16 7 26q1 2 10 9q31 24 118 34q25 3 32 3q23 0 30 -16q-3 -55 -3 -129q0 -17 2 -149z" />
    <glyph glyph-name="j" unicode="j" horiz-adv-x="444" 
d="M423 717q0 -43 -33.5 -72t-77.5 -29q-54 0 -73 5q-22 6 -41 29t-19 45q0 53 47 81q40 24 96 24q42 0 70 -20q31 -23 31 -63zM414 101q0 -116 -33 -186q-20 -41 -59 -73q-42 -34 -85 -39q-9 -1 -37 -1q-82 0 -129 40q-51 43 -51 123q0 111 85 148q18 10 65 10q56 0 56 -38
q0 -9 -14 -28t-14 -28q0 -10 7 -19t16 -9q20 0 26 23q2 12 2 38q0 256 -34 414q-19 22 -19 47q0 11 1 14q7 24 79 44q57 16 99 16q20 0 30 -12q5 -35 5 -76q0 -30 -3 -90.5t-3 -90.5q0 -38 5 -113.5t5 -113.5z" />
    <glyph glyph-name="k" unicode="k" horiz-adv-x="486" 
d="M464 179q0 -30 -1 -38q-1 -45 -19 -83q-22 -49 -59 -56q-10 -2 -29 -2q-33 0 -51 17q-32 31 -57.5 118.5t-37.5 98.5q-13 -1 -13 -51q0 -23 6.5 -67t6.5 -65q0 -22 -9 -27q-35 -22 -109 -22h-12q-43 4 -43 69q0 37 4 142q7 185 7 280q0 100 -2 149q-1 13 -12.5 42.5
t-11.5 46.5q0 12 4 21q46 34 126 45q23 3 27 3q13 0 26 -15q7 -41 7 -103q0 -39 -4 -116t-4 -116l6 -5q12 20 35.5 59t34.5 58q47 65 112 65h4q67 -19 67 -120q0 -45 -14 -88q-18 -56 -56 -56q-10 0 -21 18.5t-18 18.5q-6 0 -14 -15q16 -55 33 -82q27 -44 70 -45
q21 -25 21 -79z" />
    <glyph glyph-name="l" unicode="l" horiz-adv-x="239" 
d="M209 784q0 -15 -2 -234l-2 -233q0 -121 1 -179q0 -10 1 -43q1 -26 1 -42q0 -52 -129 -52q-39 0 -50 22q-6 13 -6 59q0 17 4 103q13 278 13 322q0 61 -4 121q0 8 -2 28q-1 9 -12.5 32.5t-11.5 39.5q0 43 83 61q50 11 81 11q20 0 29 -4z" />
    <glyph glyph-name="m" unicode="m" horiz-adv-x="764" 
d="M729 187q0 -187 -109 -187q-46 0 -68 29q-16 23 -23 76q-4 32 -4 26q0 26 3.5 79t3.5 79q0 69 0 68q-6 42 -38 42q-23 0 -33 -36q-7 -26 -7 -87q0 -28 3 -82.5t3 -82.5q0 -56 -5 -77q-7 -28 -81 -28q-24 0 -49 6q-36 8 -36 23q0 2 1 7v6l-3 323q-13 31 -29 31
q-31 0 -39 -56q-2 -15 -2 -78q0 -28 2.5 -84t2.5 -84q0 -36 -3 -68q-16 -25 -89 -25q-27 0 -60 3q-21 17 -21 48q0 9 2 33.5t2 28.5q1 32 5 117q3 65 3 117q0 88 -11 147q-5 22 -15 67q0 22 21 34q42 23 108 23q12 0 34 -2q2 -2 9.5 -23t13.5 -21q4 0 11 7q48 48 112 48
q70 0 101 -51q23 5 63 30q36 22 79 22q116 0 116 -156q0 -27 -6 -79.5t-6 -79.5q0 -35 13 -48q20 -6 24 -37q1 -1 1 -48z" />
    <glyph glyph-name="n" unicode="n" horiz-adv-x="514" 
d="M491 235q0 -6 -2 -27t-2 -27q0 -60 -18 -107q-24 -63 -73 -72q-6 -1 -19 -1q-56 0 -77 42q-15 29 -15 90q0 10 2 41.5t2 40.5v33v19q-1 11 -1 13q0 6 1 23t1 21q0 44 -24 60q-3 1 -9 1q-28 0 -35 -29q-12 -48 -12 -97q0 -4 5 -108q1 -25 1 -40v-21q-1 -9 -1 -21
q0 -1 1 -4v-5q0 -30 -49 -45q-36 -11 -75 -11q-22 0 -41 11q-12 27 -12 87q0 50 6.5 149t6.5 149q0 76 -16 129l-12 40q0 32 50 49q36 12 77 12q28 0 34 -4t12 -22.5t18 -21.5q23 23 66 38t78 15q70 0 93 -60q10 -26 10 -75q0 -26 -4.5 -76.5t-4.5 -76.5q0 -30 5 -58
q33 -15 33 -54z" />
    <glyph glyph-name="o" unicode="o" horiz-adv-x="448" 
d="M426 332q0 -122 -23 -192q-35 -104 -127 -133q-22 -7 -52 -7q-80 0 -125 45q-9 9 -22 28q-58 85 -58 219q0 99 31 194q20 62 66 103q50 46 111 46q199 0 199 -303zM281 314q0 36 -17 76q-20 46 -54 46q-44 0 -44 -84q0 -65 39 -97q10 -8 22 -8q10 0 28 6q26 20 26 61z
" />
    <glyph glyph-name="p" unicode="p" horiz-adv-x="477" 
d="M459 337q-1 -12 -4 -73q-5 -94 -21 -145q-25 -82 -88 -112q-21 -10 -69 -10q-26 0 -46 4q-16 -17 -16 -48q0 -9 4 -39.5t4 -38.5q0 -7 -2 -21q-31 -46 -128 -46q-43 0 -55 26q-6 13 -6 65q0 36 5 97q6 73 7 97q3 72 7 151q5 97 5 152q0 61 -7 100q-2 9 -14 37
q-10 24 -10 37q0 27 49 47q40 16 74 16q18 0 24 -3t15 -19t12 -16q62 46 108 46q25 0 41 -8q93 -46 107 -232q4 -54 4 -64zM301 308q0 43 -10 74q-15 47 -45 47q-34 0 -34 -76q0 -37 10 -66q14 -41 44 -41q35 0 35 62z" />
    <glyph glyph-name="q" unicode="q" horiz-adv-x="455" 
d="M434 616q-10 -113 -10 -260q0 -72 3.5 -215.5t3.5 -215.5v-48q0 -29 -21 -42q-42 -27 -98 -27q-33 0 -42 3q-23 8 -23 57q0 -10 2 34q1 20 6 83q-7 16 -24 16q-7 0 -28 -5.5t-27 -5.5q-9 0 -28 4q-58 12 -87 65q-19 35 -31 108q-10 62 -10 128q0 153 43 246q26 57 76 84
q30 16 66 16q22 0 66 -11t67 -11q19 0 40.5 8t27.5 8q16 0 28 -19zM264 314q0 35 -11 69q-15 46 -43 46q-16 0 -26.5 -18.5t-10.5 -39.5q0 -129 52 -129q13 0 24 8q15 26 15 64z" />
    <glyph glyph-name="r" unicode="r" horiz-adv-x="419" 
d="M400 485q0 -64 -27 -106q-31 -49 -92 -49q-17 0 -31 11.5t-14 27.5q0 8 3 15q7 3 7 11q0 31 -19 31q-1 -1 -2 -1q-17 -34 -17 -78v-82q0 -82 26 -176q6 -22 6 -31q0 -14 -7 -25q-43 -33 -141 -33q-37 0 -48 22q-8 16 -8 56q0 60 6 149q7 103 7 149q0 80 -18 138
q-3 9 -11 32q-1 2 -1 9q0 33 48 56q39 19 77 19q25 0 42 -38q43 43 102 43q42 0 77 -37q16 -17 25.5 -51.5t9.5 -61.5z" />
    <glyph glyph-name="s" unicode="s" horiz-adv-x="467" 
d="M445 201q0 -56 -39 -109t-92 -75q-41 -17 -99 -17q-77 0 -122 28q-72 45 -72 125q0 40 20.5 73.5t55 48t59.5 14.5q21 0 39 -7q25 -10 25 -27q0 -4 -6.5 -21t-6.5 -23q0 -20 24 -20q12 0 22 7.5t10 17.5q0 35 -34 63q-21 17 -70 41t-69 42q-47 40 -47 107q0 117 153 155
q45 11 67 11q71 0 119 -27q60 -33 60 -98q0 -41 -38 -63q-32 -19 -76 -19q-18 0 -35 7q-24 8 -24 22q0 4 5 15.5t5 14.5q0 13 -21 20q-27 -1 -27 -26q0 -28 47 -62q1 -1 41 -26q98 -62 118 -125q2 -9 5 -33.5t3 -33.5z" />
    <glyph glyph-name="t" unicode="t" horiz-adv-x="382" 
d="M365 565q0 -70 -15 -113q-9 -25 -38 -25q-4 0 -21 2t-22 2q-25 0 -32 -17q-3 -7 -3 -37q0 -75 34 -75q11 0 34 14.5t30 14.5q13 0 18 -29q10 -58 10 -117q0 -99 -37 -141q-10 -11 -25 -23q-29 -23 -75 -23q-30 0 -56 5q-57 11 -81 99q-3 9 -10 37q-2 14 -2 58
q0 43 7.5 130t7.5 74q0 21 -23 26q-10 -2 -13 -2q-12 0 -26 8q-10 30 -10 69q0 33 14 111q41 59 88 109q71 76 107 76q32 0 32 -47q0 -8 -2 -35.5t-2 -34.5q0 -21 4 -36q11 -11 30 -11q5 0 21.5 2t20.5 2q23 0 30 -16q5 -12 5 -57z" />
    <glyph glyph-name="u" unicode="u" horiz-adv-x="484" 
d="M463 196q0 -112 -40 -167q-20 -27 -66 -27q-41 0 -55.5 22.5t-24.5 22.5q-5 0 -8 -1q-46 -46 -114 -46q-19 0 -31 3q-91 23 -91 218q0 34 4.5 100.5t4.5 100.5q0 68 -18 134q-2 7 -2 13q0 22 20 33q58 32 123 32q11 0 31 -2l14 -16q0 -43 -6 -128.5t-6 -128.5
q0 -116 36 -116q22 0 31 20q4 8 8 39q6 43 6 95q0 57 -6 104q-1 11 -12 35t-11 39q0 11 3 19q2 5 12 12q41 29 123 29q47 0 51 -19q2 -9 2 -56q0 -39 -6.5 -115.5t-6.5 -115.5q0 -38 30 -62q5 -42 5 -71z" />
    <glyph glyph-name="v" unicode="v" horiz-adv-x="412" 
d="M392 443q0 -13 -5 -138q0 -18 -3 -63q-9 -92 -44 -157q-45 -84 -126 -84q-62 0 -100 32q-7 6 -22 25q-54 70 -54 205q0 8 2 73l2 73q0 68 -7 93q-2 5 -10 26q-6 16 -6 28q0 32 66 50q39 11 60 11q50 0 50 -50q0 -5 -1.5 -22t-1.5 -23q0 -2 1 -8.5t1 -8.5q0 -15 -2 -44.5
t-2 -44.5q0 -80 16 -128q2 -7 5 -15q8 -11 22 -11q8 0 13 4q23 14 25 50q1 20 2 60q-4 6 -23.5 12t-27 19.5t-7.5 66.5q0 58 20 102q27 59 78 59q79 0 79 -192z" />
    <glyph glyph-name="w" unicode="w" horiz-adv-x="643" 
d="M614 385v-7q0 -97 -12 -176q-16 -105 -59 -162q-30 -40 -103 -40q-67 0 -118 86q2 -1 -22 -28q-50 -56 -119 -56q-31 0 -62 21t-43 49q-25 58 -25 157q0 29 2.5 86t2.5 86q0 50 -4 79q-2 12 -13 41q-10 25 -10 41q0 5 2 13q26 38 127 46q6 -3 15 -3q27 0 31 -12
q3 -6 3 -35q0 -35 -3.5 -104t-3.5 -104q0 -47 10 -77q7 -20 25 -20q23 0 27 25q8 47 8 106q0 30 -3 89.5t-3 89.5q0 37 91 37q37 0 50 -6q13 -13 13 -40q0 -28 -5.5 -83.5t-5.5 -83.5q0 -77 21 -123q8 -17 28 -17t30 25q8 19 8 41q0 21 -6 43q-16 10 -39 36q-13 31 -13 77
q0 58 18 93q31 61 75 61q64 0 78 -125q3 -30 7 -77q-2 -10 -2 -16q0 -3 1 -16t1 -17z" />
    <glyph glyph-name="x" unicode="x" horiz-adv-x="491" 
d="M458 185q0 -94 -44 -152q-11 -15 -20 -21q-17 -12 -45 -12q-52 0 -79 67q-9 26 -29 76q-9 6 -13 6q-5 0 -9 -4q-24 -60 -27 -67q-20 -44 -36 -58q-22 -20 -64 -20h-8q-36 8 -48 52q-6 22 -6 76q0 19 9 80q10 70 44 70q5 0 21 -3t20 -3q33 0 33 47q0 25 -41 87
q-4 6 -14 23q-6 9 -37 24q-24 12 -24 35q0 87 64 127q29 18 48 18q13 0 21 -4q35 -17 68 -105q4 -8 12 -28q14 -24 20 -24q2 0 6 2q12 29 38 86q23 50 59 68q14 7 21 7q58 0 58 -124q0 -59 -16 -88q-1 -2 -25 -21q-28 5 -32 5q-15 0 -23 -7q-22 -20 -22 -47q0 -6 4 -16
q22 -55 62 -67q13 4 24 4q30 0 30 -89z" />
    <glyph glyph-name="y" unicode="y" horiz-adv-x="487" 
d="M449 576q-8 -70 -8 -150q0 -45 3 -135.5t3 -135.5q0 -104 -10 -168q-14 -87 -88 -138q-68 -47 -159 -47t-136 44q-22 22 -22 72q0 5 4 15q17 44 83 67q6 2 19 5q22 2 48 2q24 0 39 -7q20 -32 31 -32q17 0 33 27q0 5 1 14.5t1 14.5q0 16 -7 26q-4 3 -11 3q-4 0 -14.5 -4
t-11.5 -4q-31 -27 -81 -27q-44 0 -77 28q-51 44 -51 160v80q0 24 2.5 72t2.5 72q0 75 -10 96q-2 4 -11 19q-7 10 -7 21q0 31 60 52q50 17 88 17q11 0 25 -2q3 -1 9 -6q14 -17 14 -47q0 -11 -5 -58q-6 -57 -6 -104q0 -78 13 -142q4 -33 29 -33q10 0 18 6q25 19 25 150
q0 86 -21 137q-10 24 -10 37q0 29 57 47q45 14 82 14q30 0 38 -3q12 -5 15 -24q1 -4 3 -31z" />
    <glyph glyph-name="z" unicode="z" horiz-adv-x="400" 
d="M382 559q0 -78 -39 -139q-6 -9 -65 -77q-51 -58 -51 -75q0 -21 32 -21q17 0 46 17t42 17q31 0 31 -55l-4 -108q-2 -33 -3 -52t-1 -15q0 -41 -24 -45q-35 -6 -143 -6q-39 0 -115 4q-37 2 -44 5q-19 7 -24 36q-1 6 -1 55q0 105 35 160q26 41 68 82q27 26 57 67q2 6 2 10
q0 20 -20 20q-14 0 -51 -18t-54 -18q-31 0 -31 46q0 111 7 132q19 54 103 54h128q79 0 97 -13q22 -16 22 -63z" />
    <glyph glyph-name="braceleft" unicode="{" horiz-adv-x="447" 
d="M209 362l-8 -6q78 -12 104 -63q18 -35 18 -122q0 -7 1.5 -33t1.5 -34q0 -31 16 -44q13 -10 46.5 -14t45 -9.5t11.5 -19.5v-24q0 -2 3 -12t3 -14q0 -54 -54 -54h-95q-61 0 -125 64q-4 10 -15 26q-15 22 -16 56q1 -9 1 59q0 106 -30 140q-11 13 -56 27q-30 10 -30 52
q0 6 -2 25t-2 24q0 41 32 45q76 11 86 109v81q0 -2 6 38q9 63 52 100t108 39q6 0 25 -1t23 -1q6 0 25 2t24 2q33 0 39 -26q1 -3 1 -54q0 -32 -12 -39q-8 -5 -39 -5q-15 0 -37 -13q-36 -21 -36 -66q0 -4 1.5 -24t1.5 -26t-1.5 -28.5t-1.5 -29.5q0 -43 -36 -81.5t-79 -45.5z
" />
    <glyph glyph-name="bar" unicode="|" horiz-adv-x="222" 
d="M48 -249v999h126v-999h-126z" />
    <glyph glyph-name="braceright" unicode="}" horiz-adv-x="447" 
d="M43 799q99 0 129 -6q69 -14 103 -71q27 -44 26 -70l-1 -51q0 -15 3 -45t3 -44q0 -24 25 -62q12 -19 36 -21q28 -2 33 -6q15 -10 15 -50q0 -5 2 -23.5t2 -24.5q0 -26 -7.5 -35t-33.5 -11t-36 -11q-1 -1 -24 -32q-16 -21 -17 -61q1 5 1 -65q0 -87 -42 -139
q-46 -57 -131 -57q-4 0 -21 1t-22 1t-23.5 -2t-24.5 -2q-33 0 -39 31q-1 3 -1 57q0 26 13 32q7 3 35 3q16 0 39 14q37 22 37 70q0 11 -1 21v24q0 144 94 178q18 7 30 13q-24 6 -63 21q-41 23 -52 72q-6 27 -6 91q0 7 -2 32.5t-2 33.5q0 43 -31 55l-56 9q-31 5 -31 32
q0 6 -3 24t-3 22q0 52 47 52z" />
    <glyph glyph-name="asciitilde" unicode="~" horiz-adv-x="600" 
d="M495 353l36 -109q-45 -86 -125 -86q-39 0 -113 32t-100 32q-41 0 -88 -69l-36 109q45 86 125 86q39 0 112.5 -32t100.5 -32q42 0 88 69z" />
    <glyph glyph-name="exclamdown" unicode="&#xa1;" horiz-adv-x="288" 
d="M275 692q0 -24 -15 -55q-33 -69 -129 -69q-53 0 -84 25q-34 27 -34 79q0 54 38 91t93 37q51 0 89 -28q42 -31 42 -80zM247 111q0 -47 -13 -76q-30 -33 -126 -40q-22 -2 -32.5 -3t-4.5 -1q-1 0 -7.5 1t-8.5 1q-27 0 -36.5 8t-9.5 35q0 45 14 137l28 196q2 19 8 67
q8 73 59 89q25 8 43 8q28 0 51 -16.5t23 -97.5v-109q0 -48 3 -88z" />
    <glyph glyph-name="cent" unicode="&#xa2;" horiz-adv-x="471" 
d="M412 523q0 -44 -33 -75t-77 -31q-21 0 -41 11q-24 12 -24 31q0 4 3.5 15.5t3.5 14.5q0 6 -8 12q-3 1 -7 1q-16 0 -27 -24q-10 -20 -10 -38q0 -38 25 -64t63 -26q51 0 106 45q24 -1 24 -32q0 -140 -90 -171q-17 -6 -25 -11q-12 -8 -15 -23q1 -22 -6 -61q-3 -7 -30 -13.5
t-37 -6.5q-29 0 -29 37q0 4 1 16t1 15q0 34 -26 44q-65 25 -89 70q-21 38 -21 113q0 118 69 194q39 29 43 33q22 22 22 47q0 71 74 71q29 0 29 -32q0 -41 15 -41q71 0 100 -59q16 -33 16 -62z" />
    <glyph glyph-name="sterling" unicode="&#xa3;" horiz-adv-x="541" 
d="M384 369q-1 -32 -57 -32q-17 0 -30 1l-25 2q8 -70 8 -83q0 -33 -10 -74q39 -14 50 -14q25 0 32.5 34.5t30.5 34.5q2 0 32 -2q15 -1 34 -1q3 0 16.5 1t17.5 1q37 0 37 -36q0 -202 -166 -202q-26 0 -73.5 18t-69.5 18q-13 0 -30 -17t-30 -17q-4 0 -20 2t-21 2
q-13 0 -39.5 -2t-39.5 -2q-23 0 -23 19q0 49 81 130q13 39 13 79q0 58 -14 109q-11 0 -20 -1h-19q-32 0 -32 33q0 63 1 66q7 25 46 25q-17 70 -17 127q0 104 65 161q61 54 167 54q208 0 208 -217q0 -32 -5 -45q-8 -21 -36 -21q-17 0 -50.5 1.5t-50.5 1.5q-31 0 -31 30
q0 9 1 16v16q0 60 -37 60q-44 0 -44 -83q0 -39 15 -104l41 -1q8 0 33 2t31 2q17 0 27 -15q4 -22 4 -35z" />
    <glyph glyph-name="brokenbar" unicode="&#xa6;" horiz-adv-x="222" 
d="M48 -174v349h126v-349h-126zM48 325v350h126v-350h-126z" />
    <glyph glyph-name="section" unicode="&#xa7;" horiz-adv-x="518" 
d="M457 648q0 -32 -30 -32q-12 0 -34 8q-25 10 -34 11q-92 16 -112 16q-31 0 -31 -26q0 -21 110 -96q122 -83 143 -109q33 -41 33 -116q0 -42 -20.5 -80t-56.5 -55q49 -49 58 -65q15 -28 15 -92q0 -187 -261 -187q-30 0 -98 16.5t-98 30.5q-17 8 -17 28q0 8 2 35.5t2 34.5
q0 5 -2.5 23t-2.5 23q0 35 29 35t93.5 -24.5t99.5 -24.5q53 0 53 34q0 3 -3 17q-4 22 -115 100q-121 85 -139 107q-29 36 -29 90q0 78 72 148q-25 10 -39 44q-12 29 -12 60q0 128 111 181q53 25 117 25q29 0 85.5 -9t86 -9t29.5 -28q0 5 -5 -30v-84zM195 359q0 -23 40 -55
t62 -32q15 0 25 11.5t10 26.5q0 18 -39 52.5t-57 34.5q-16 0 -28.5 -11.5t-12.5 -26.5z" />
    <glyph glyph-name="dieresis" unicode="&#xa8;" 
d="M420 735q0 -32 -24 -56.5t-55 -24.5q-36 0 -45 2q-21 5 -35.5 24.5t-14.5 35.5q0 40 32 63q28 22 69 22q31 0 52 -17.5t21 -48.5zM233 735q0 -33 -24 -57t-54 -24q-40 0 -52 4q-16 5 -29.5 23t-13.5 35q0 40 31 64q28 21 70 21q31 0 51.5 -17.5t20.5 -48.5z" />
    <glyph glyph-name="copyright" unicode="&#xa9;" horiz-adv-x="800" 
d="M477 383h96q-2 -71 -46 -111t-122 -40q-91 0 -142.5 58t-51.5 150q0 91 52 149t142 58q78 0 122 -40t46 -111h-96q-16 57 -72 57q-37 0 -58.5 -31t-21.5 -82q0 -52 21.5 -83t58.5 -31q56 0 72 57zM39 440q0 150 105.5 255.5t255.5 105.5t255.5 -105.5t105.5 -255.5
t-105.5 -255.5t-255.5 -105.5t-255.5 105.5t-105.5 255.5zM141 440q0 -108 75.5 -183.5t183.5 -75.5t183.5 75.5t75.5 183.5t-75.5 183.5t-183.5 75.5t-183.5 -75.5t-75.5 -183.5z" />
    <glyph glyph-name="guillemotleft" unicode="&#xab;" horiz-adv-x="376" 
d="M234 466h100l-62 -206l62 -206h-100l-67 206zM92 466h99l-62 -206l62 -206h-99l-68 206z" />
    <glyph glyph-name="logicalnot" unicode="&#xac;" horiz-adv-x="600" 
d="M47 305v126h506v-323h-126v197h-380z" />
    <glyph glyph-name="registered" unicode="&#xae;" horiz-adv-x="800" 
d="M39 440q0 150 105.5 255.5t255.5 105.5t255.5 -105.5t105.5 -255.5t-105.5 -255.5t-255.5 -105.5t-255.5 105.5t-105.5 255.5zM141 440q0 -108 75.5 -183.5t183.5 -75.5t183.5 75.5t75.5 183.5t-75.5 183.5t-183.5 75.5t-183.5 -75.5t-75.5 -183.5zM259 245v393h158
q72 0 106 -21q43 -26 43 -94q0 -90 -90 -108l76 -170h-96l-68 164h-35v-164h-94zM353 562v-77h58q61 0 61 38q0 39 -61 39h-58z" />
    <glyph glyph-name="plusminus" unicode="&#xb1;" horiz-adv-x="400" 
d="M260 -19l-258 817h145l258 -817h-145z" />
    <glyph glyph-name="acute" unicode="&#xb4;" 
d="M400 786q0 -9 -22 -30q-10 -9 -34 -33q-11 -12 -39 -38q3 1 -33 1h-36q-29 0 -29 13l22 59q7 19 13 31t19 13q4 0 22 -2q11 0 19 -1h15q6 -1 14 -1q6 0 24.5 1t23.5 1q8 2 19 -6q1 -5 2 -8z" />
    <glyph glyph-name="paragraph" unicode="&#xb6;" horiz-adv-x="607" 
d="M419 -122v833h-74v-833h-122v573q-80 0 -124 47t-44 128t48.5 128t129.5 47h308v-923h-122z" />
    <glyph glyph-name="cedilla" unicode="&#xb8;" horiz-adv-x="271" 
d="M153 -76q0 -9 -5 -29q-20 -56 -72 -61q-19 -2 -33 -1q-19 1 -32 1t-13 12q0 1 2 9t2 13q0 10 8 28q14 1 42 4q12 4 12 15q-1 12 -12 15q-6 0 -16 7q-4 4 -4 12q0 6 20 59q3 10 8 20l56 -1q-13 -36 -13 -41t15 -13q21 -12 23 -13q13 -10 12 -36z" />
    <glyph glyph-name="guillemotright" unicode="&#xbb;" horiz-adv-x="376" 
d="M185 54l62 206l-62 206h99l68 -206l-68 -206h-99zM42 54l62 206l-62 206h99l68 -206l-68 -206h-99z" />
    <glyph glyph-name="questiondown" unicode="&#xbf;" horiz-adv-x="555" 
d="M428 706q0 -33 -24 -68q-33 -48 -102 -48q-58 0 -98 20q-51 25 -51 78q0 112 140 112q106 0 128 -56q7 -18 7 -38zM530 206q0 -98 -81 -147q-96 -58 -203 -58q-65 0 -119 21q-66 25 -89 74q-13 27 -13 64q0 85 89 183q10 10 35 36q35 40 35 84q0 26 -16 42q-1 3 -1 7
q0 55 117 55q41 0 60 -5q29 -8 38 -35q3 -9 3 -26q0 -25 -31 -79q-3 -5 -12 -25q-49 -68 -62 -90q-35 -58 -35 -99q0 -73 48 -73q13 0 25 7.5t12 17.5q0 18 -24 24.5t-24 17.5q0 66 34 104.5t98 38.5q71 0 99 -59q17 -35 17 -80z" />
    <glyph glyph-name="Agrave" unicode="&#xc0;" horiz-adv-x="569" 
d="M543 48q0 -23 -28 -33q-42 -15 -91 -15q-52 0 -84 21q-8 25 -11 64q-3 44 -8 64q-14 10 -35 10q-7 0 -45 -6q-6 -14 -16 -70q-5 -27 -9 -54q-4 -5 -15 -9l-18 -9q-42 -11 -84 -11q-44 0 -58.5 9.5t-14.5 32.5q1 8 7 55q5 39 35 176l37 167q23 107 23 164q0 16 -10.5 47.5
t-10.5 47.5q0 24 15 38q2 2 19 11q69 37 175 46l63 5q59 0 75 -34q8 -138 34 -325l46 -323q9 -65 9 -69zM309 424q0 19 -4 56.5t-4 56.5q0 13 1 19l-10 6q-34 -112 -34 -156q0 -28 22 -28q13 0 26 10q3 17 3 36zM300 874q0 -6 -4 -9.5t-54 -3.5h-22q-14 -2 -19 0
q-4 2 -53 51q-42 42 -42 50q2 6 3 7q5 6 24 6q6 0 29.5 -1t31.5 -1q13 2 47 4q20 1 35 -40l12 -32q12 -32 12 -31z" />
    <glyph glyph-name="Aacute" unicode="&#xc1;" horiz-adv-x="569" 
d="M543 48q0 -23 -28 -33q-42 -15 -91 -15q-52 0 -84 21q-8 25 -11 64q-3 44 -8 64q-14 10 -35 10q-7 0 -45 -6q-6 -14 -16 -70q-5 -27 -9 -54q-4 -5 -15 -9l-18 -9q-42 -11 -84 -11q-44 0 -58.5 9.5t-14.5 32.5q1 8 7 55q5 39 35 176l37 167q23 107 23 164q0 16 -10.5 47.5
t-10.5 47.5q0 24 15 38q2 2 19 11q69 37 175 46l63 5q59 0 75 -34q8 -138 34 -325l46 -323q9 -65 9 -69zM309 424q0 19 -4 56.5t-4 56.5q0 13 1 19l-10 6q-34 -112 -34 -156q0 -28 22 -28q13 0 26 10q3 17 3 36zM458 962q0 -9 -22 -30q-10 -9 -34 -33q-11 -12 -39 -38
q3 1 -33 1h-36q-29 0 -29 13l22 59q7 19 13 31t19 13q4 0 22 -2q11 0 19 -1h15q6 -1 14 -1q6 0 24.5 1t23.5 1q8 2 19 -6q1 -5 2 -8z" />
    <glyph glyph-name="Acircumflex" unicode="&#xc2;" horiz-adv-x="569" 
d="M543 48q0 -23 -28 -33q-42 -15 -91 -15q-52 0 -84 21q-8 25 -11 64q-3 44 -8 64q-14 10 -35 10q-7 0 -45 -6q-6 -14 -16 -70q-5 -27 -9 -54q-4 -5 -15 -9l-18 -9q-42 -11 -84 -11q-44 0 -58.5 9.5t-14.5 32.5q1 8 7 55q5 39 35 176l37 167q23 107 23 164q0 16 -10.5 47.5
t-10.5 47.5q0 24 15 38q2 2 19 11q69 37 175 46l63 5q59 0 75 -34q8 -138 34 -325l46 -323q9 -65 9 -69zM309 424q0 19 -4 56.5t-4 56.5q0 13 1 19l-10 6q-34 -112 -34 -156q0 -28 22 -28q13 0 26 10q3 17 3 36zM268 975h28q5 0 16.5 1t18.5 1q17 1 25 -3q14 -6 34 -35
q1 -1 17 -21q3 -3 12 -14q26 -30 26 -32q0 -11 -15 -11q-5 0 -25 1t-26 1q-14 0 -25 -1q-13 -1 -19 0q-7 2 -14 9q-27 30 -33 34q-2 0 -14 -15q-1 -2 -9 -11l-3.5 -4t-6.5 -7t-42 -3h-20q-9 -1 -21 -1q-28 0 -25 -1q-11 2 -11 13q0 4 23 27q1 1 21 25l31 37q9 9 27 11
q-9 -1 30 -1z" />
    <glyph glyph-name="Atilde" unicode="&#xc3;" horiz-adv-x="569" 
d="M543 48q0 -23 -28 -33q-42 -15 -91 -15q-52 0 -84 21q-8 25 -11 64q-3 44 -8 64q-14 10 -35 10q-7 0 -45 -6q-6 -14 -16 -70q-5 -27 -9 -54q-4 -5 -15 -9l-18 -9q-42 -11 -84 -11q-44 0 -58.5 9.5t-14.5 32.5q1 8 7 55q5 39 35 176l37 167q23 107 23 164q0 16 -10.5 47.5
t-10.5 47.5q0 24 15 38q2 2 19 11q69 37 175 46l63 5q59 0 75 -34q8 -138 34 -325l46 -323q9 -65 9 -69zM309 424q0 19 -4 56.5t-4 56.5q0 13 1 19l-10 6q-34 -112 -34 -156q0 -28 22 -28q13 0 26 10q3 17 3 36zM438 953v-13q0 -54 -25 -70q-14 -9 -31 -9q-33 0 -87 19
q-25 9 -51 15q-4 0 -7 -5q-7 -14 -11 -18.5t-17 -4.5q-7 0 -13 1h-15q-20 0 -23 1q-19 3 -16 42q3 34 4 38q11 35 61 35q14 0 95 -21l31 -8q8 0 13 8q1 2 6 11q4 4 15 4q2 0 12 -1t14 -1q9 0 12 1q33 0 33 -24z" />
    <glyph glyph-name="Adieresis" unicode="&#xc4;" horiz-adv-x="569" 
d="M462 942q0 -32 -24 -56.5t-55 -24.5q-35 0 -45 2q-21 5 -35.5 23.5t-14.5 36.5q0 40 32 63q28 22 69 22q31 0 52 -17.5t21 -48.5zM275 942q0 -33 -24 -57t-54 -24q-40 0 -52 4q-16 5 -29.5 22.5t-13.5 35.5q0 40 31 64q28 21 70 21q31 0 51.5 -17.5t20.5 -48.5zM543 48
q0 -23 -28 -33q-42 -15 -91 -15q-52 0 -84 21q-8 25 -11 64q-3 44 -8 64q-14 10 -35 10q-7 0 -45 -6q-6 -14 -16 -70q-5 -27 -9 -54q-4 -5 -15 -9l-18 -9q-42 -11 -84 -11q-44 0 -58.5 9.5t-14.5 32.5q1 8 7 55q5 39 35 176l37 167q23 107 23 164q0 16 -10.5 47.5
t-10.5 47.5q0 24 15 38q2 2 19 11q69 37 175 46l63 5q59 0 75 -34q8 -138 34 -325l46 -323q9 -65 9 -69zM309 424q0 19 -4 56.5t-4 56.5q0 13 1 19l-10 6q-34 -112 -34 -156q0 -28 22 -28q13 0 26 10q3 17 3 36z" />
    <glyph glyph-name="Aring" unicode="&#xc5;" horiz-adv-x="569" 
d="M397 949q0 -27 -13 -44l-22 -22q-35 -22 -70 -22q-28 0 -58 15q-40 27 -40 85q0 33 27 58.5t61 28.5q27 2 52 -5q63 -18 63 -94zM543 48q0 -23 -28 -33q-42 -15 -91 -15q-52 0 -84 21q-8 25 -11 64q-3 44 -8 64q-14 10 -35 10q-7 0 -45 -6q-6 -14 -16 -70q-5 -27 -9 -54
q-4 -5 -15 -9l-18 -9q-42 -11 -84 -11q-44 0 -58.5 9.5t-14.5 32.5q1 8 7 55q5 39 35 176l37 167q23 107 23 164q0 16 -10.5 47.5t-10.5 47.5q0 24 15 38q2 2 19 11q69 37 175 46l63 5q59 0 75 -34q8 -138 34 -325l46 -323q9 -65 9 -69zM327 958q0 14 -10 23t-23 7
q-12 -1 -21.5 -11.5t-9.5 -22.5q0 -29 31 -29q33 0 33 33zM309 424q0 19 -4 56.5t-4 56.5q0 13 1 19l-10 6q-34 -112 -34 -156q0 -28 22 -28q13 0 26 10q3 17 3 36z" />
    <glyph glyph-name="AE" unicode="&#xc6;" horiz-adv-x="750" 
d="M725 643q0 -76 -48 -76q-19 0 -59 21.5t-64 21.5q-40 0 -45 1q-36 -9 -36 -48q0 -16 6 -45q8 -6 16 -6q15 0 56 17.5t59 17.5q28 0 37 -18q6 -12 6 -43q0 -16 -2 -48.5t-2 -48.5v-15q-2 -15 -12 -32q-12 -20 -26 -20q-29 0 -72 22l-44 23q-21 0 -21 -60q0 -32 9 -45
q11 -16 40 -16q32 0 95 26.5t71 26.5q12 0 23 -20q9 -16 11 -30q1 -9 1 -22q0 -8 -1.5 -35.5t-1.5 -34.5q0 -100 -27 -141q-25 -12 -54 -12h-9q-5 1 -9 1q-105 -6 -118 -5l-46 2q-22 -2 -34 -2q-52 0 -84 21q-5 13 -7 26q-5 19 -5 39v4q0 31 -7 59q-14 10 -35 10
q-7 0 -45 -6q-6 -14 -16 -70q-5 -27 -9 -54q-4 -5 -15 -9l-18 -9q-42 -11 -84 -11q-44 0 -58.5 9.5t-14.5 32.5q1 8 7 55q5 39 35 176l37 167q23 107 23 164q0 16 -10.5 47.5t-10.5 47.5q0 24 15 38q2 2 19 11q69 37 175 46l63 5q11 0 29 -2l11 1q7 1 26 2l63 2q7 0 26 -1.5
t22 -1.5q50 0 136 -8q22 -8 26 -72q0 -6 3 -21q4 -23 4 -55zM309 424q0 19 -4 56.5t-4 56.5q0 13 1 19l-10 6q-34 -112 -34 -156q0 -28 22 -28q13 0 26 10q3 17 3 36z" />
    <glyph glyph-name="Ccedilla" unicode="&#xc7;" horiz-adv-x="462" 
d="M441 265q0 -128 -63 -202q-17 -20 -31 -30q-32 -23 -87 -31q-4 -9 -4 -14t15 -13q21 -12 23 -13q13 -10 12 -36q0 -9 -5 -29q-20 -56 -72 -61q-19 -2 -33 -1q-19 1 -32.5 1t-13.5 12q0 1 2.5 9t2.5 13q0 10 8 28q14 1 42 4q12 4 12 15q-1 12 -12 15q-6 0 -16 7
q-4 4 -4 12q0 7 6 22q5 12 12 31q-81 15 -117 69q-67 101 -67 270q0 457 288 457q99 0 105 -38q5 -31 5 -92q0 -15 -3 -105q-1 -35 -3 -45q-5 -26 -23 -37q-3 -1 -11 -1q-32 0 -80 44.5t-50 44.5q-15 0 -24 -15q-2 -3 -13 -29q-4 -55 -4 -88q0 -155 78 -155q28 0 71 38.5
t53 38.5q21 0 31 -53q2 -10 2 -43z" />
    <glyph glyph-name="Egrave" unicode="&#xc8;" horiz-adv-x="494" 
d="M472 641q0 -75 -48 -75q-18 0 -58.5 21t-65.5 21q-39 0 -44 1q-37 -9 -37 -48q0 -18 7 -45q8 -6 16 -6q15 0 56 17.5t59 17.5q27 0 37 -18q6 -11 6 -43q0 -16 -2 -48.5t-2 -48.5v-15q-2 -15 -12 -32q-12 -20 -26 -20q-30 0 -73 22q-27 14 -44 23q-20 0 -20 -60
q0 -38 15 -52q10 -9 34 -9q31 0 93 27t73 27q9 0 19 -15t13 -30t3 -28q0 -8 -2 -35t-2 -35q0 -100 -26 -141q-25 -12 -55 -12h-8q-4 1 -9 1q-47 -1 -187 -1q-78 0 -100 6q-43 12 -43 78q0 87 4 256l6 261q0 21 -14 64q-13 40 -13 63q0 21 9 39q30 25 99 29q34 2 26 2h99
q6 0 25 -1.5t23 -1.5q50 0 136 -8q22 -8 26 -72q0 -6 3 -21q4 -23 4 -55zM300 874q0 -6 -4 -9.5t-54 -3.5h-22q-14 -2 -19 0q-4 2 -53 51q-42 42 -42 50q2 6 3 7q5 6 24 6q6 0 29.5 -1t31.5 -1q13 2 47 4q20 1 35 -40l12 -32q12 -32 12 -31z" />
    <glyph glyph-name="Eacute" unicode="&#xc9;" horiz-adv-x="494" 
d="M472 641q0 -75 -48 -75q-18 0 -58.5 21t-65.5 21q-39 0 -44 1q-37 -9 -37 -48q0 -18 7 -45q8 -6 16 -6q15 0 56 17.5t59 17.5q27 0 37 -18q6 -11 6 -43q0 -16 -2 -48.5t-2 -48.5v-15q-2 -15 -12 -32q-12 -20 -26 -20q-30 0 -73 22q-27 14 -44 23q-20 0 -20 -60
q0 -38 15 -52q10 -9 34 -9q31 0 93 27t73 27q9 0 19 -15t13 -30t3 -28q0 -8 -2 -35t-2 -35q0 -100 -26 -141q-25 -12 -55 -12h-8q-4 1 -9 1q-47 -1 -187 -1q-78 0 -100 6q-43 12 -43 78q0 87 4 256l6 261q0 21 -14 64q-13 40 -13 63q0 21 9 39q30 25 99 29q34 2 26 2h99
q6 0 25 -1.5t23 -1.5q50 0 136 -8q22 -8 26 -72q0 -6 3 -21q4 -23 4 -55zM442 962q0 -9 -22 -30q-10 -9 -34 -33q-11 -12 -39 -38q3 1 -33 1h-36q-29 0 -29 13l22 59q7 19 13 31t19 13q4 0 22 -2q11 0 19 -1h15q6 -1 14 -1q6 0 24.5 1t23.5 1q8 2 19 -6q1 -5 2 -8z" />
    <glyph glyph-name="Ecircumflex" unicode="&#xca;" horiz-adv-x="494" 
d="M472 641q0 -75 -48 -75q-18 0 -58.5 21t-65.5 21q-39 0 -44 1q-37 -9 -37 -48q0 -18 7 -45q8 -6 16 -6q15 0 56 17.5t59 17.5q27 0 37 -18q6 -11 6 -43q0 -16 -2 -48.5t-2 -48.5v-15q-2 -15 -12 -32q-12 -20 -26 -20q-30 0 -73 22q-27 14 -44 23q-20 0 -20 -60
q0 -38 15 -52q10 -9 34 -9q31 0 93 27t73 27q9 0 19 -15t13 -30t3 -28q0 -8 -2 -35t-2 -35q0 -100 -26 -141q-25 -12 -55 -12h-8q-4 1 -9 1q-47 -1 -187 -1q-78 0 -100 6q-43 12 -43 78q0 87 4 256l6 261q0 21 -14 64q-13 40 -13 63q0 21 9 39q30 25 99 29q34 2 26 2h99
q6 0 25 -1.5t23 -1.5q50 0 136 -8q22 -8 26 -72q0 -6 3 -21q4 -23 4 -55zM233 975h28q5 0 16.5 1t18.5 1q17 1 25 -3q14 -6 34 -35q1 -1 17 -21q3 -3 12 -14q26 -30 26 -32q0 -11 -15 -11q-5 0 -25 1t-26 1q-14 0 -25 -1q-13 -1 -19 0q-7 2 -14 9q-27 30 -33 34
q-2 0 -14 -15q-1 -2 -9 -11l-3.5 -4t-6.5 -7t-42 -3h-20q-9 -1 -21 -1q-28 0 -25 -1q-11 2 -11 13q0 4 23 27q1 1 21 25l31 37q9 9 27 11q-9 -1 30 -1z" />
    <glyph glyph-name="Edieresis" unicode="&#xcb;" horiz-adv-x="494" 
d="M443 942q0 -32 -24 -56.5t-55 -24.5q-39 0 -51 4q-16 5 -29.5 22.5t-13.5 35.5q0 42 33 65q28 20 67 20q31 0 52 -17.5t21 -48.5zM257 942q0 -32 -24 -56.5t-55 -24.5q-35 0 -45 2q-21 5 -35.5 23.5t-14.5 36.5q0 40 32 63q28 22 69 22q31 0 52 -17.5t21 -48.5zM472 641
q0 -75 -48 -75q-18 0 -58.5 21t-65.5 21q-39 0 -44 1q-37 -9 -37 -48q0 -18 7 -45q8 -6 16 -6q15 0 56 17.5t59 17.5q27 0 37 -18q6 -11 6 -43q0 -16 -2 -48.5t-2 -48.5v-15q-2 -15 -12 -32q-12 -20 -26 -20q-30 0 -73 22q-27 14 -44 23q-20 0 -20 -60q0 -38 15 -52
q10 -9 34 -9q31 0 93 27t73 27q9 0 19 -15t13 -30t3 -28q0 -8 -2 -35t-2 -35q0 -100 -26 -141q-25 -12 -55 -12h-8q-4 1 -9 1q-47 -1 -187 -1q-78 0 -100 6q-43 12 -43 78q0 87 4 256l6 261q0 21 -14 64q-13 40 -13 63q0 21 9 39q30 25 99 29q34 2 26 2h99q6 0 25 -1.5
t23 -1.5q50 0 136 -8q22 -8 26 -72q0 -6 3 -21q4 -23 4 -55z" />
    <glyph glyph-name="Igrave" unicode="&#xcc;" horiz-adv-x="267" 
d="M246 60q0 -20 -3 -23q-29 -43 -108 -37l-78 6q-22 12 -27 44v54q0 5 -1 9v9q0 20 1 38l2 37q0 18 4 317q0 21 1 74q1 18 2 21q0 20 -13.5 61t-13.5 62v9q19 30 56 38l69 15q28 6 45 6q42 0 52 -25q11 -28 11 -135q0 -41 -3.5 -123.5t-3.5 -123.5q0 -56 4 -166.5t4 -166.5
zM114 874q0 -6 -4 -9.5t-54 -3.5h-22q-14 -2 -19 0q-2 1 -52 51q-42 42 -42 50q2 6 3 7q4 6 24 6q6 0 29.5 -1t30.5 -1q13 2 47 4q20 1 35 -40l12 -32q12 -32 12 -31z" />
    <glyph glyph-name="Iacute" unicode="&#xcd;" horiz-adv-x="267" 
d="M246 60q0 -20 -3 -23q-29 -43 -108 -37l-78 6q-22 12 -27 44v54q0 5 -1 9v9q0 20 1 38l2 37q0 18 4 317q0 21 1 74q1 18 2 21q0 20 -13.5 61t-13.5 62v9q19 30 56 38l69 15q28 6 45 6q42 0 52 -25q11 -28 11 -135q0 -41 -3.5 -123.5t-3.5 -123.5q0 -56 4 -166.5t4 -166.5
zM312 962q0 -9 -22 -30q-10 -9 -34 -33q-11 -12 -39 -38q3 1 -33 1h-36q-29 0 -29 13l22 59q7 19 13 31t19 13q4 0 22 -2q11 0 19 -1h15q6 -1 14 -1q6 0 24.5 1t23.5 1q8 2 19 -6q1 -5 2 -8z" />
    <glyph glyph-name="Icircumflex" unicode="&#xce;" horiz-adv-x="267" 
d="M246 60q0 -20 -3 -23q-29 -43 -108 -37l-78 6q-22 12 -27 44v54q0 5 -1 9v9q0 20 1 38l2 37q0 18 4 317q0 21 1 74q1 18 2 21q0 20 -13.5 61t-13.5 62v9q19 30 56 38l69 15q28 6 45 6q42 0 52 -25q11 -28 11 -135q0 -41 -3.5 -123.5t-3.5 -123.5q0 -56 4 -166.5t4 -166.5
zM115 975h28q5 0 16.5 1t18.5 1q17 1 25 -3q14 -6 34 -35q1 -1 17 -21q3 -3 12 -14q26 -30 26 -32q0 -11 -15 -11q-5 0 -25 1t-26 1q-14 0 -25 -1q-13 -1 -19 0q-7 2 -14 9q-27 30 -33 34q-2 0 -14 -15q-1 -2 -9 -11l-3.5 -4t-6.5 -7t-42 -3h-20q-9 -1 -21 -1q-27 0 -24 -1
q-11 2 -11 13q0 5 22 27q1 1 21 25l31 37q9 9 27 11q-9 -1 30 -1z" />
    <glyph glyph-name="Idieresis" unicode="&#xcf;" horiz-adv-x="267" 
d="M315 942q0 -32 -24 -56.5t-55 -24.5q-39 0 -51 4q-16 5 -29.5 22.5t-13.5 35.5q0 42 33 65q28 20 67 20q31 0 52 -17.5t21 -48.5zM129 942q0 -32 -24 -56.5t-55 -24.5q-40 0 -52 4q-16 5 -29 23t-13 35q0 39 30 62t70 23q31 0 52 -17.5t21 -48.5zM246 60q0 -20 -3 -23
q-29 -43 -108 -37l-78 6q-22 12 -27 44v54q0 5 -1 9v9q0 20 1 38l2 37q0 18 4 317q0 21 1 74q1 18 2 21q0 20 -13.5 61t-13.5 62v9q19 30 56 38l69 15q28 6 45 6q42 0 52 -25q11 -28 11 -135q0 -41 -3.5 -123.5t-3.5 -123.5q0 -56 4 -166.5t4 -166.5z" />
    <glyph glyph-name="Ntilde" unicode="&#xd1;" horiz-adv-x="570" 
d="M544 723q0 -48 -4 -121q-4 -78 -5 -121q0 -47 -2 -167l-4 -183q0 -99 -32 -112q-40 -16 -119 -16q-35 0 -60 6q-14 3 -24 39l-25 88q-15 54 -57 187q-2 6 -10 14q-7 -15 -7 -39q0 -7 2 -33.5t2 -34.5v-19q-1 -8 -1 -18q0 -24 5 -71.5t5 -71.5q0 -9 -8.5 -22.5
t-16.5 -16.5q-25 -10 -75 -10q-29 0 -47 7q-23 -3 -28 32q1 -6 1 52q0 87 8 260t8 260q0 18 -12.5 55.5t-12.5 57.5q0 15 6 28q25 20 64 30q36 9 126 17q44 0 58 -20q9 -14 26 -88q6 -32 20 -96q14 -59 39 -128q5 -3 10 -3q4 0 5 1q6 30 6 58q0 21 -3 47q-14 121 -14 163
q0 41 29 50q49 16 113 16q2 0 8 -2q23 -8 25 -30q1 -12 1 -45zM438 953v-13q0 -54 -25 -70q-14 -9 -31 -9q-33 0 -87 19q-25 9 -51 15q-4 0 -7 -5q-7 -14 -11 -18.5t-17 -4.5q-7 0 -13 1h-15q-20 0 -23 1q-19 3 -16 42q3 34 4 38q11 35 61 35q14 0 95 -21l31 -8q8 0 13 8
q1 2 6 11q4 4 15 4q2 0 12 -1t14 -1q9 0 12 1q33 0 33 -24z" />
    <glyph glyph-name="Ograve" unicode="&#xd2;" horiz-adv-x="536" 
d="M512 410q0 -287 -140 -381q-43 -29 -121 -29q-66 0 -106 29q-98 70 -116 252q-5 51 -5 69q0 170 58 308q60 142 203 142q81 0 123 -43q65 -67 88 -161q16 -66 16 -186zM329 373v74q0 114 -63 114q-18 0 -33 -19q-20 -26 -20 -141q0 -54 7 -79q13 -48 52 -48q37 0 49 34
q8 22 8 65zM300 874q0 -6 -4 -9.5t-54 -3.5h-22q-14 -2 -19 0q-4 2 -53 51q-42 42 -42 50q2 6 3 7q5 6 24 6q6 0 29.5 -1t31.5 -1q13 2 47 4q20 1 35 -40l12 -32q12 -32 12 -31z" />
    <glyph glyph-name="Oacute" unicode="&#xd3;" horiz-adv-x="536" 
d="M512 410q0 -287 -140 -381q-43 -29 -121 -29q-66 0 -106 29q-98 70 -116 252q-5 51 -5 69q0 170 58 308q60 142 203 142q81 0 123 -43q65 -67 88 -161q16 -66 16 -186zM329 373v74q0 114 -63 114q-18 0 -33 -19q-20 -26 -20 -141q0 -54 7 -79q13 -48 52 -48q37 0 49 34
q8 22 8 65zM442 962q0 -9 -22 -30q-10 -9 -34 -33q-11 -12 -39 -38q3 1 -33 1h-36q-29 0 -29 13l22 59q7 19 13 31t19 13q4 0 22 -2q11 0 19 -1h15q6 -1 14 -1q6 0 24.5 1t23.5 1q8 2 19 -6q1 -5 2 -8z" />
    <glyph glyph-name="Ocircumflex" unicode="&#xd4;" horiz-adv-x="536" 
d="M512 410q0 -287 -140 -381q-43 -29 -121 -29q-66 0 -106 29q-98 70 -116 252q-5 51 -5 69q0 170 58 308q60 142 203 142q81 0 123 -43q65 -67 88 -161q16 -66 16 -186zM329 373v74q0 114 -63 114q-18 0 -33 -19q-20 -26 -20 -141q0 -54 7 -79q13 -48 52 -48q37 0 49 34
q8 22 8 65zM268 975h28q5 0 16.5 1t18.5 1q17 1 25 -3q14 -6 34 -35q1 -1 17 -21q3 -3 12 -14q26 -30 26 -32q0 -11 -15 -11q-5 0 -25 1t-26 1q-14 0 -25 -1q-13 -1 -19 0q-7 2 -14 9q-27 30 -33 34q-2 0 -14 -15q-1 -2 -9 -11l-3.5 -4t-6.5 -7t-42 -3h-20q-9 -1 -21 -1
q-28 0 -25 -1q-11 2 -11 13q0 4 23 27q1 1 21 25l31 37q9 9 27 11q-9 -1 30 -1z" />
    <glyph glyph-name="Otilde" unicode="&#xd5;" horiz-adv-x="536" 
d="M512 410q0 -287 -140 -381q-43 -29 -121 -29q-66 0 -106 29q-98 70 -116 252q-5 51 -5 69q0 170 58 308q60 142 203 142q81 0 123 -43q65 -67 88 -161q16 -66 16 -186zM329 373v74q0 114 -63 114q-18 0 -33 -19q-20 -26 -20 -141q0 -54 7 -79q13 -48 52 -48q37 0 49 34
q8 22 8 65zM438 953v-13q0 -54 -25 -70q-14 -9 -31 -9q-33 0 -87 19q-25 9 -51 15q-4 0 -7 -5q-7 -14 -11 -18.5t-17 -4.5q-7 0 -13 1h-15q-20 0 -23 1q-19 3 -16 42q3 34 4 38q11 35 61 35q14 0 95 -21l31 -8q8 0 13 8q1 2 6 11q4 4 15 4q2 0 12 -1t14 -1q9 0 12 1
q33 0 33 -24z" />
    <glyph glyph-name="Odieresis" unicode="&#xd6;" horiz-adv-x="536" 
d="M462 942q0 -32 -24 -56.5t-55 -24.5q-35 0 -45 2q-21 5 -35.5 23.5t-14.5 36.5q0 40 32 63q28 22 69 22q31 0 52 -17.5t21 -48.5zM275 942q0 -33 -24 -57t-54 -24q-40 0 -52 4q-16 5 -29.5 22.5t-13.5 35.5q0 40 31 64q28 21 70 21q31 0 51.5 -17.5t20.5 -48.5zM512 410
q0 -287 -140 -381q-43 -29 -121 -29q-66 0 -106 29q-98 70 -116 252q-5 51 -5 69q0 170 58 308q60 142 203 142q81 0 123 -43q65 -67 88 -161q16 -66 16 -186zM329 373v74q0 114 -63 114q-18 0 -33 -19q-20 -26 -20 -141q0 -54 7 -79q13 -48 52 -48q37 0 49 34q8 22 8 65z
" />
    <glyph glyph-name="multiply" unicode="&#xd7;" horiz-adv-x="565" 
d="M196 520l9 -9q2 -2 5 -8q12 -8 37 -35q4 -3 18 -17q4 -6 15 -16q6 -2 17 10q7 11 38 39q26 23 32 33q3 4 19 18q11 9 21 8q8 -2 19 -8q18 -21 61 -68q8 -7 7 -16q-2 -10 -6 -16q-10 -8 -34 -35q-8 -7 -21 -20q-4 -2 -30 -29q-17 -16 -16 -19q0 -6 19 -24q4 -5 8.5 -10.5
t27.5 -27.5l13 -13q8 -6 31 -29q8 -6 14 -15q9 -15 -4 -28q-3 -3 -9.5 -7t-10.5 -8q-11 -12 -29 -29l-11 -11q-1 -3 -18 -17q-10 -8 -14 -7q-8 2 -23 19q-3 1 -10 8l-10 10q-4 4 -26 28q-10 11 -40 41q-8 11 -13 11q-3 0 -18 -15q-8 -10 -22 -24q-3 -3 -14.5 -11t-13.5 -10
q-12 -15 -16 -18l-17 -17q-16 -16 -25 -15q-6 1 -25 20l-17 17q-14 14 -28 27q-2 4 -8 9q-17 18 -15 25q3 11 9 17q12 7 29 24q2 3 24 23q3 4 16 17q2 2 9.5 8.5t12.5 11.5q1 3 8 10l5 6q-2 2 -32 34q-6 8 -17 20l-50 50q-10 7 -12 14q-4 14 4 25q4 4 11 8q4 3 12 10
q9 11 24 27q11 10 20 15q15 17 24 16q16 0 36 -27z" />
    <glyph glyph-name="Oslash" unicode="&#xd8;" horiz-adv-x="536" 
d="M327 485l-60 -115q-10 -25 -36 -75q14 -21 41 -21q37 0 49 34q8 22 8 65v74q0 16 -2 38zM214 362q4 6 91 183q-13 16 -39 16q-18 0 -33 -19q-20 -26 -20 -141q0 -29 1 -39zM112 58v-2q-7 -14 -18 -35q-3 -6 -11 -21q-2 -2 -7 -2q3 0 -23 5q-1 0 -11 2q-1 7 -1 11
q2 5 41 82q-42 68 -53 183q-5 54 -5 69q0 170 58 308q60 142 203 142q80 0 123 -43l2 -2q19 39 22 42q6 11 12 9q9 -3 27 -10q8 -2 4 -14q-5 -12 -32 -67q43 -59 58 -144q11 -61 11 -161q0 -287 -140 -381q-43 -29 -121 -29q-86 0 -139 58z" />
    <glyph glyph-name="Ugrave" unicode="&#xd9;" horiz-adv-x="543" 
d="M518 736q0 -18 -9 -63q-3 -28 -3 -118q0 -32 1 -96t1 -96q0 -103 -7 -174q-14 -144 -113 -171q-67 -18 -134 -18q-195 0 -210 188q-6 75 -6 173q0 37 4 111.5t4 111.5q0 67 -7 104q-1 6 -8 26q-6 16 -6 26q0 42 86 51q8 1 34 5q21 4 34 4q54 0 61 -37q1 -3 1 -48
t-3.5 -136t-3.5 -136q0 -32 2 -86q4 -12 4 -42q0 -41 32 -41q41 0 47 30q1 1 5 62q6 82 6 150q0 78 -8 145q-1 6 -3 21q-11 39 -11 45q0 12 3 25q24 29 98 38q35 4 40 4q36 0 52.5 -12t16.5 -46zM300 874q0 -6 -4 -9.5t-54 -3.5h-22q-14 -2 -19 0q-4 2 -53 51q-42 42 -42 50
q2 6 3 7q5 6 24 6q6 0 29.5 -1t31.5 -1q13 2 47 4q20 1 35 -40l12 -32q12 -32 12 -31z" />
    <glyph glyph-name="Uacute" unicode="&#xda;" horiz-adv-x="543" 
d="M518 736q0 -18 -9 -63q-3 -28 -3 -118q0 -32 1 -96t1 -96q0 -103 -7 -174q-14 -144 -113 -171q-67 -18 -134 -18q-195 0 -210 188q-6 75 -6 173q0 37 4 111.5t4 111.5q0 67 -7 104q-1 6 -8 26q-6 16 -6 26q0 42 86 51q8 1 34 5q21 4 34 4q54 0 61 -37q1 -3 1 -48
t-3.5 -136t-3.5 -136q0 -32 2 -86q4 -12 4 -42q0 -41 32 -41q41 0 47 30q1 1 5 62q6 82 6 150q0 78 -8 145q-1 6 -3 21q-11 39 -11 45q0 12 3 25q24 29 98 38q35 4 40 4q36 0 52.5 -12t16.5 -46zM442 962q0 -9 -22 -30q-10 -9 -34 -33q-11 -12 -39 -38q3 1 -33 1h-36
q-29 0 -29 13l22 59q7 19 13 31t19 13q4 0 22 -2q11 0 19 -1h15q6 -1 14 -1q6 0 24.5 1t23.5 1q8 2 19 -6q1 -5 2 -8z" />
    <glyph glyph-name="Ucircumflex" unicode="&#xdb;" horiz-adv-x="543" 
d="M518 736q0 -18 -9 -63q-3 -28 -3 -118q0 -32 1 -96t1 -96q0 -103 -7 -174q-14 -144 -113 -171q-67 -18 -134 -18q-195 0 -210 188q-6 75 -6 173q0 37 4 111.5t4 111.5q0 67 -7 104q-1 6 -8 26q-6 16 -6 26q0 42 86 51q8 1 34 5q21 4 34 4q54 0 61 -37q1 -3 1 -48
t-3.5 -136t-3.5 -136q0 -32 2 -86q4 -12 4 -42q0 -41 32 -41q41 0 47 30q1 1 5 62q6 82 6 150q0 78 -8 145q-1 6 -3 21q-11 39 -11 45q0 12 3 25q24 29 98 38q35 4 40 4q36 0 52.5 -12t16.5 -46zM268 975h28q5 0 16.5 1t18.5 1q17 1 25 -3q14 -6 34 -35q1 -1 17 -21
q3 -3 12 -14q26 -30 26 -32q0 -11 -15 -11q-5 0 -25 1t-26 1q-14 0 -25 -1q-13 -1 -19 0q-7 2 -14 9q-27 30 -33 34q-2 0 -14 -15q-1 -2 -9 -11l-3.5 -4t-6.5 -7t-42 -3h-20q-9 -1 -21 -1q-28 0 -25 -1q-11 2 -11 13q0 4 23 27q1 1 21 25l31 37q9 9 27 11q-9 -1 30 -1z" />
    <glyph glyph-name="Udieresis" unicode="&#xdc;" horiz-adv-x="543" 
d="M462 942q0 -32 -24 -56.5t-55 -24.5q-35 0 -45 2q-21 5 -35.5 23.5t-14.5 36.5q0 40 32 63q28 22 69 22q31 0 52 -17.5t21 -48.5zM275 942q0 -33 -24 -57t-54 -24q-40 0 -52 4q-16 5 -29.5 22.5t-13.5 35.5q0 40 31 64q28 21 70 21q31 0 51.5 -17.5t20.5 -48.5zM518 736
q0 -18 -9 -63q-3 -28 -3 -118q0 -32 1 -96t1 -96q0 -103 -7 -174q-14 -144 -113 -171q-67 -18 -134 -18q-195 0 -210 188q-6 75 -6 173q0 37 4 111.5t4 111.5q0 67 -7 104q-1 6 -8 26q-6 16 -6 26q0 42 86 51q8 1 34 5q21 4 34 4q54 0 61 -37q1 -3 1 -48t-3.5 -136
t-3.5 -136q0 -32 2 -86q4 -12 4 -42q0 -41 32 -41q41 0 47 30q1 1 5 62q6 82 6 150q0 78 -8 145q-1 6 -3 21q-11 39 -11 45q0 12 3 25q24 29 98 38q35 4 40 4q36 0 52.5 -12t16.5 -46z" />
    <glyph glyph-name="Yacute" unicode="&#xdd;" horiz-adv-x="591" 
d="M564 758q0 -23 -26 -93q-2 -6 -8 -23q-1 -3 -39 -85t-83 -178q-24 -51 -24 -120q0 -29 5 -87t5 -87q0 -24 -1 -31q-5 -31 -36 -42q-17 -6 -59 -6q-14 0 -42 -2.5t-42 -2.5q-38 0 -51 22q-7 38 -7 47q0 7 7 52q5 33 5 62v70q0 91 -21 153q-9 24 -30 85q-15 47 -31 95
q-19 55 -42 90q-17 26 -17 43q0 11 8 22q12 17 89 39q66 19 99 19q28 0 33 -20q13 -12 31 -119q17 -99 30 -99q14 0 25 49q10 43 10 63q0 26 -8 50q3 49 118 63q34 4 53 4q49 0 49 -33zM513 962q0 -9 -22 -30q-10 -9 -34 -33q-11 -12 -39 -38q3 1 -33 1h-36q-29 0 -29 13
l22 59q7 19 13 31t19 13q4 0 22 -2q11 0 19 -1h15q6 -1 14 -1q6 0 24.5 1t23.5 1q8 2 19 -6q1 -5 2 -8z" />
    <glyph glyph-name="germandbls" unicode="&#xdf;" horiz-adv-x="516" 
d="M270 57v89q0 30 40 30q13 0 16 12v23q0 14 -1.5 42t-1.5 42q0 20 -15 59q-2 8 -10 26q-12 12 -32 44q-8 24 -8 49q0 27 18 69.5t18 55.5q0 9 -12 23.5t-21 14.5q-1 0 -3 -1h-4l-5 -5q-13 -16 -14 -48q1 10 1 -52q0 -8 -1.5 -36t-1.5 -36q0 -16 7 -48.5t7 -48.5
q0 -2 -2.5 -15.5t-2.5 -34.5q0 -46 4 -137.5t4 -137.5q-17 -35 -72 -35h-35h-21q-12 -1 -15 -1q-12 0 -22 10q-13 29 -13 74q0 67 1 128l2 129q-4 7 -28.5 16.5t-25.5 27.5q-3 40 -3 85q0 56 10 75q3 7 18 15t16 9q8 231 177 231q11 0 33 -3q5 0 22 -2q50 -6 85 -34
q60 -49 60 -130q0 -4 1.5 -18t1.5 -18q0 -15 -11.5 -43.5t-11.5 -43.5q0 -18 13 -51q10 -25 20 -51q43 -124 43 -223q0 -185 -145 -185q-80 0 -80 59z" />
    <glyph glyph-name="agrave" unicode="&#xe0;" 
d="M249 696q0 -6 -4 -9.5t-54 -3.5h-22q-14 -2 -19 0q-4 2 -53 51q-42 42 -42 50q2 6 3 7q5 6 24 6q6 0 29.5 -1t31.5 -1q13 2 47 4q20 1 35 -40l12 -32q12 -32 12 -31zM446 180q0 -143 -76 -171q-16 -6 -36 -9h-3q-14 0 -36.5 20.5t-32.5 20.5q-9 0 -33 -20
q-29 -19 -77 -19q-26 0 -39 2q-46 7 -71 63q-21 45 -21 98q0 126 101 196q14 10 60 28q40 16 55 31q23 23 23 64q0 5 -6 15l-6 12q-10 3 -18 3q-21 0 -21 -19q0 -6 8 -20.5t8 -18.5q0 -5 -11 -18q-33 -37 -91 -37q-70 0 -85 39q-6 16 -6 49q0 37 16 59q63 87 243 87
q129 0 129 -129q0 -28 -8 -82.5t-8 -82.5q0 -29 6 -53l34 -37zM255 269q0 13 -7 24.5t-18 11.5q-2 0 -8.5 -1t-8.5 -1q-26 -12 -26 -50q0 -21 17 -41q10 -2 16 -2q18 0 23 10q12 26 12 49z" />
    <glyph glyph-name="aacute" unicode="&#xe1;" 
d="M400 786q0 -9 -22 -30q-10 -9 -34 -33q-11 -12 -39 -38q3 1 -33 1h-36q-29 0 -29 13l22 59q7 19 13 31t19 13q4 0 22 -2q11 0 19 -1h15q6 -1 14 -1q6 0 24.5 1t23.5 1q8 2 19 -6q1 -5 2 -8zM446 180q0 -143 -76 -171q-16 -6 -36 -9h-3q-14 0 -36.5 20.5t-32.5 20.5
q-9 0 -33 -20q-29 -19 -77 -19q-26 0 -39 2q-46 7 -71 63q-21 45 -21 98q0 126 101 196q14 10 60 28q40 16 55 31q23 23 23 64q0 5 -6 15l-6 12q-10 3 -18 3q-21 0 -21 -19q0 -6 8 -20.5t8 -18.5q0 -5 -11 -18q-33 -37 -91 -37q-70 0 -85 39q-6 16 -6 49q0 37 16 59
q63 87 243 87q129 0 129 -129q0 -28 -8 -82.5t-8 -82.5q0 -29 6 -53l34 -37zM255 269q0 13 -7 24.5t-18 11.5q-2 0 -8.5 -1t-8.5 -1q-26 -12 -26 -50q0 -21 17 -41q10 -2 16 -2q18 0 23 10q12 26 12 49z" />
    <glyph glyph-name="acircumflex" unicode="&#xe2;" 
d="M446 180q0 -143 -76 -171q-16 -6 -36 -9h-3q-14 0 -36.5 20.5t-32.5 20.5q-9 0 -33 -20q-29 -19 -77 -19q-26 0 -39 2q-46 7 -71 63q-21 45 -21 98q0 126 101 196q14 10 60 28q40 16 55 31q23 23 23 64q0 5 -6 15l-6 12q-10 3 -18 3q-21 0 -21 -19q0 -6 8 -20.5t8 -18.5
q0 -5 -11 -18q-33 -37 -91 -37q-70 0 -85 39q-6 16 -6 49q0 37 16 59q63 87 243 87q129 0 129 -129q0 -28 -8 -82.5t-8 -82.5q0 -29 6 -53l34 -37zM255 269q0 13 -7 24.5t-18 11.5q-2 0 -8.5 -1t-8.5 -1q-26 -12 -26 -50q0 -21 17 -41q10 -2 16 -2q18 0 23 10q12 26 12 49z
M214 797h28q5 0 16.5 1t18.5 1q17 1 25 -3q14 -6 34 -35q1 -1 17 -21q3 -3 12 -14q26 -30 26 -32q0 -11 -15 -11q-5 0 -25 1t-26 1q-14 0 -25 -1q-13 -1 -19 0q-7 2 -14 9q-27 30 -33 34q-2 0 -14 -15q-1 -2 -9 -11l-3.5 -4t-6.5 -7t-42 -3h-20q-9 -1 -21 -1q-28 0 -25 -1
q-11 2 -11 13q0 4 23 27q1 1 21 25l31 37q9 9 27 11q-9 -1 30 -1z" />
    <glyph glyph-name="atilde" unicode="&#xe3;" 
d="M446 180q0 -143 -76 -171q-16 -6 -36 -9h-3q-14 0 -36.5 20.5t-32.5 20.5q-9 0 -33 -20q-29 -19 -77 -19q-26 0 -39 2q-46 7 -71 63q-21 45 -21 98q0 126 101 196q14 10 60 28q40 16 55 31q23 23 23 64q0 5 -6 15l-6 12q-10 3 -18 3q-21 0 -21 -19q0 -6 8 -20.5t8 -18.5
q0 -5 -11 -18q-33 -37 -91 -37q-70 0 -85 39q-6 16 -6 49q0 37 16 59q63 87 243 87q129 0 129 -129q0 -28 -8 -82.5t-8 -82.5q0 -29 6 -53l34 -37zM255 269q0 13 -7 24.5t-18 11.5q-2 0 -8.5 -1t-8.5 -1q-26 -12 -26 -50q0 -21 17 -41q10 -2 16 -2q18 0 23 10q12 26 12 49z
M384 777v-13q0 -54 -25 -70q-14 -9 -31 -9q-33 0 -87 19q-25 9 -51 15q-4 0 -7 -5q-7 -14 -11 -18.5t-17 -4.5q-7 0 -13 1h-15q-20 0 -23 1q-19 3 -16 42q3 34 4 38q11 35 61 35q14 0 95 -21l31 -8q8 0 13 8q1 2 6 11q4 4 15 4q2 0 12 -1t14 -1q9 0 12 1q33 0 33 -24z" />
    <glyph glyph-name="adieresis" unicode="&#xe4;" 
d="M420 735q0 -32 -24 -56.5t-55 -24.5q-36 0 -45 2q-21 5 -35.5 24.5t-14.5 35.5q0 40 32 63q28 22 69 22q31 0 52 -17.5t21 -48.5zM233 735q0 -33 -24 -57t-54 -24q-40 0 -52 4q-16 5 -29.5 23t-13.5 35q0 40 31 64q28 21 70 21q31 0 51.5 -17.5t20.5 -48.5zM446 180
q0 -143 -76 -171q-16 -6 -36 -9h-3q-14 0 -36.5 20.5t-32.5 20.5q-9 0 -33 -20q-29 -19 -77 -19q-26 0 -39 2q-46 7 -71 63q-21 45 -21 98q0 126 101 196q14 10 60 28q40 16 55 31q23 23 23 64q0 5 -6 15l-6 12q-10 3 -18 3q-21 0 -21 -19q0 -6 8 -20.5t8 -18.5
q0 -5 -11 -18q-33 -37 -91 -37q-70 0 -85 39q-6 16 -6 49q0 37 16 59q63 87 243 87q129 0 129 -129q0 -28 -8 -82.5t-8 -82.5q0 -29 6 -53l34 -37zM255 269q0 13 -7 24.5t-18 11.5q-2 0 -8.5 -1t-8.5 -1q-26 -12 -26 -50q0 -21 17 -41q10 -2 16 -2q18 0 23 10q12 26 12 49z
" />
    <glyph glyph-name="aring" unicode="&#xe5;" 
d="M446 180q0 -143 -76 -171q-16 -6 -36 -9h-3q-14 0 -36.5 20.5t-32.5 20.5q-9 0 -33 -20q-29 -19 -77 -19q-26 0 -39 2q-46 7 -71 63q-21 45 -21 98q0 126 101 196q14 10 60 28q40 16 55 31q23 23 23 64q0 5 -6 15l-6 12q-10 3 -18 3q-21 0 -21 -19q0 -6 8 -20.5t8 -18.5
q0 -5 -11 -18q-33 -37 -91 -37q-70 0 -85 39q-6 16 -6 49q0 37 16 59q46 63 144 80l-1 1q-40 27 -40 85q0 33 27 58.5t61 28.5q27 2 52 -5q63 -18 63 -94q0 -27 -13 -44l-22 -22l-4 -2q105 -10 105 -128q0 -28 -8 -82.5t-8 -82.5q0 -29 6 -53l34 -37zM284 711q0 14 -10 23
t-23 7q-12 -1 -21.5 -11.5t-9.5 -22.5q0 -29 31 -29q33 0 33 33zM255 269q0 13 -7 24.5t-18 11.5q-2 0 -8.5 -1t-8.5 -1q-26 -12 -26 -50q0 -21 17 -41q10 -2 16 -2q18 0 23 10q12 26 12 49z" />
    <glyph glyph-name="ae" unicode="&#xe6;" horiz-adv-x="678" 
d="M653 217q0 -42 -12 -87q-14 -52 -37 -78q-47 -52 -136 -52q-42 0 -81 17q-18 -12 -53 -17h-3q-14 0 -36.5 20.5t-32.5 20.5q-9 0 -33 -20q-29 -19 -77 -19q-26 0 -39 2q-46 7 -71 63q-21 45 -21 98q0 126 101 196q14 10 60 28q40 16 55 31q23 23 23 64q0 5 -6 15l-6 12
q-10 3 -18 3q-21 0 -21 -19q0 -6 8 -20.5t8 -18.5q0 -5 -11 -18q-33 -37 -91 -37q-70 0 -85 39q-6 16 -6 49q0 37 16 59q63 87 243 87q60 0 92 -26l4 3q32 24 98 24q67 0 98 -27q8 -7 21 -27q48 -74 48 -167q0 -41 -11 -83q-7 -10 -30 -15l-36 -3q-5 -1 -18 -1q-3 0 -15 1
h-21h-36q-53 0 -61 -11v-8q0 -24 16 -40l4 -4q28 -28 55 -28q1 0 25 5q6 1 20 4q10 4 39 30q24 21 42 21q8 0 11 -1q17 -14 17 -65zM483 429q0 2 -2 8q-1 11 -5 35q-6 19 -25 19h-4q-20 0 -29 -20q-1 -16 -6 -48q6 -10 26 -10q3 0 13.5 1t12.5 1q19 0 19 14zM255 269
q0 13 -7 24.5t-18 11.5q-2 0 -8.5 -1t-8.5 -1q-26 -12 -26 -50q0 -21 17 -41q10 -2 16 -2q18 0 23 10q12 26 12 49z" />
    <glyph glyph-name="ccedilla" unicode="&#xe7;" horiz-adv-x="399" 
d="M381 231q0 -119 -66 -187q-33 -34 -90 -41q-5 -15 -5 -17q0 -5 15 -13q21 -12 23 -13q13 -10 12 -36q0 -9 -5 -29q-20 -56 -72 -61q-19 -2 -33 -1q-19 1 -32.5 1t-13.5 12q0 1 2.5 9t2.5 13q0 10 8 28q14 1 42 4q12 4 12 15q-1 12 -12 15q-6 0 -16 7q-4 4 -4 12
q0 16 19 54q-150 23 -150 267q0 290 158 356q22 9 63 9q59 0 90 -31q48 -48 48 -122q0 -122 -112 -122q-14 0 -28 5q-19 6 -19 17q0 2 1 4q10 10 10 27q0 19 -22 25q-31 -4 -31 -58q0 -126 66 -126q53 0 102 52q6 2 8 2q8 0 25 -26q4 -23 4 -51z" />
    <glyph glyph-name="egrave" unicode="&#xe8;" horiz-adv-x="433" 
d="M249 696q0 -6 -4 -9.5t-54 -3.5h-22q-14 -2 -19 0q-4 2 -53 51q-42 42 -42 50q2 6 3 7q5 6 24 6q6 0 29.5 -1t31.5 -1q13 2 47 4q20 1 35 -40l12 -32q12 -32 12 -31zM414 217q0 -38 -13 -87q-15 -56 -36 -79q-47 -51 -136 -51q-170 0 -204 223q-7 46 -7 86q0 164 89 264
q22 25 41 38q35 24 98 24q69 0 98 -27q8 -7 21 -27q47 -71 47 -167q0 -44 -10 -83q-11 -15 -66 -18q-9 -1 -18 -1q-8 0 -36 1t-36 1q-53 0 -61 -12q-1 -3 -1 -8q0 -26 25 -48.5t51 -22.5q7 0 25 4q26 6 59 35q23 20 42 20q7 0 11 -1q17 -14 17 -64zM243 428q0 1 -1 8
q-4 21 -5 35q-6 19 -25 19h-4q-27 0 -35 -41l-3 -15q0 -21 29 -21h13q6 1 13 1q18 0 18 14z" />
    <glyph glyph-name="eacute" unicode="&#xe9;" horiz-adv-x="433" 
d="M400 786q0 -9 -22 -30q-10 -9 -34 -33q-11 -12 -39 -38q3 1 -33 1h-36q-29 0 -29 13l22 59q7 19 13 31t19 13q4 0 22 -2q11 0 19 -1h15q6 -1 14 -1q6 0 24.5 1t23.5 1q8 2 19 -6q1 -5 2 -8zM414 217q0 -38 -13 -87q-15 -56 -36 -79q-47 -51 -136 -51q-170 0 -204 223
q-7 46 -7 86q0 164 89 264q22 25 41 38q35 24 98 24q69 0 98 -27q8 -7 21 -27q47 -71 47 -167q0 -44 -10 -83q-11 -15 -66 -18q-9 -1 -18 -1q-8 0 -36 1t-36 1q-53 0 -61 -12q-1 -3 -1 -8q0 -26 25 -48.5t51 -22.5q7 0 25 4q26 6 59 35q23 20 42 20q7 0 11 -1q17 -14 17 -64
zM243 428q0 1 -1 8q-4 21 -5 35q-6 19 -25 19h-4q-27 0 -35 -41l-3 -15q0 -21 29 -21h13q6 1 13 1q18 0 18 14z" />
    <glyph glyph-name="ecircumflex" unicode="&#xea;" horiz-adv-x="433" 
d="M414 217q0 -38 -13 -87q-15 -56 -36 -79q-47 -51 -136 -51q-170 0 -204 223q-7 46 -7 86q0 164 89 264q22 25 41 38q35 24 98 24q69 0 98 -27q8 -7 21 -27q47 -71 47 -167q0 -44 -10 -83q-11 -15 -66 -18q-9 -1 -18 -1q-8 0 -36 1t-36 1q-53 0 -61 -12q-1 -3 -1 -8
q0 -26 25 -48.5t51 -22.5q7 0 25 4q26 6 59 35q23 20 42 20q7 0 11 -1q17 -14 17 -64zM243 428q0 1 -1 8q-4 21 -5 35q-6 19 -25 19h-4q-27 0 -35 -41l-3 -15q0 -21 29 -21h13q6 1 13 1q18 0 18 14zM214 797h28q5 0 16.5 1t18.5 1q17 1 25 -3q14 -6 34 -35q1 -1 17 -21
q3 -3 12 -14q26 -30 26 -32q0 -11 -15 -11q-5 0 -25 1t-26 1q-14 0 -25 -1q-13 -1 -19 0q-7 2 -14 9q-27 30 -33 34q-2 0 -14 -15q-1 -2 -9 -11l-3.5 -4t-6.5 -7t-42 -3h-20q-9 -1 -21 -1q-28 0 -25 -1q-11 2 -11 13q0 4 23 27q1 1 21 25l31 37q9 9 27 11q-9 -1 30 -1z" />
    <glyph glyph-name="edieresis" unicode="&#xeb;" horiz-adv-x="433" 
d="M420 735q0 -32 -24 -56.5t-55 -24.5q-36 0 -45 2q-21 5 -35.5 24.5t-14.5 35.5q0 40 32 63q28 22 69 22q31 0 52 -17.5t21 -48.5zM233 735q0 -33 -24 -57t-54 -24q-40 0 -52 4q-16 5 -29.5 23t-13.5 35q0 40 31 64q28 21 70 21q31 0 51.5 -17.5t20.5 -48.5zM414 217
q0 -38 -13 -87q-15 -56 -36 -79q-47 -51 -136 -51q-170 0 -204 223q-7 46 -7 86q0 164 89 264q22 25 41 38q35 24 98 24q69 0 98 -27q8 -7 21 -27q47 -71 47 -167q0 -44 -10 -83q-11 -15 -66 -18q-9 -1 -18 -1q-8 0 -36 1t-36 1q-53 0 -61 -12q-1 -3 -1 -8q0 -26 25 -48.5
t51 -22.5q7 0 25 4q26 6 59 35q23 20 42 20q7 0 11 -1q17 -14 17 -64zM243 428q0 1 -1 8q-4 21 -5 35q-6 19 -25 19h-4q-27 0 -35 -41l-3 -15q0 -21 29 -21h13q6 1 13 1q18 0 18 14z" />
    <glyph glyph-name="igrave" unicode="&#xec;" horiz-adv-x="265" 
d="M96 696q0 -6 -4 -9.5t-54 -3.5h-22q-13 -1 -18 0q-4 2 -53 51q-42 42 -42 50q2 6 3 7q4 6 24 6q6 0 29.5 -1t31.5 -1q12 2 46 4q20 1 35 -40l12 -32q12 -32 12 -31zM220 165q0 -39 -2 -99q1 -7 -1 -34q-8 -32 -110 -32q-63 0 -68 26v26q0 49 8.5 146t8.5 146q0 52 -8 105
q-1 10 -3 20q-1 4 -14 33q-9 20 -9 34q0 16 7 26q1 2 10 9q31 24 118 34q25 3 32 3q23 0 30 -16q-3 -55 -3 -129q0 -17 2 -149z" />
    <glyph glyph-name="iacute" unicode="&#xed;" horiz-adv-x="265" 
d="M321 786q0 -9 -22 -30q-10 -9 -34 -33q-11 -12 -39 -38q3 1 -33 1h-36q-29 0 -29 13l22 59q7 19 13 31t19 13q4 0 22 -2q11 0 19 -1h15q6 -1 14 -1q6 0 24.5 1t23.5 1q8 2 19 -6q1 -5 2 -8zM220 165q0 -39 -2 -99q1 -7 -1 -34q-8 -32 -110 -32q-63 0 -68 26v26
q0 49 8.5 146t8.5 146q0 52 -8 105q-1 10 -3 20q-1 4 -14 33q-9 20 -9 34q0 16 7 26q1 2 10 9q31 24 118 34q25 3 32 3q23 0 30 -16q-3 -55 -3 -129q0 -17 2 -149z" />
    <glyph glyph-name="icircumflex" unicode="&#xee;" horiz-adv-x="265" 
d="M220 165q0 -39 -2 -99q1 -7 -1 -34q-8 -32 -110 -32q-63 0 -68 26v26q0 49 8.5 146t8.5 146q0 52 -8 105q-1 10 -3 20q-1 4 -14 33q-9 20 -9 34q0 16 7 26q1 2 10 9q31 24 118 34q25 3 32 3q23 0 30 -16q-3 -55 -3 -129q0 -17 2 -149zM101 797h28q5 0 16.5 1t18.5 1
q17 1 25 -3q14 -6 34 -35q1 -1 17 -21q3 -3 12 -14q26 -30 26 -32q0 -11 -15 -11q-5 0 -25 1t-26 1q-14 0 -25 -1q-13 -1 -19 0q-7 2 -14 9q-27 30 -33 34q-2 0 -14 -15q-1 -2 -9 -11l-3.5 -4t-6.5 -7t-42 -3h-20q-9 -1 -21 -1q-27 0 -24 -1q-11 2 -11 13q0 4 23 27
q3 5 20 25l31 37q9 9 27 11q-9 -1 30 -1z" />
    <glyph glyph-name="idieresis" unicode="&#xef;" horiz-adv-x="265" 
d="M311 735q0 -32 -24 -56.5t-55 -24.5q-36 0 -45 2q-21 5 -35.5 24.5t-14.5 35.5q0 40 32 63q28 22 69 22q31 0 52 -17.5t21 -48.5zM124 735q0 -33 -24 -57t-54 -24q-39 0 -51 4q-16 6 -29.5 23.5t-13.5 34.5q0 40 31 64q28 21 69 21q31 0 51.5 -17.5t20.5 -48.5zM220 165
q0 -39 -2 -99q1 -7 -1 -34q-8 -32 -110 -32q-63 0 -68 26v26q0 49 8.5 146t8.5 146q0 52 -8 105q-1 10 -3 20q-1 4 -14 33q-9 20 -9 34q0 16 7 26q1 2 10 9q31 24 118 34q25 3 32 3q23 0 30 -16q-3 -55 -3 -129q0 -17 2 -149z" />
    <glyph glyph-name="ntilde" unicode="&#xf1;" horiz-adv-x="514" 
d="M491 235q0 -6 -2 -27t-2 -27q0 -60 -18 -107q-24 -63 -73 -72q-6 -1 -19 -1q-56 0 -77 42q-15 29 -15 90q0 10 2 41.5t2 40.5v33v19q-1 11 -1 13q0 6 1 23t1 21q0 44 -24 60q-3 1 -9 1q-28 0 -35 -29q-12 -48 -12 -97q0 -4 5 -108q1 -25 1 -40v-21q-1 -9 -1 -21
q0 -1 1 -4v-5q0 -30 -49 -45q-36 -11 -75 -11q-22 0 -41 11q-12 27 -12 87q0 50 6.5 149t6.5 149q0 76 -16 129l-12 40q0 32 50 49q36 12 77 12q28 0 34 -4t12 -22.5t18 -21.5q23 23 66 38t78 15q70 0 93 -60q10 -26 10 -75q0 -26 -4.5 -76.5t-4.5 -76.5q0 -30 5 -58
q33 -15 33 -54zM384 777v-13q0 -54 -25 -70q-14 -9 -31 -9q-33 0 -87 19q-25 9 -51 15q-4 0 -7 -5q-7 -14 -11 -18.5t-17 -4.5q-7 0 -13 1h-15q-20 0 -23 1q-19 3 -16 42q3 34 4 38q11 35 61 35q14 0 95 -21l31 -8q8 0 13 8q1 2 6 11q4 4 15 4q2 0 12 -1t14 -1q9 0 12 1
q33 0 33 -24z" />
    <glyph glyph-name="ograve" unicode="&#xf2;" horiz-adv-x="448" 
d="M249 696q0 -6 -4 -9.5t-54 -3.5h-22q-14 -2 -19 0q-4 2 -53 51q-42 42 -42 50q2 6 3 7q5 6 24 6q6 0 29.5 -1t31.5 -1q13 2 47 4q20 1 35 -40l12 -32q12 -32 12 -31zM426 332q0 -122 -23 -192q-35 -104 -127 -133q-22 -7 -52 -7q-80 0 -125 45q-9 9 -22 28
q-58 85 -58 219q0 99 31 194q20 62 66 103q50 46 111 46q199 0 199 -303zM281 314q0 36 -17 76q-20 46 -54 46q-44 0 -44 -84q0 -65 39 -97q10 -8 22 -8q10 0 28 6q26 20 26 61z" />
    <glyph glyph-name="oacute" unicode="&#xf3;" horiz-adv-x="448" 
d="M400 786q0 -9 -22 -30q-10 -9 -34 -33q-11 -12 -39 -38q3 1 -33 1h-36q-29 0 -29 13l22 59q7 19 13 31t19 13q4 0 22 -2q11 0 19 -1h15q6 -1 14 -1q6 0 24.5 1t23.5 1q8 2 19 -6q1 -5 2 -8zM426 332q0 -122 -23 -192q-35 -104 -127 -133q-22 -7 -52 -7q-80 0 -125 45
q-9 9 -22 28q-58 85 -58 219q0 99 31 194q20 62 66 103q50 46 111 46q199 0 199 -303zM281 314q0 36 -17 76q-20 46 -54 46q-44 0 -44 -84q0 -65 39 -97q10 -8 22 -8q10 0 28 6q26 20 26 61z" />
    <glyph glyph-name="ocircumflex" unicode="&#xf4;" horiz-adv-x="448" 
d="M426 332q0 -122 -23 -192q-35 -104 -127 -133q-22 -7 -52 -7q-80 0 -125 45q-9 9 -22 28q-58 85 -58 219q0 99 31 194q20 62 66 103q50 46 111 46q199 0 199 -303zM281 314q0 36 -17 76q-20 46 -54 46q-44 0 -44 -84q0 -65 39 -97q10 -8 22 -8q10 0 28 6q26 20 26 61z
M214 797h28q5 0 16.5 1t18.5 1q17 1 25 -3q14 -6 34 -35q1 -1 17 -21q3 -3 12 -14q26 -30 26 -32q0 -11 -15 -11q-5 0 -25 1t-26 1q-14 0 -25 -1q-13 -1 -19 0q-7 2 -14 9q-27 30 -33 34q-2 0 -14 -15q-1 -2 -9 -11l-3.5 -4t-6.5 -7t-42 -3h-20q-9 -1 -21 -1q-28 0 -25 -1
q-11 2 -11 13q0 4 23 27q1 1 21 25l31 37q9 9 27 11q-9 -1 30 -1z" />
    <glyph glyph-name="otilde" unicode="&#xf5;" horiz-adv-x="448" 
d="M426 332q0 -122 -23 -192q-35 -104 -127 -133q-22 -7 -52 -7q-80 0 -125 45q-9 9 -22 28q-58 85 -58 219q0 99 31 194q20 62 66 103q50 46 111 46q199 0 199 -303zM281 314q0 36 -17 76q-20 46 -54 46q-44 0 -44 -84q0 -65 39 -97q10 -8 22 -8q10 0 28 6q26 20 26 61z
M384 777v-13q0 -54 -25 -70q-14 -9 -31 -9q-33 0 -87 19q-25 9 -51 15q-4 0 -7 -5q-7 -14 -11 -18.5t-17 -4.5q-7 0 -13 1h-15q-20 0 -23 1q-19 3 -16 42q3 34 4 38q11 35 61 35q14 0 95 -21l31 -8q8 0 13 8q1 2 6 11q4 4 15 4q2 0 12 -1t14 -1q9 0 12 1q33 0 33 -24z" />
    <glyph glyph-name="odieresis" unicode="&#xf6;" horiz-adv-x="448" 
d="M412 735q0 -32 -24 -56.5t-55 -24.5q-39 0 -51 4q-16 5 -29.5 23t-13.5 35q0 42 33 65q28 20 67 20q31 0 52 -17.5t21 -48.5zM226 735q0 -32 -24 -56.5t-55 -24.5q-36 0 -45 2q-21 5 -35.5 24.5t-14.5 35.5q0 40 32 63q28 22 69 22q31 0 52 -17.5t21 -48.5zM426 332
q0 -122 -23 -192q-35 -104 -127 -133q-22 -7 -52 -7q-80 0 -125 45q-9 9 -22 28q-58 85 -58 219q0 99 31 194q20 62 66 103q50 46 111 46q199 0 199 -303zM281 314q0 36 -17 76q-20 46 -54 46q-44 0 -44 -84q0 -65 39 -97q10 -8 22 -8q10 0 28 6q26 20 26 61z" />
    <glyph glyph-name="oslash" unicode="&#xf8;" horiz-adv-x="448" 
d="M426 332q0 -122 -23 -192q-35 -104 -127 -133q-22 -7 -52 -7q-74 0 -121 41q-26 -50 -32 -50q-35 8 -35 15q6 14 36 75q-53 85 -53 211q0 99 31 194q20 62 66 103q50 46 111 46q68 0 107 -30q20 39 24 39t10.5 -4t8.5 -4q15 -2 15 -8q2 -3 0 -8l2 3l-3 -6q0 1 1 3
q-9 -15 -25 -46q59 -77 59 -242zM242 423q-13 13 -32 13q-44 0 -44 -84q0 -33 12 -59zM281 314q0 28 -11 61q-6 -12 -61 -123q8 -5 18 -5t28 6q26 20 26 61z" />
    <glyph glyph-name="ugrave" unicode="&#xf9;" horiz-adv-x="484" 
d="M272 696q0 -6 -4 -9.5t-54 -3.5h-22q-14 -2 -19 0q-4 2 -53 51q-42 42 -42 50q2 6 3 7q5 6 24 6q6 0 29.5 -1t31.5 -1q13 2 47 4q20 1 35 -40l12 -32q12 -32 12 -31zM463 196q0 -112 -40 -167q-20 -27 -66 -27q-41 0 -55.5 22.5t-24.5 22.5q-5 0 -8 -1q-46 -46 -114 -46
q-19 0 -31 3q-91 23 -91 218q0 34 4.5 100.5t4.5 100.5q0 68 -18 134q-2 7 -2 13q0 22 20 33q58 32 123 32q11 0 31 -2l14 -16q0 -43 -6 -128.5t-6 -128.5q0 -116 36 -116q22 0 31 20q4 8 8 39q6 43 6 95q0 57 -6 104q-1 11 -12 35t-11 39q0 11 3 19q2 5 12 12q41 29 123 29
q47 0 51 -19q2 -9 2 -56q0 -39 -6.5 -115.5t-6.5 -115.5q0 -38 30 -62q5 -42 5 -71z" />
    <glyph glyph-name="uacute" unicode="&#xfa;" horiz-adv-x="484" 
d="M400 786q0 -9 -22 -30q-10 -9 -34 -33q-11 -12 -39 -38q3 1 -33 1h-36q-29 0 -29 13l22 59q7 19 13 31t19 13q4 0 22 -2q11 0 19 -1h15q6 -1 14 -1q6 0 24.5 1t23.5 1q8 2 19 -6q1 -5 2 -8zM463 196q0 -112 -40 -167q-20 -27 -66 -27q-41 0 -55.5 22.5t-24.5 22.5
q-5 0 -8 -1q-46 -46 -114 -46q-19 0 -31 3q-91 23 -91 218q0 34 4.5 100.5t4.5 100.5q0 68 -18 134q-2 7 -2 13q0 22 20 33q58 32 123 32q11 0 31 -2l14 -16q0 -43 -6 -128.5t-6 -128.5q0 -116 36 -116q22 0 31 20q4 8 8 39q6 43 6 95q0 57 -6 104q-1 11 -12 35t-11 39
q0 11 3 19q2 5 12 12q41 29 123 29q47 0 51 -19q2 -9 2 -56q0 -39 -6.5 -115.5t-6.5 -115.5q0 -38 30 -62q5 -42 5 -71z" />
    <glyph glyph-name="ucircumflex" unicode="&#xfb;" horiz-adv-x="484" 
d="M463 196q0 -112 -40 -167q-20 -27 -66 -27q-41 0 -55.5 22.5t-24.5 22.5q-5 0 -8 -1q-46 -46 -114 -46q-19 0 -31 3q-91 23 -91 218q0 34 4.5 100.5t4.5 100.5q0 68 -18 134q-2 7 -2 13q0 22 20 33q58 32 123 32q11 0 31 -2l14 -16q0 -43 -6 -128.5t-6 -128.5
q0 -116 36 -116q22 0 31 20q4 8 8 39q6 43 6 95q0 57 -6 104q-1 11 -12 35t-11 39q0 11 3 19q2 5 12 12q41 29 123 29q47 0 51 -19q2 -9 2 -56q0 -39 -6.5 -115.5t-6.5 -115.5q0 -38 30 -62q5 -42 5 -71zM214 797h28q5 0 16.5 1t18.5 1q17 1 25 -3q14 -6 34 -35q1 -1 17 -21
q3 -3 12 -14q26 -30 26 -32q0 -11 -15 -11q-5 0 -25 1t-26 1q-14 0 -25 -1q-13 -1 -19 0q-7 2 -14 9q-27 30 -33 34q-2 0 -14 -15q-1 -2 -9 -11l-3.5 -4t-6.5 -7t-42 -3h-20q-9 -1 -21 -1q-28 0 -25 -1q-11 2 -11 13q0 4 23 27q1 1 21 25l31 37q9 9 27 11q-9 -1 30 -1z" />
    <glyph glyph-name="udieresis" unicode="&#xfc;" horiz-adv-x="484" 
d="M420 735q0 -32 -24 -56.5t-55 -24.5q-36 0 -45 2q-21 5 -35.5 24.5t-14.5 35.5q0 40 32 63q28 22 69 22q31 0 52 -17.5t21 -48.5zM233 735q0 -33 -24 -57t-54 -24q-40 0 -52 4q-16 5 -29.5 23t-13.5 35q0 40 31 64q28 21 70 21q31 0 51.5 -17.5t20.5 -48.5zM463 196
q0 -112 -40 -167q-20 -27 -66 -27q-41 0 -55.5 22.5t-24.5 22.5q-5 0 -8 -1q-46 -46 -114 -46q-19 0 -31 3q-91 23 -91 218q0 34 4.5 100.5t4.5 100.5q0 68 -18 134q-2 7 -2 13q0 22 20 33q58 32 123 32q11 0 31 -2l14 -16q0 -43 -6 -128.5t-6 -128.5q0 -116 36 -116
q22 0 31 20q4 8 8 39q6 43 6 95q0 57 -6 104q-1 11 -12 35t-11 39q0 11 3 19q2 5 12 12q41 29 123 29q47 0 51 -19q2 -9 2 -56q0 -39 -6.5 -115.5t-6.5 -115.5q0 -38 30 -62q5 -42 5 -71z" />
    <glyph glyph-name="yacute" unicode="&#xfd;" horiz-adv-x="487" 
d="M400 786q0 -9 -22 -30q-10 -9 -34 -33q-11 -12 -39 -38q3 1 -33 1h-36q-29 0 -29 13l22 59q7 19 13 31t19 13q4 0 22 -2q11 0 19 -1h15q6 -1 14 -1q6 0 24.5 1t23.5 1q8 2 19 -6q1 -5 2 -8zM449 576q-8 -70 -8 -150q0 -45 3 -135.5t3 -135.5q0 -104 -10 -168
q-14 -87 -88 -138q-68 -47 -159 -47t-136 44q-22 22 -22 72q0 5 4 15q17 44 83 67q6 2 19 5q22 2 48 2q24 0 39 -7q20 -32 31 -32q17 0 33 27q0 5 1 14.5t1 14.5q0 16 -7 26q-4 3 -11 3q-4 0 -14.5 -4t-11.5 -4q-31 -27 -81 -27q-44 0 -77 28q-51 44 -51 160v80q0 24 2.5 72
t2.5 72q0 75 -10 96q-2 4 -11 19q-7 10 -7 21q0 31 60 52q50 17 88 17q11 0 25 -2q3 -1 9 -6q14 -17 14 -47q0 -11 -5 -58q-6 -57 -6 -104q0 -78 13 -142q4 -33 29 -33q10 0 18 6q25 19 25 150q0 86 -21 137q-10 24 -10 37q0 29 57 47q45 14 82 14q30 0 38 -3q12 -5 15 -24
q1 -4 3 -31z" />
    <glyph glyph-name="ydieresis" unicode="&#xff;" horiz-adv-x="487" 
d="M420 735q0 -32 -24 -56.5t-55 -24.5q-36 0 -45 2q-21 5 -35.5 24.5t-14.5 35.5q0 40 32 63q28 22 69 22q31 0 52 -17.5t21 -48.5zM233 735q0 -33 -24 -57t-54 -24q-40 0 -52 4q-16 5 -29.5 23t-13.5 35q0 40 31 64q28 21 70 21q31 0 51.5 -17.5t20.5 -48.5zM449 576
q-8 -70 -8 -150q0 -45 3 -135.5t3 -135.5q0 -104 -10 -168q-14 -87 -88 -138q-68 -47 -159 -47t-136 44q-22 22 -22 72q0 5 4 15q17 44 83 67q6 2 19 5q22 2 48 2q24 0 39 -7q20 -32 31 -32q17 0 33 27q0 5 1 14.5t1 14.5q0 16 -7 26q-4 3 -11 3q-4 0 -14.5 -4t-11.5 -4
q-31 -27 -81 -27q-44 0 -77 28q-51 44 -51 160v80q0 24 2.5 72t2.5 72q0 75 -10 96q-2 4 -11 19q-7 10 -7 21q0 31 60 52q50 17 88 17q11 0 25 -2q3 -1 9 -6q14 -17 14 -47q0 -11 -5 -58q-6 -57 -6 -104q0 -78 13 -142q4 -33 29 -33q10 0 18 6q25 19 25 150q0 86 -21 137
q-10 24 -10 37q0 29 57 47q45 14 82 14q30 0 38 -3q12 -5 15 -24q1 -4 3 -31z" />
    <glyph glyph-name="dotlessi" unicode="&#x131;" horiz-adv-x="265" 
d="M220 165q0 -39 -2 -99q1 -7 -1 -34q-8 -32 -110 -32q-63 0 -68 26v26q0 49 8.5 146t8.5 146q0 52 -8 105q-1 10 -3 20q-1 4 -14 33q-9 20 -9 34q0 16 7 26q1 2 10 9q31 24 118 34q25 3 32 3q23 0 30 -16q-3 -55 -3 -129q0 -17 2 -149z" />
    <glyph glyph-name="Lslash" unicode="&#x141;" horiz-adv-x="485" 
d="M299 534q8 2 21 6q10 10 18 10q13 0 38.5 -49.5t25.5 -66.5l-1 -7q0 -7 -47.5 -29t-62.5 -25v-51q0 -59 36 -59q17 0 49.5 19t48.5 19q20 0 35 -25q6 -67 6 -112q0 -103 -16 -135q-14 -28 -260 -28q-51 0 -70 8q-32 13 -32 57q0 43 2 110l3 109q-18 -7 -32 -15
q-11 0 -36 52t-25 68q0 14 8 17q29 15 88 36q0 2 2 77q1 38 1 78q0 23 -13.5 72t-13.5 71q0 33 64 49q44 11 95 11q30 0 53 -4l15 -11q6 -11 11 -24q0 -58 -11 -228z" />
    <glyph glyph-name="lslash" unicode="&#x142;" horiz-adv-x="417" 
d="M124 455v52q0 117 -6 149q-2 12 -14 36q-10 21 -10 36q0 39 66 58q48 14 98 14q20 0 29 -4l6 -12q0 -54 -3 -254q11 3 30.5 11.5t16.5 8.5q13 0 39 -50t26 -66q0 -15 -48 -36q-22 -8 -65 -26q0 -89 1 -160l2 -159q0 -52 -129 -52q-36 0 -48 17q-8 14 -8 51q0 50 10 226
q-27 -13 -56 -25q-11 0 -36 52t-25 68q0 14 8 17q73 26 116 48z" />
    <glyph glyph-name="OE" unicode="&#x152;" horiz-adv-x="737" 
d="M708 641q0 -75 -48 -75q-18 0 -58.5 21t-65.5 21q-39 0 -44 1q-37 -9 -37 -48q0 -18 7 -45q8 -6 16 -6q15 0 56 17.5t59 17.5q27 0 37 -18q6 -11 6 -43q0 -16 -2 -48.5t-2 -48.5v-15q-2 -15 -12 -32q-12 -20 -26 -20q-29 0 -72 22l-45 23q-10 0 -16 -12q-2 -38 -4 -56
q3 -53 49 -53q32 0 94.5 26.5t71.5 26.5q10 0 19.5 -14t12.5 -29.5t3 -28.5q0 -8 -2 -35.5t-2 -34.5q0 -100 -26 -141q-25 -12 -55 -12h-8q-4 1 -9 1q-94 -2 -187 -2q-31 0 -51 5q-14 6 -19 10q-15 -7 -26 -10q-21 -6 -71 -6q-66 0 -106 29q-98 70 -116 252q-5 51 -5 69
q0 170 58 308q60 142 203 142q40 0 73 -11q15 4 57 7q12 1 26 2l50 2q7 0 26 -1.5t22 -1.5q50 0 136 -8q22 -8 26 -72q0 -6 3 -21q4 -23 4 -55zM329 383v64q0 114 -63 114q-18 0 -33 -19q-20 -26 -20 -141q0 -54 7 -79q13 -48 52 -48q54 0 56 66z" />
    <glyph glyph-name="oe" unicode="&#x153;" horiz-adv-x="691" 
d="M663 217q0 -42 -12 -87q-14 -52 -37 -78q-47 -52 -136 -52q-78 0 -131 50q-50 -50 -123 -50q-80 0 -125 45q-9 9 -22 28q-58 85 -58 219q0 99 31 194q20 62 66 103q50 46 111 46q87 0 135 -55q12 12 35 32q34 24 98 24q67 0 98 -27q8 -7 21 -27q48 -74 48 -167
q0 -41 -11 -83q-7 -10 -30 -15l-36 -3q-5 -1 -18 -1q-3 0 -15 1h-21h-36q-53 0 -61 -11v-8q0 -26 24.5 -49t50.5 -23q1 0 25 5q6 1 20 4q10 4 39 30q24 21 42 21q8 0 11 -1q17 -14 17 -65zM493 429q0 2 -2 8q-1 11 -5 35q-6 19 -25 19h-4q-27 0 -35 -41q-1 -7 -3 -15
q0 -3 1 -4v-1q2 -17 28 -17q3 0 13.5 1t12.5 1q19 0 19 14zM281 314q0 40 -16 76q-20 46 -55 46q-44 0 -44 -84q0 -65 39 -97q10 -8 22 -8q10 0 28 6q26 20 26 61z" />
    <glyph glyph-name="Scaron" unicode="&#x160;" horiz-adv-x="502" 
d="M479 251q0 -55 -20 -108q-22 -59 -61 -91q-63 -52 -222 -52q3 0 -0.5 0.5t-11.5 1.5q-24 2 -71 5q-40 3 -57 36q-3 35 -8 75q-6 45 -6 74q0 51 20 96q14 12 34 12q13 0 62 -36.5t80 -36.5q8 0 11 1q15 9 15 34q0 30 -54 76q-81 69 -101 94q-54 67 -54 145q0 73 34 120
q55 75 157 97q28 6 36 6q5 0 22.5 -1t21.5 -1q86 0 113 -6q40 -27 40 -115q0 -46 -8 -82q-9 -40 -37 -40q-23 0 -67 29t-64 29q-15 0 -29 -8q-4 -8 -4 -18q0 -27 59 -79q93 -81 111 -104q59 -74 59 -153zM313 863h-28q-5 0 -15 -1q-13 -1 -20 -1q-17 -1 -25 3q-14 6 -34 35
q-1 1 -17 21q-3 3 -12 14q-26 30 -26 32q0 11 15 11q5 0 25 -1t26 -1q14 0 25 1q13 1 19 0q7 -2 14 -9q27 -30 33 -34q4 0 14 15q3 3 9 11l4 4.5t7.5 7t40.5 2.5q12 0 21 1h20q28 0 25 1q11 -2 11 -13q0 -4 -23 -27q-1 -1 -21 -25l-31 -37q-9 -9 -27 -11q9 1 -30 1z" />
    <glyph glyph-name="scaron" unicode="&#x161;" horiz-adv-x="467" 
d="M445 201q0 -56 -39 -109t-92 -75q-41 -17 -99 -17q-77 0 -122 28q-72 45 -72 125q0 40 20.5 73.5t55 48t59.5 14.5q21 0 39 -7q25 -10 25 -27q0 -4 -6.5 -21t-6.5 -23q0 -20 24 -20q12 0 22 7.5t10 17.5q0 35 -34 63q-21 17 -70 41t-69 42q-47 40 -47 107q0 117 153 155
q45 11 67 11q71 0 119 -27q60 -33 60 -98q0 -41 -38 -63q-32 -19 -76 -19q-18 0 -35 7q-24 8 -24 22q0 4 5 15.5t5 14.5q0 13 -21 20q-27 -1 -27 -26q0 -28 47 -62q1 -1 41 -26q98 -62 118 -125q2 -9 5 -33.5t3 -33.5zM259 685h-28q-5 0 -15 -1q-13 -1 -20 -1q-17 -1 -25 3
q-14 6 -34 35q-1 1 -17 21q-3 3 -12 14q-26 30 -26 32q0 11 15 11q5 0 25 -1t26 -1q14 0 25 1q13 1 19 0q7 -2 14 -9q27 -30 33 -34q4 0 14 15q3 3 9 11l4 4.5t7.5 7t40.5 2.5q12 0 21 1h20q28 0 25 1q11 -2 11 -13q0 -4 -23 -27q-1 -1 -21 -25l-31 -37q-9 -9 -27 -11
q9 1 -30 1z" />
    <glyph glyph-name="Ydieresis" unicode="&#x178;" horiz-adv-x="591" 
d="M487 942q0 -32 -24 -56.5t-55 -24.5q-39 0 -51 4q-16 5 -29.5 22.5t-13.5 35.5q0 42 33 65q28 20 67 20q31 0 52 -17.5t21 -48.5zM301 942q0 -32 -24 -56.5t-55 -24.5q-35 0 -45 2q-21 5 -35.5 23.5t-14.5 36.5q0 40 32 63q28 22 69 22q31 0 52 -17.5t21 -48.5zM564 758
q0 -23 -26 -93q-2 -6 -8 -23q-1 -3 -39 -85t-83 -178q-24 -51 -24 -120q0 -29 5 -87t5 -87q0 -24 -1 -31q-5 -31 -36 -42q-17 -6 -59 -6q-14 0 -42 -2.5t-42 -2.5q-38 0 -51 22q-7 38 -7 47q0 7 7 52q5 33 5 62v70q0 91 -21 153q-9 24 -30 85q-15 47 -31 95q-19 55 -42 90
q-17 26 -17 43q0 11 8 22q12 17 89 39q66 19 99 19q28 0 33 -20q13 -12 31 -119q17 -99 30 -99q14 0 25 49q10 43 10 63q0 26 -8 50q3 49 118 63q34 4 53 4q49 0 49 -33z" />
    <glyph glyph-name="Zcaron" unicode="&#x17d;" horiz-adv-x="488" 
d="M466 254q0 -17 -3.5 -50.5t-3.5 -50.5q0 -106 -38 -136q-31 -9 -131 -15q-14 -1 -23 -1q-14 0 -25 1h-25q-14 0 -42.5 -1t-42.5 -1q-56 0 -76 8q-34 15 -34 62q0 7 1.5 29t1.5 28v9q-1 3 -1 8q0 78 30 121q51 74 133 175q19 22 66 82q10 13 10 27q0 24 -21 24
q-9 0 -30 -4q-39 -8 -87 -39q-26 -26 -50 -26q-13 0 -23 7q-17 29 -17 77q0 6 1.5 28.5t1.5 29.5q0 72 2 84q8 51 50 59q6 1 52 5q72 6 163 6h67q2 0 11 -1.5t12 -1.5q58 0 68 -30v-95q0 -99 -24 -149q-16 -33 -91 -126q-6 -7 -24 -27q-6 -9 -43 -75v-2q0 -28 36 -28
q29 0 70.5 26.5t51.5 26.5q27 0 27 -64zM272 862h-28q-5 0 -15 -1q-13 -1 -20 -1q-17 -1 -25 3q-14 6 -34 35q-1 1 -17 21q-3 3 -12 14q-26 30 -26 32q0 11 15 11q5 0 25 -1t26 -1q14 0 25 1q13 1 19 0q7 -2 14 -9q27 -30 33 -34q4 0 14 15q3 3 9 11l4 4.5t7.5 7t40.5 2.5
q12 0 21 1h20q28 0 25 1q11 -2 11 -13q0 -4 -23 -27q-1 -1 -21 -25l-31 -37q-9 -9 -27 -11q9 1 -30 1z" />
    <glyph glyph-name="zcaron" unicode="&#x17e;" horiz-adv-x="400" 
d="M382 559q0 -78 -39 -139q-6 -9 -65 -77q-51 -58 -51 -75q0 -21 32 -21q17 0 46 17t42 17q31 0 31 -55l-4 -108q-2 -33 -3 -52t-1 -15q0 -41 -24 -45q-35 -6 -143 -6q-39 0 -115 4q-37 2 -44 5q-19 7 -24 36q-1 6 -1 55q0 105 35 160q26 41 68 82q27 26 57 67q2 6 2 10
q0 20 -20 20q-14 0 -51 -18t-54 -18q-31 0 -31 46q0 111 7 132q19 54 103 54h128q79 0 97 -13q22 -16 22 -63zM229 686h-28q-5 0 -15 -1q-13 -1 -20 -1q-17 -1 -25 3q-14 6 -34 35q-1 1 -17 21q-3 3 -12 14q-26 30 -26 32q0 11 15 11q5 0 25 -1t26 -1q14 0 25 1q13 1 19 0
q7 -2 14 -9q27 -30 33 -34q4 0 14 15q3 3 9 11l4 4.5t7.5 7t40.5 2.5q12 0 21 1h20q28 0 25 1q11 -2 11 -13q0 -4 -23 -27q-1 -1 -21 -25l-31 -37q-9 -9 -27 -11q9 1 -30 1z" />
    <glyph glyph-name="longs" unicode="&#x17f;" horiz-adv-x="406" 
d="M387 691q0 -65 -55 -88q-29 -12 -52 -12q-52 0 -52 27q3 6 3 15q0 7 -1 11q-4 9 -14 9q-4 0 -7 -1q-12 -10 -12 -30q0 -5 2 -19t2 -17q9 -12 26 -149v-3q0 -12 11 -92q4 -27 4 -31q0 -46 4 -137.5t4 -137.5q-17 -35 -72 -35h-35h-21q-12 -1 -15 -1q-12 0 -22 10
q-13 29 -13 74q0 67 1 128l2 129q-6 10 -31 18q-21 7 -23 26q-3 36 -3 85q0 56 10 75q3 7 18 15t16 9q8 231 192 231q56 0 92 -26q41 -29 41 -83z" />
    <glyph glyph-name="florin" unicode="&#x192;" horiz-adv-x="520" 
d="M77 289l4 126h106l19 106q34 189 179 189q37 0 111 -23l-16 -114q-22 19 -48 19q-44 0 -56 -80l-15 -97h87l-4 -126h-104l-50 -304q-16 -98 -67 -152t-124 -54q-43 0 -108 30l14 113q30 -21 52 -21q25 0 39 24.5t25 88.5l45 275h-89z" />
    <glyph glyph-name="circumflex" unicode="&#x2c6;" 
d="M214 797h28q5 0 16.5 1t18.5 1q17 1 25 -3q14 -6 34 -35q1 -1 17 -21q3 -3 12 -14q26 -30 26 -32q0 -11 -15 -11q-5 0 -25 1t-26 1q-14 0 -25 -1q-13 -1 -19 0q-7 2 -14 9q-27 30 -33 34q-2 0 -14 -15q-1 -2 -9 -11l-3.5 -4t-6.5 -7t-42 -3h-20q-9 -1 -21 -1
q-28 0 -25 -1q-11 2 -11 13q0 4 23 27q1 1 21 25l31 37q9 9 27 11q-9 -1 30 -1z" />
    <glyph glyph-name="tilde" unicode="&#x2dc;" 
d="M384 777v-13q0 -54 -25 -70q-14 -9 -31 -9q-33 0 -87 19q-25 9 -51 15q-4 0 -7 -5q-7 -14 -11 -18.5t-17 -4.5q-7 0 -13 1h-15q-20 0 -23 1q-19 3 -16 42q3 34 4 38q11 35 61 35q14 0 95 -21l31 -8q8 0 13 8q1 2 6 11q4 4 15 4q2 0 12 -1t14 -1q9 0 12 1q33 0 33 -24z
" />
    <glyph glyph-name="endash" unicode="&#x2013;" horiz-adv-x="565" 
d="M532 392q17 0 14 -45q-1 -16 -1 -24q0 -6 1.5 -30.5t1.5 -31.5q0 -30 -29 -30q-20 0 -61 2.5t-61 2.5q-8 0 -35 -2t-34 -2h-85q-6 0 -27 1.5t-27 1.5q-8 0 -35 -1.5t-34 -1.5h-77q-26 0 -26 37q0 6 1.5 24t1.5 21q0 6 -1.5 26.5t-1.5 26.5q0 28 37 28q21 0 63.5 -2.5
t63.5 -2.5q8 0 33 1.5t32 1.5h92h54q30 -1 38 -1h102z" />
    <glyph glyph-name="emdash" unicode="&#x2014;" horiz-adv-x="565" 
d="M355 399q4 0 18 2t17 2q46 2 95 2q41 0 51 -2q30 -6 30 -29q0 -14 -1.5 -42t-1.5 -42q0 -20 -12 -26q-34 -3 -81 -7q-34 -3 -51 -3q-18 0 -53.5 1t-53.5 1h-79q-14 0 -120 -9q-59 -6 -82 10q-31 20 -31 87q0 43 27 57q20 11 66 8q83 -6 80 -6q9 0 91 -2z" />
    <glyph glyph-name="quoteleft" unicode="&#x2018;" horiz-adv-x="336" 
d="M300 628q0 -45 -25 -73q-47 -52 -123 -52q-29 0 -57 15q-54 29 -54 99q0 39 20 82t49 70q13 12 38 22t42 10q18 0 18 -24q0 -4 -2 -19.5t-2 -20.5q0 -26 20 -26q25 0 46 -15.5t27 -39.5q3 -12 3 -28z" />
    <glyph glyph-name="quoteright" unicode="&#x2019;" horiz-adv-x="345" 
d="M298 687q0 -38 -20 -82t-48 -69q-23 -21 -66 -31q-8 -2 -12 -2q-21 0 -21 34q0 3 2.5 15t2.5 16q0 20 -20 26q-23 -2 -45 14.5t-28 40.5q-3 11 -3 29q0 46 25 72q50 52 123 52q30 0 58.5 -15.5t40 -40t11.5 -59.5z" />
    <glyph glyph-name="quotesinglbase" unicode="&#x201a;" horiz-adv-x="345" 
d="M298 111q0 -38 -19.5 -81t-48.5 -69q-23 -21 -66 -31q-8 -2 -12 -2q-21 0 -21 34q0 3 2.5 15t2.5 16q0 19 -20 25q-23 -2 -45 14.5t-28 40.5q-3 11 -3 29q0 46 25 72q50 52 123 52q30 0 58.5 -15.5t40 -40t11.5 -59.5z" />
    <glyph glyph-name="quotedblleft" unicode="&#x201c;" horiz-adv-x="630" 
d="M594 628q0 -45 -25 -73q-47 -52 -123 -52q-29 0 -57 15q-54 29 -54 99q0 39 20 82t49 70q13 12 38 22t42 10q18 0 18 -24q0 -4 -2 -19.5t-2 -20.5q0 -26 20 -26q25 0 46 -15.5t27 -39.5q3 -12 3 -28zM300 628q0 -45 -25 -73q-47 -52 -123 -52q-29 0 -57 15q-54 29 -54 99
q0 39 20 82t49 70q13 12 38 22t42 10q18 0 18 -24q0 -4 -2 -19.5t-2 -20.5q0 -26 20 -26q25 0 46 -15.5t27 -39.5q3 -12 3 -28z" />
    <glyph glyph-name="quotedblright" unicode="&#x201d;" horiz-adv-x="630" 
d="M592 687q0 -38 -20 -82t-48 -69q-23 -21 -66 -31q-8 -2 -12 -2q-21 0 -21 34q0 3 2.5 15t2.5 16q0 20 -20 26q-23 -2 -45 14.5t-28 40.5q-3 11 -3 29q0 46 25 72q50 52 123 52q30 0 58.5 -15.5t40 -40t11.5 -59.5zM298 687q0 -38 -20 -82t-48 -69q-23 -21 -66 -31
q-8 -2 -12 -2q-21 0 -21 34q0 3 2.5 15t2.5 16q0 20 -20 26q-23 -2 -45 14.5t-28 40.5q-3 11 -3 29q0 46 25 72q50 52 123 52q30 0 58.5 -15.5t40 -40t11.5 -59.5z" />
    <glyph glyph-name="quotedblbase" unicode="&#x201e;" horiz-adv-x="630" 
d="M592 111q0 -38 -19.5 -81t-48.5 -69q-23 -21 -66 -31q-8 -2 -12 -2q-21 0 -21 34q0 3 2.5 15t2.5 16q0 19 -20 25q-23 -2 -45 14.5t-28 40.5q-3 11 -3 29q0 46 25 72q50 52 123 52q30 0 58.5 -15.5t40 -40t11.5 -59.5zM298 111q0 -38 -19.5 -81t-48.5 -69
q-23 -21 -66 -31q-8 -2 -12 -2q-21 0 -21 34q0 3 2.5 15t2.5 16q0 19 -20 25q-23 -2 -45 14.5t-28 40.5q-3 11 -3 29q0 46 25 72q50 52 123 52q30 0 58.5 -15.5t40 -40t11.5 -59.5z" />
    <glyph glyph-name="dagger" unicode="&#x2020;" horiz-adv-x="400" 
d="M389 545q0 -5 1.5 -23.5t1.5 -24.5q0 -18 -18 -18q-6 0 -27.5 2.5t-27.5 2.5q-34 0 -41 -14q-5 -9 -5 -45q0 -35 1 -105t1 -105q0 -6 2.5 -23t2.5 -21q0 -6 -2.5 -23.5t-2.5 -21.5t1.5 -20.5t1.5 -21.5v-54q-4 -30 -31 -30h-99q-25 0 -25 55q0 7 3 29t3 28v41
q-1 34 -1 59v100q0 6 -2.5 30t-2.5 32q0 16 2.5 48.5t2.5 48.5q0 8 -23 10q-17 1 -44 0t-32 -2q-20 0 -20 32q0 5 1 19t1 15q0 4 -1.5 17.5t-1.5 17.5q0 25 43 25q7 0 26.5 -1.5t22.5 -1.5q28 0 28 22q0 25 -2 75t-2 75q0 23 21 26q-4 -1 36 -1q7 0 30.5 1t29.5 1
q23 0 29.5 -8t6.5 -31q0 -6 -2 -28t-2 -29q0 -97 6.5 -101.5t41.5 -4.5q5 0 22.5 3t21.5 3q26 0 26 -28q0 -3 -1 -15.5t-1 -16.5z" />
    <glyph glyph-name="bullet" unicode="&#x2022;" horiz-adv-x="376" 
d="M364 398q0 -75 -48.5 -125t-123.5 -50q-76 0 -127 50.5t-51 125.5q0 73 52 124t125 51q75 0 124 -50.5t49 -125.5z" />
    <glyph glyph-name="ellipsis" unicode="&#x2026;" horiz-adv-x="1071" 
d="M1033 113q0 -29 -6 -45q-14 -36 -59 -53q-37 -14 -81 -14q-52 0 -86 20q-41 24 -41 72q0 44 25 70q44 46 121 46q53 0 87 -21q40 -25 40 -75zM676 113q0 -29 -6 -45q-14 -36 -59 -53q-37 -14 -81 -14q-52 0 -86 20q-41 24 -41 72q0 44 25 70q44 46 121 46q53 0 87 -21
q40 -25 40 -75zM319 113q0 -29 -6 -45q-14 -36 -59 -53q-37 -14 -81 -14q-52 0 -86 20q-41 24 -41 72q0 44 25 70q44 46 121 46q53 0 87 -21q40 -25 40 -75z" />
    <glyph glyph-name="fraction" unicode="&#x2044;" horiz-adv-x="141" 
d="M24 183l-17 -34q-16 -40 -51 -120q-6 -12 -13 -23q-8 -7 -39 -6q-23 1 -27 1q-30 0 -25 -1q-9 9 -9 10q0 -2 62 135q22 52 81 186q11 19 63 146q7 17 38 80q8 17 50 110q15 37 31 74q27 59 46 59q22 0 66 -3q17 0 17 -13q-3 -8 -9 -22q-4 -6 -29 -55q-3 -4 -16 -35
q-24 -56 -89 -203l-9 -18l-16 -30l-22 -55q-4 -9 -13.5 -31.5t-50.5 -107.5q-5 -13 -19 -44z" />
    <glyph glyph-name="trademark" unicode="&#x2122;" horiz-adv-x="1000" 
d="M152 385v326h-117v90h344v-90h-117v-326h-110zM855 385v274h-2l-89 -274h-88l-89 274h-2v-274h-110v416h156l89 -242l89 242h156v-416h-110z" />
    <glyph glyph-name="minus" unicode="&#xad;" horiz-adv-x="600" 
d="M47 190v126h506v-126h-506z" />
    <glyph glyph-name="minus" unicode="&#x2212;" horiz-adv-x="600" 
d="M47 190v126h506v-126h-506z" />
    <glyph glyph-name="periodcentered" unicode="&#xb7;" horiz-adv-x="216" 
d="M170 436q0 -14 -17 -64q-6 -17 -10 -26q-7 -16 -18 -19q-3 -1 -21 -1q-3 0 -15.5 1t-16.5 1q-8 0 -12 -1q-24 9 -24 19q0 63 30 100q5 5 12 5q5 0 8 -1h8q6 0 9 1q31 -2 60 -6q7 -1 7 -9z" />
    <glyph glyph-name="periodcentered" unicode="&#x2219;" horiz-adv-x="216" 
d="M170 436q0 -14 -17 -64q-6 -17 -10 -26q-7 -16 -18 -19q-3 -1 -21 -1q-3 0 -15.5 1t-16.5 1q-8 0 -12 -1q-24 9 -24 19q0 63 30 100q5 5 12 5q5 0 8 -1h8q6 0 9 1q31 -2 60 -6q7 -1 7 -9z" />
    <glyph glyph-name="fi" unicode="&#xf001;" horiz-adv-x="630" 
d="M619 719q0 -42 -33.5 -71t-76.5 -29q-53 0 -72 5q-32 8 -52 45q-4 -25 -12 -36q-12 -18 -40 -30t-53 -12q-52 0 -52 27q3 6 3 15q0 7 -1 11q-6 9 -14 9q-4 0 -7 -1q-12 -12 -12 -30q0 -4 2 -18.5t2 -17.5q14 -18 45 -18q4 0 19 1t20 1q44 0 50 -49v-59q0 -56 -9 -89
q-9 -8 -43 -11q-30 -3 -39 -17q-2 -6 -2 -34q0 -46 4 -137.5t4 -137.5q-17 -35 -72 -35h-35h-21q-12 -1 -15 -1q-12 0 -22 10q-13 29 -13 74q0 67 1 128l2 129q-4 8 -31 17q-22 9 -23 27q-3 60 -3 85q0 53 10 75q3 6 18 14.5t16 9.5q9 231 192 231q106 0 128 -75
q12 37 55 58q38 18 81 18q41 0 69 -20q32 -23 32 -62zM586 165q0 -60 -1 -98q0 -8 -2 -35q-8 -32 -110 -32q-63 0 -68 26v27q0 49 9 145.5t9 145.5q0 15 -9 105q-1 9 -2 20q-1 4 -15 33q-9 19 -9 34q0 16 7 26q1 1 11 9q32 24 117 34q25 3 32 3q24 0 30 -16q-2 -74 -2 -129
q0 -83 1 -149z" />
    <glyph glyph-name="fl" unicode="&#xf002;" horiz-adv-x="630" 
d="M387 691q0 -64 -55 -88q-28 -12 -52 -12q-52 0 -52 27q3 6 3 15q0 7 -1 11q-6 9 -14 9q-4 0 -7 -1q-12 -12 -12 -30q0 -4 2 -18.5t2 -17.5q14 -18 45 -18q4 0 19 1t20 1q44 0 50 -49v-59q0 -56 -9 -89q-9 -8 -43 -11q-30 -3 -39 -17q-2 -6 -2 -34q0 -46 4 -137.5
t4 -137.5q-17 -35 -72 -35h-35h-21q-12 -1 -15 -1q-12 0 -22 10q-13 29 -13 74q0 67 1 128l2 129q-4 8 -31 17q-22 9 -23 27q-3 60 -3 85q0 53 10 75q3 6 18 14.5t16 9.5q9 231 192 231q56 0 92 -26q41 -29 41 -83zM591 783q0 -15 -2 -233l-2 -234q0 -121 1 -179
q0 -10 1 -43q1 -26 1 -42q0 -30 -52 -43q-34 -9 -77 -9q-40 0 -50 22q-6 13 -6 60q0 16 4 102q13 278 13 322q0 61 -4 121q0 8 -2 28q-1 9 -12.5 32.5t-11.5 40.5q0 41 83 60q52 12 82 12q16 0 28 -5z" />
    <glyph glyph-name="glyph204" horiz-adv-x="500" 
 />
    <glyph glyph-name="DST" horiz-adv-x="1426" 
d="M1415 -38h-1404v838h1404v-838zM1390 562q0 30 -19 51t-46 21h-148q-37 0 -37 35v131h-57v-131q0 -88 116 -88q16 0 47.5 2t47.5 2q41 0 41 -19q0 -21 -40 -21q-16 0 -48.5 2.5t-48.5 2.5q-115 0 -115 -96v-322q0 -69 72 -86v56q-19 12 -19 42v302q0 45 35 45h146
q29 0 51 21t22 50zM1003 136v94q0 41 -26 64.5t-70 23.5h-246q-41 0 -41 37v95q0 43 41 43h244q24 0 43 -21h50q-13 76 -89 76h-246q-45 0 -71.5 -28.5t-26.5 -73.5v-89q0 -41 25.5 -66.5t66.5 -25.5h250q45 0 45 -45v-76q0 -45 -61 -45h-250q-22 0 -22 21q0 18 20 18h270
v53h-279q-29 0 -47 -21t-18 -52q0 -30 20 -50t50 -20h282q39 0 62.5 24.5t23.5 63.5zM496 800h-56l2 -682q0 -6 -6 -13.5t-12 -7.5q-19 0 -19 21v151q0 44 -31 75l-179 177q-19 19 -52 19t-56 -17q-26 -19 -26 -51v-330q0 -96 88 -96h82q64 0 77 72h-53q-12 -15 -25 -21h-81
q-35 0 -35 43v310q0 6 8 32q8 6 17 6q13 0 27 -14l95 -93q85 -84 87 -93q2 -46 2 -169q0 -33 20 -55t52 -22q30 0 51.5 22t21.5 52z" />
  </font>
</defs>
</svg>
