<?xml version="1.0" standalone="no"?>
<!DOCTYPE svg PUBLIC "-//W3C//DTD SVG 1.1//EN" "http://www.w3.org/Graphics/SVG/1.1/DTD/svg11.dtd" >
<svg xmlns="http://www.w3.org/2000/svg" xmlns:xlink="http://www.w3.org/1999/xlink" version="1.1">
<metadata>
Created by FontForge 20170924 at Fri Dec 22 05:52:57 2017
 By www-data
Copyright (c) 2017 by Sarid Ezra. All rights reserved.
</metadata>
<defs>
<font id="BitterRose" horiz-adv-x="332" >
  <font-face 
    font-family="Bitter Rose"
    font-weight="400"
    font-stretch="normal"
    units-per-em="1000"
    panose-1="0 0 0 0 0 0 0 0 0 0"
    ascent="650"
    descent="-350"
    x-height="311"
    cap-height="562"
    bbox="-748 -365 657 753"
    underline-thickness="50"
    underline-position="-100"
    unicode-range="U+000D-FB02"
  />
<missing-glyph horiz-adv-x="238" 
 />
    <glyph glyph-name="e_e" unicode="ee" horiz-adv-x="493" 
d="M203 267q-2 -2 -3 -4q1 0 -3 2l-2 -4t-1 -4q-2 -12 -8 -25.5t-12 -22.5q-4 -5 -7.5 -10t-8.5 -10q-6 -6 -12.5 -11.5t-13.5 -10.5q-4 -4 -8 -7l-8 -6l-10 -8l-10 -8q-3 -2 -6.5 -2.5t-5.5 -4.5q-2 -8 -3 -16t3 -16q-1 -8 2 -15.5t5 -15.5q12 -1 22 2t21 7q14 6 27 14.5
t26 18.5q8 6 16.5 12.5t16.5 14.5q2 0 4 1q-1 5 -0.5 10.5t-1.5 11.5q-1 5 -1 9.5t2 9.5q1 1 1 5q0 17 4.5 32.5t11.5 30.5q5 12 11.5 23t13.5 22l4 6l4 6q4 5 8 9.5t9 9.5l4 6t5 5q15 14 30.5 26t35.5 20q9 4 18 6.5t19 2.5q17 -2 30 -10q8 -4 13 -6q8 -5 11.5 -12t0.5 -15
q-2 -4 -2 -7.5t-2 -7.5q-4 -10 -7 -14q-3 -5 -6.5 -10.5t-7.5 -10.5q-7 -9 -14 -17.5t-14 -17.5q-3 -5 -6.5 -8.5l-7.5 -7.5q-2 -3 -4.5 -5.5t-4.5 -5.5q-1 -4 -7 -8q-4 0 -6 -4l-33 -30q-10 -8 -19.5 -16t-19.5 -16q-1 -1 -3 -1q0 -8 -1 -16.5t1 -16.5q2 -12 5.5 -23.5
t10.5 -22.5q9 -17 22 -28q6 2 12.5 -0.5t13.5 -1.5q6 0 12.5 -0.5t13.5 0.5q14 2 27.5 6t24.5 16q1 1 10 12t19.5 23.5t19.5 23t11 12.5q1 1 1.5 2.5t2.5 3.5h7l7 -7q2 -3 4 -9l2 2q1 0 1.5 -0.5t-0.5 -0.5q0 -12 -10 -27t-25 -30t-32 -28t-31 -20q-5 -2 -10 -1.5t-10 -0.5
l-10 -2t-10 0q-13 2 -25 2.5t-24 5.5q-6 2 -12.5 3.5t-12.5 3.5q-9 3 -16.5 7t-15.5 9q-11 7 -19 16.5t-15 20.5q-2 4 -4.5 7.5t-3.5 8.5q0 1 -2 3l-7.5 -7.5t-6.5 -7.5q-11 -10 -21.5 -20t-21.5 -20q-16 -13 -34 -17q-12 -2 -20.5 -2t-22.5 5q-6 2 -12.5 3t-12.5 3
q-7 3 -13 6l-12 6q-3 2 -5.5 5t-5.5 5q-9 7 -13.5 16t-9.5 18q-2 3 -2 6t-1 6q-1 5 -1.5 9t-0.5 9q-1 5 -1 9v9q0 8 1 11q2 8 2 14.5t2 13.5q2 5 2.5 9.5t2.5 9.5t3 9t3 9q5 14 11 26.5t14 23.5q13 22 28 35q8 8 18 14.5t21 11.5l6 2t7 1q22 2 39 -5q8 -2 11 -4
q5 -5 11 -7.5t12 -5.5q10 -7 10 -15q1 -2 1.5 -3.5t1.5 -3.5q-3 -3 -3 -5q1 -8 -1 -14t-4 -13h-2v7h-2v-7zM419 362q-4 -3 -12 -7q-8 -5 -15 -10.5t-15 -11.5q-9 -8 -16.5 -17.5t-14.5 -18.5q-16 -22 -29 -45q-12 -22 -19 -47q-1 -5 -3 -8.5t0 -8.5q4 3 8 5.5t7 5.5
q16 16 31.5 31t29.5 32q3 3 5.5 6.5t4.5 6.5q5 6 9 12l8 12q5 6 8.5 12.5t7.5 13.5q2 4 3 7.5t3 8.5q1 4 1.5 8t1.5 9zM177 311h-4q-5 -3 -9 -5.5t-8 -6.5l-12 -12t-11 -13q-15 -22 -28 -51q-2 -4 -2.5 -7.5t-2.5 -7.5q-6 -14 -9 -29t-7 -30q0 -1 0.5 -1.5t0.5 -1.5
q2 2 4.5 3.5t4.5 3.5l22 22t22 24q1 5 5 7.5t6 6.5q3 7 7 12.5t8 11.5q15 23 18 49q2 7 -0.5 13t-4.5 12zM71 141h1v10h-1v-10zM75 164h-3q1 -2 1 -6h2v6zM207 281h-2q1 -2 1 -4h1v4zM281 183h2v4h-2v-4zM77 173h-2q0 -3 1 -4h1v4zM68 117h2v4q-1 0 -1 -0.5t-1 -0.5v-3z" />
    <glyph glyph-name="l_l" unicode="ll" horiz-adv-x="321" 
d="M120 74q2 -5 0 -9.5t-4 -9.5q-8 -22 -21 -46q-3 -7 -8 -13.5t-15 -10.5q-3 0 -7 0.5t-9 3.5q-4 2 -9 2t-9 1q-11 4 -16.5 11.5t-10.5 15.5q-6 12 -9 27q-2 5 -3 10.5t-2 10.5q-2 5 -3 9.5t-1 9.5q-1 4 -3 14q0 3 0.5 6.5t-2.5 5.5v3q0 9 -0.5 18t-1.5 19q-1 9 -1.5 18.5
t1.5 18.5q2 10 1.5 19t0.5 18q1 5 1.5 11t0.5 11l3 12q0 3 -0.5 6t2.5 7q1 2 0 5.5t0 6.5q2 7 2.5 14t2.5 14q0 2 2 8v4.5t2 4.5q1 2 0.5 4.5t-0.5 4.5q2 4 2 8q4 11 6 22.5t5 22.5q5 17 10.5 34.5t11.5 34.5q2 7 5 13.5t5 12.5q5 4 8.5 1.5t7.5 -4.5l2 -8t2 -9l1.5 4.5
t0.5 3.5l2 -1q-1 -5 -0.5 -10t-1.5 -10q-2 -2 -1 -4.5t0 -4.5v-16.5t-2 -16.5q-1 -5 -1 -9t-1 -9q-3 -9 -2 -17q0 -4 -2 -6.5t-1 -6.5q1 -3 1 -6t-3 -6v-1q-1 -8 -1 -15t-1 -15q-2 -10 -2 -15q-1 -4 0 -8t-1 -8q-2 -5 -1.5 -11t-0.5 -12q0 -5 -1 -10.5t-1 -10.5t0.5 -10.5
t-0.5 -10.5q-3 -10 -2.5 -19t0.5 -18q-2 -41 0 -82q0 -9 1 -17.5t1 -17.5q1 -8 2 -16.5t3 -16.5q0 -3 1 -6.5t2 -7.5q2 -2 3.5 0t1.5 4q5 8 10 15t9 16q4 8 8 15.5t8 15.5q8 16 14 32t11 33q5 14 10 28.5t9 29.5q5 6 6.5 13.5t4.5 14.5t4.5 14t4.5 14q5 10 8 19.5t8 19.5
q10 20 10 39q0 15 4 26v2q-2 8 0.5 15.5t1.5 15.5q0 4 1 7t1 6q1 3 0.5 6t2.5 6v4q0 10 1.5 19.5t3.5 18.5q1 6 1.5 12t2.5 12q3 10 5 19.5t4 20.5q2 9 3.5 18t3.5 19q6 27 15 50q1 2 2 4.5t1 4.5q0 3 2 5l4 4h8q5 -3 10.5 -6t11.5 -6q4 -8 4 -17.5t-1 -19.5q-2 -8 -1.5 -16
t-0.5 -16q-1 -5 -1.5 -9.5t-0.5 -9.5q-1 -5 0 -9t-1 -9q-2 -6 -1.5 -12.5t-0.5 -12.5q0 -5 -0.5 -9t-1.5 -9q0 -4 1 -8.5t-1 -8.5q-2 -5 -1.5 -10.5t-0.5 -11.5q-1 -5 -1.5 -10.5t-0.5 -10.5q-1 -5 0 -10t-1 -10q-2 -9 -1.5 -17.5t-0.5 -17.5q0 -8 -1.5 -15t-0.5 -15
t1.5 -15.5t-1.5 -15.5q-3 -12 -2.5 -24t0.5 -24q-1 -28 -0.5 -55.5t-0.5 -55.5q0 -11 1.5 -21t1.5 -20q0 -11 -1 -21t1 -21q3 -17 2 -35t0 -36q0 -4 -1 -8t-1 -8t0.5 -8t-0.5 -8q-2 -5 -2 -10v-10v-75q-4 -2 -7 -4v9.5t-1 9.5h-1v-21q-2 3 -3.5 4.5t-2.5 3.5q-1 0 -7 -2
q-1 2 -1 3t-1 3l-3 -3l-2 2q-1 0 -3 -2q-6 2 -10 3l-6 12q-1 3 -1 6t-2 7q-2 2 -1 5.5t-1 7.5q-2 2 -1.5 6t-0.5 8q-2 6 -2 12.5t-1 12.5q-1 7 -2.5 14t-1.5 15q-3 3 -3 7.5t-2 8.5t-1.5 8.5t-0.5 8.5t-2 7t-1 6q1 3 1 6t-3 6v2v23.5t-2 22.5q-3 20 -2.5 39.5t0.5 39.5
q-1 20 -0.5 39.5t0.5 39.5q0 1 -0.5 1.5t-0.5 1.5l-3 -3q-5 -14 -9.5 -26.5t-9.5 -26.5q-3 -7 -5.5 -14t-5.5 -14q-7 -13 -12 -29q-2 -5 -4.5 -10t-2.5 -11q-3 -2 -2.5 -5t0.5 -5q-4 -2 -3 -3.5t0 -3.5q-3 -1 -2 -3.5t-1 -6.5q0 -1 0.5 -1t0.5 1t-0.5 1.5t-0.5 1.5v-3
q3 3 2 3h1q2 -8 -5 -12h1q0 3 -1 5h-1q0 -3 1 -5zM249 292q-2 -14 -2 -30.5t2 -23.5v54zM247 114q2 15 2 31t-2 22v-53zM250 52h1q0 5 0.5 9t-0.5 9q0 5 0.5 9t-1.5 9v-36zM250 315h1q0 4 0.5 7t-0.5 7q0 3 0.5 6.5t-1.5 6.5v-27zM253 10h-2q1 -6 1 -12.5v-12.5h1v25z
M38 204q-1 -5 -1.5 -10.5t1.5 -11.5v22zM253 381h-2q0 -7 1 -10q0 -2 -0.5 -5t1.5 -7v22zM256 425q3 8 0 13v-13zM254 398q4 8 0 13v-13zM260 463q-1 -2 -1.5 -5t1.5 -8v13zM41 260h2v9h-2v-9zM40 239h-2q1 -3 1 -9h1v9zM38 122h-2q0 -6 1 -8h1v8zM263 501h2v8h-2v-8z
M261 478h1v9h-1v-9zM272 580h-2q0 -4 1 -6h1v6zM269 558h-1v-7h1v7zM267 532h-2q0 -2 0.5 -3t0.5 -3h1v6zM45 294h-2q0 -4 1 -6h1v6zM68 457h-2v-5h2v5zM49 333h-1v-4h1v4zM47 315h-1v-5h1v5z" />
    <glyph glyph-name="o_o" unicode="oo" horiz-adv-x="436" 
d="M226 213q-21 -16 -47 -28q-2 -13 -5.5 -25.5t-7.5 -24.5q-2 -8 -5 -15t-6 -15q-6 -13 -14.5 -24.5t-19.5 -20.5q-5 -4 -10.5 -6.5t-11.5 -5.5h-16q-8 -2 -13 2q-4 2 -7.5 2h-5.5q-8 4 -11 5q-14 7 -21.5 18.5t-11.5 26.5q-1 4 -1.5 7.5t-0.5 8.5q0 3 -1 5q-3 7 0 14
q1 2 1 5q0 16 4 30.5t9 28.5q5 15 11 29t14 28q4 7 8 13t9 12h9q4 8 5 11q6 22 26 35q4 2 8 3l8 2t7 -0.5t6 -3.5q8 -3 19 -10q8 -7 10 -16q2 -7 3.5 -13.5t3.5 -12.5q2 -3 1.5 -6t0.5 -6q2 -5 2 -10t1 -10t1.5 -9.5t1.5 -9.5q3 -2 5.5 -0.5t5.5 3.5q4 2 8 5t8 7
q14 11 28.5 22t26.5 25l15 18q2 2 2 3t2 2q1 2 2.5 2t3.5 2q3 -3 5 -3q6 0 13 -5q4 -2 8 -5t9 -4q3 0 4 -6q-2 -4 -4.5 -7.5t-4.5 -8.5q5 -2 9 -4.5t9 -4.5q6 -3 11 -6.5t10 -7.5q7 -5 14 -11q2 -4 5 -7t6 -7q4 -4 5.5 -9t3.5 -10q2 -4 2 -7q1 -2 0.5 -4.5t-0.5 -4.5v-10.5
t1 -10.5q0 -8 -2 -16.5t-4 -16.5q-5 -20 -15 -36q-6 -11 -13.5 -20t-17.5 -16q-5 -4 -9 -7t-9 -6q-6 -5 -16 -7q-11 -2 -14.5 -2t-15.5 4q-4 2 -8 2q-2 1 -4 1t-4 1q-15 5 -23 15.5t-13 24.5q-3 8 -5.5 17t-1.5 19q0 2 -1 5t-1 5q0 5 1 9t1 9q1 5 0 9t3 8q-2 8 0.5 14
t3.5 13q2 4 2 5v6zM273 71q6 0 10 1q10 6 20 14l18 18q5 5 8 10.5t5 10.5q2 7 5.5 13t1.5 14q4 2 3 6t1 7t1.5 7t-0.5 9v15q0 4 -0.5 8t0.5 9q0 5 -1.5 8.5t-1.5 8.5t-5 12q-4 6 -9 11l-10 10q-2 2 -4.5 2.5t-4.5 2.5q-1 -2 -1 -3t-1 -2q-8 -17 -16.5 -33t-13.5 -34
q-4 -11 -7 -22.5t-3 -23.5q0 -1 -1 -2t-1 -3q0 -12 -0.5 -24t0.5 -25q1 -6 3 -12.5t4 -12.5zM149 178q-9 0 -13 1q-6 1 -11.5 3t-10.5 3q-6 0 -10.5 2.5t-9.5 5.5q-5 4 -8.5 8t-5.5 10q-1 3 -6 8q-1 -3 -1 -6q-2 -8 -5 -16.5t-4 -17.5q-3 -2 -2 -5t-1 -5q-2 -3 -1 -6.5
t-1 -5.5q-2 -4 -1.5 -8t-0.5 -8q-2 -5 -2 -9v-8v-18t2 -18q2 -5 3 -10t5 -10q7 0 10 1q20 8 32 23q3 3 5.5 7t4.5 8q10 14 18 32q3 9 7 18t6 19q0 1 1 2zM135 320q-11 -2 -21 -19q-6 -10 -7.5 -21t-3.5 -22q-1 -5 -0.5 -9t0.5 -9v-12t2 -11t4 -10.5t7 -7.5q11 -2 21 1.5
t18 9.5q1 12 3 21q0 8 -0.5 15t-1.5 15q-1 17 -8 37l-4 12t-9 10zM101 272h1v7h-1v-7zM100 262h-2q0 -2 0.5 -3t0.5 -3h1v6zM173 173h-2q1 -2 1 -6h1v6zM258 143h-2q0 -2 0.5 -3t0.5 -3h1v6zM170 160h1v4h-1v-4zM174 178l2 1q0 2 -1 3h-1v-4zM106 291h1v4h-1v-4zM105 288h-2
q0 -3 1 -4h1v4z" />
    <glyph glyph-name="r_r" unicode="rr" horiz-adv-x="374" 
d="M243 337q-8 -9 -15 -15q-5 -3 -9 -7.5t-9 -8.5q-5 -5 -9.5 -11t-9.5 -11t-9 -11t-9 -11q-9 -10 -16.5 -20.5t-15.5 -21.5q-5 -6 -9 -13l-8 -14q-10 -17 -18.5 -33t-16.5 -33q-11 -23 -18 -45q-4 -7 -5 -13q0 -8 -1.5 -14.5t-0.5 -14.5t-1.5 -17t-1.5 -17q1 -2 0 -5t-2 -5
q-4 -6 -8 -2q-2 2 -2.5 0.5t-2.5 -1.5q-1 1 -1 2l-1 1q-5 2 -8.5 3t-7.5 2q-2 0 -3.5 -0.5t-3.5 -0.5q0 1 -0.5 2t-0.5 2q-1 0 -3 -2q-4 4 -10 12q0 9 -2 17t-1 16q-3 8 -1.5 15t-0.5 15q-3 16 -2 32t0 32q0 6 1 11.5t1 10.5q0 6 -0.5 12t0.5 11q2 6 1.5 12t1.5 11q1 5 1 9
t1 8q1 5 1 9t1 8q2 3 1.5 6.5t1.5 7.5q1 3 1 6t1 6q2 8 3.5 16.5t3.5 16.5q2 5 2.5 10t3.5 10q1 9 4.5 17.5t5.5 17.5q3 9 10 18h12q8 -5 16.5 -8t14.5 -9q4 -8 4 -15.5v-15.5q0 -3 -1 -6.5t-2 -7.5q0 -3 0.5 -6.5t-2.5 -6.5v-3v-8t-2 -8t-1 -7.5t-1 -7.5q-2 -5 -2 -11
t-1 -11q0 -5 -2 -13q-1 -3 -0.5 -6.5t-1.5 -6.5v-1q-1 -7 -1.5 -14t-1.5 -15q0 -3 -0.5 -6.5t-0.5 -7.5q3 4 5.5 7.5t4.5 7.5q14 27 32 49q6 9 12.5 17.5t12.5 16.5q18 21 39 39q12 12 26 23q6 5 11.5 9.5t11.5 8.5q5 2 8.5 5t8.5 5q14 2 20 -6q1 -1 3 -1t4 -1q-2 -4 -3 -5
q-5 0 -9 -2t-9 -3l2 4q-4 1 -7 -4q-1 -1 -1 -1.5t-1 -1.5q-4 1 -7 -4h5zM61 167q-1 -3 -1.5 -5.5t1.5 -7.5v13zM62 179q3 7 0 11v-11zM234 331q-5 0 -7 -5q2 2 3.5 3t3.5 2zM83 328h2q-1 3 -1 8h-1v-8zM66 210h-2v-8h2v8zM67 220h2q-1 2 -1 6h-1v-6zM73 266h2v6h-2v-6z
M73 258h-2q0 -4 1 -6h1v6zM70 242h-2q1 -2 1 -6h1v6zM80 312h2q0 3 -1 4h-1v-4zM78 296h2q0 1 -0.5 2t-0.5 2h-1v-4zM76 282h1v4h-1v-4zM191 270h12q8 -4 14.5 -8t14.5 -6q5 -5 5.5 -12t0.5 -14v-38q4 6 6.5 10.5t5.5 8.5q8 11 15 22.5t17 22.5q8 9 16 19t17 19q6 5 12.5 10
t12.5 11q7 6 14 11.5t15 11.5q9 8 18.5 15t20.5 12q6 4 12 6q3 0 6.5 -1t6.5 -2q4 -2 8 -5t8 -5q2 -2 3 -5q-9 0 -14 -1q-5 -3 -11 -6.5t-11 -8.5q-10 -8 -19.5 -16t-18.5 -17q-3 -3 -7 -6t-7 -6q-7 -9 -14.5 -16.5t-15.5 -16.5q-24 -29 -45 -60q-2 -4 -6 -11t-8 -15.5
t-7.5 -17t-6.5 -14.5q-8 -16 -12 -31q-2 -8 -4.5 -15.5t-4.5 -15.5q-3 -15 -2 -30t0 -30q-3 -2 -8 -7q-1 1 -2 1.5t-2 2.5q-4 -2 -5 -3q-1 2 -1 2.5t-1 2.5h-10q-1 3 -1 8q-2 -2 -2 -3t-1 -2q-1 1 -1.5 1t-1.5 1q-4 -2 -5 -3q-5 5 -12 7.5t-9 12.5q2 8 -1 16.5t-1 17.5
q-3 8 -2 17t-1 17q-2 10 -1.5 19.5t-0.5 19.5q0 6 1 12t1 12q1 6 0 12t1 12t1.5 11.5t0.5 11.5q2 9 3.5 18t3.5 18q2 5 3.5 9t6.5 7zM228 229q-2 -15 -2 -30t2 -21v51zM245 341q1 1 1 1.5t1 1.5h5q-4 -8 -9 -7q0 2 2 4z" />
    <glyph glyph-name="s_s" unicode="ss" horiz-adv-x="454" 
d="M131 139q-2 -5 3 -12q21 -35 32 -69q5 -19 8.5 -37.5t1.5 -38.5q-5 -33 -22 -59q-24 -35 -66 -42q-8 -2 -14.5 -2h-14.5q-19 2 -35 9q-7 4 -12.5 9.5t-7.5 13.5q-4 11 -4.5 21.5t1.5 21.5q3 22 10.5 41.5t18.5 39.5q8 15 16.5 29t19.5 28q4 5 7.5 9.5t7.5 9.5
q-5 8 -9.5 16t-9.5 16q-8 11 -15 22t-15 22q-6 8 -10.5 17t-6.5 20q-2 7 -3 13.5t1 14.5q1 7 2 13.5t3 12.5t3.5 11.5t4.5 10.5q8 15 16.5 28.5t21.5 24.5q6 5 13 9t12 7h18q5 -2 9.5 -4.5t9.5 -4.5q-11 -9 -17 -21t-11 -24q-3 -8 -6 -16.5t-5 -17.5q-3 -11 -4 -22t-1 -22
q-1 -17 4.5 -32.5t14.5 -29.5l8 -12t9 -12q2 2 3 2.5t3 2.5l9.5 9.5l9.5 9.5q10 9 19.5 19t20.5 19q12 10 23.5 19.5t25.5 17.5l21 12q6 2 9 2h18l4 -4l-2 -2q-14 0 -25.5 -6t-22.5 -14q-14 -10 -26.5 -20t-23.5 -23q-13 -14 -26.5 -28t-26.5 -28zM32 -9q-1 2 -1 4h-2l3 -3
q0 -5 -2 -9.5t-4 -9.5l-1.5 3l-1.5 3v-8q-6 -4 0 -7q-1 -3 -1 -9h-1q-1 2 -1 3.5t-1 3.5q-3 -14 -3.5 -20t1.5 -11q-1 -5 -1 -7.5t-1 -4.5q5 -5 5 -6q3 -14 13 -19q5 -5 11 -3.5t11 2.5q17 4 29.5 12.5t20.5 24.5q6 12 8 25t3 27q1 11 -0.5 22t-3.5 22q-3 15 -8 29.5
t-11 28.5q0 1 -4 5q-2 -4 -4 -6q-4 -7 -8 -13t-9 -13l-18 -30q-4 -7 -7 -14t-7 -14l-2 -4zM165 -17h1v15h-1v-15zM69 235h1v6h-1v-6zM27 -16h-2q0 -2 1 -3h1v3zM19 -56v6h1v-6h-1zM22 -36v7q3 -4 0 -7zM335 322q2 -5 -1 -6.5t-5 -3.5q-24 -22 -32 -50q-1 -2 -2 -5t0 -6
q0 -3 -1.5 -5.5t-1.5 -5.5q0 -24 14 -41q7 -10 13 -15q8 -8 16 -16.5t16 -16.5q5 0 8 3q19 11 38.5 20.5t39.5 20.5q12 6 24 10.5t24 8.5q5 2 10.5 3.5t10.5 0.5q4 -2 8 -4.5t10 -5.5h-19q-7 0 -16 -3t-16 -8q-4 0 -4 -2q-2 -1 -3.5 -0.5t-1.5 -2.5q-2 0 -3 0.5t-1 -2.5
q-5 0 -5 -2q-2 -1 -3 -0.5t-2 -1.5q-1 -1 -2.5 -0.5t-1.5 -2.5v-2q-2 -2 -2.5 -3t-1.5 -2q-14 -7 -26 -15t-25 -16q-4 -2 -12 -8q-2 -2 -4.5 -3.5t-1.5 -5.5q6 -8 11.5 -16t10.5 -17q6 -9 9 -18q5 -12 5 -20q0 -5 2 -7q2 -4 0 -7q-2 -4 -1.5 -8t-0.5 -8q-1 -7 -5 -14
q-2 -5 -4.5 -9t-5.5 -9q-2 -4 -5.5 -7.5l-6.5 -6.5q-6 -7 -14 -12q-10 -5 -19.5 -9t-20.5 -6q-6 -1 -12 -1.5t-12 -0.5q-11 0 -23 2.5t-28 7.5q-10 3 -17 9q-11 7 -13 17q-1 10 0 20q3 14 9.5 26t14.5 23q10 14 21 25l22 22q8 7 15.5 13.5t16.5 11.5q2 1 6 5q-2 3 -6 7
q-9 11 -19.5 21.5l-21.5 21.5q-5 7 -10.5 14t-9.5 15t-5 20t1 20q4 17 14 33q3 8 9 14q8 9 18 17.5t22 13.5q6 2 11.5 4t13.5 2q6 0 11 -2.5t10 -5.5q-3 -1 -12 -1.5t-11 -0.5q0 -1 2 -3q-2 -2 -3.5 -3t-6.5 1v-1q2 0 3 1h-3zM261 -29q8 0 16.5 -0.5t16.5 0.5q6 1 12 3.5
t11 5.5q8 4 13.5 10t11.5 12q6 7 11 19q11 21 8 49q-2 11 -6 21t-11 19q-7 -6 -13.5 -11.5t-13.5 -11.5q-16 -14 -30.5 -30t-25.5 -35q-5 -8 -8 -15.5t-2 -17.5q1 -7 2 -11.5t8 -6.5z" />
    <glyph glyph-name="t_t" unicode="tt" horiz-adv-x="402" 
d="M112 32q0 -3 -1 -4q-7 -12 -13 -24.5t-14 -23.5q-2 -4 -5 -6.5t-6 -5.5h-14.5t-12.5 5q-5 -1 -8.5 0t-8.5 3q-12 5 -20 20q-6 9 -8.5 18t-4.5 20q-1 4 -2.5 7t-0.5 7q-1 4 -1 7.5t-2 6.5v5q-1 5 -1.5 11t-0.5 12q0 5 -1 10t1 11q1 5 0 11t-1 11q2 8 1.5 17t1.5 17
q1 4 0.5 7.5t0.5 6.5q2 3 1.5 6.5t0.5 7.5q1 5 1.5 9.5t0.5 9.5q2 5 2.5 9t1.5 9t1 9.5t1 9.5q2 11 4 21t3 21q1 5 2.5 10.5t3.5 10.5q1 8 3 16l4 16q3 13 6 25.5t7 25.5v4q-3 -1 -7 0t-6 -2h-3q-7 -1 -13.5 -1t-11.5 -2q-5 -1 -9.5 -0.5t-8.5 -1.5q-5 -2 -9 -1t-8 -1
q-5 -2 -10 -1.5t-10 -1.5t-9 -1t-9 -1q-9 -4 -22 -2q-6 1 -11 1.5t-10 3.5q-2 0 -3 1t-3 2q11 5 21 7.5t21 4.5t21.5 4t21.5 4l42 9q10 2 21 4t23 4q0 3 1.5 7.5t3.5 9.5q2 15 7 29t7 29q6 11 9 23.5t8 24.5q2 5 4.5 10.5t4.5 11.5q2 8 10 11q3 -2 7 -2.5t7 -3.5q5 -5 14 -7
q4 -1 5 -3.5t3 -4.5q0 -7 3 -13t-1 -13v-4q1 -10 0 -19.5t-3 -19.5q-2 -5 -3 -10.5t-1 -11.5q-2 -6 -3 -12.5t-3 -11.5q0 -2 0.5 -3t0.5 -3q5 1 8.5 0.5t8.5 1.5t9.5 1.5t9.5 1.5q2 1 6 0.5t7 1.5t6.5 1t7.5 2h2h8t8 2t8 1t8 1q6 2 12.5 2t13.5 1q3 0 5.5 0.5t5.5 1.5t6 0
t6 1q2 2 6 1.5t8 -0.5q5 5 7.5 12.5t5.5 15.5q3 11 5.5 21t4.5 20l8 30t7 29q2 5 3.5 11t3.5 11t2 10.5t5 10.5q1 9 4.5 17t6.5 16q2 9 11 17q7 -4 13.5 -7.5t12.5 -6.5q3 -3 2.5 -6t2.5 -5q3 -3 1 -8q-3 -5 -2.5 -9t1.5 -9q0 -5 -0.5 -8.5t-0.5 -8.5q-2 -4 -0.5 -7.5
t-0.5 -7.5t-1.5 -8t-0.5 -9q0 -8 -1 -16.5t-2 -16.5q-2 -9 -3 -18t-3 -18q-2 -2 -1.5 -5t0.5 -6q-1 -5 -1.5 -9.5t-1.5 -9.5q12 0 17 1q4 1 7 1t6 1t6.5 0t6.5 3h2q10 0 19 0.5t18 1.5q5 0 8 1t7 1q5 0 9 -0.5t7 1.5q4 1 7.5 1t6.5 1q8 0 14.5 -2.5t13.5 -6.5q3 -4 8 -5
q5 -2 6 -2.5t5 -4.5l-4 -4t-6 -3q-5 -2 -10 -3l-10 -2q-4 0 -10 -2h-4.5t-4.5 -2h-2l-27 -3q-5 0 -11 -2h-6t-5 -2h-2q-7 -1 -14 -1t-14 -2q-7 0 -17 -2q-5 -1 -9 -0.5t-8 -1.5q-5 -2 -15 -2q-3 -5 -2.5 -10.5t-1.5 -10.5q-2 -4 -1 -8.5t-1 -7.5q-2 -4 -1 -7.5t-1 -7.5
t-1.5 -8.5t-0.5 -9.5q-2 -5 -1.5 -9t-1.5 -9q-1 -4 -1 -7.5t-1 -8.5v-9.5t-2 -8.5q-2 -5 -1 -8.5t-2 -8.5q-1 -3 0 -7.5t-1 -8.5q-1 -5 -1 -11v-11q0 -3 -2 -9q0 -2 0.5 -5t-1.5 -5v-3q1 -10 -1.5 -19.5t-0.5 -19.5q-2 -4 -1.5 -8t0.5 -7q-3 -6 -1 -16q-1 -3 -3 -11
q2 -8 -1 -11q2 -6 0 -11.5t-1 -11.5q2 -4 0.5 -7t-2.5 -7q1 -3 1.5 -6.5t-2.5 -6.5v-3q0 -7 0.5 -13.5t-0.5 -12.5q-2 -5 -1 -9.5t-1 -9.5v-9t-1 -8v-9t-1 -9q-1 -4 -0.5 -8t-1.5 -8q-1 -7 -0.5 -14t-1.5 -14q-2 -9 -2.5 -18.5t-3.5 -18.5q-1 -3 -0.5 -6.5t-1.5 -6.5
q-1 -5 -1 -10.5v-10.5q-2 -8 -2 -16.5t-1 -17.5v-6.5t-1 -6.5q-2 -4 -1.5 -7.5t-0.5 -6.5q-2 -8 -2 -16t-2 -16t-5 -11q-2 -3 -5 0t-5 -2q-3 2 -7 6h-6q-2 1 -5 4q0 -1 -3 -2q0 3 -2 7q-2 -5 -4 -7q-4 0 -5 2t-3 5q-2 -2 -2 -3q-3 3 -5 5.5t-4 4.5l-2 -2q1 5 1 10.5t1 10.5
q-1 5 -2 11t0 11q2 5 1.5 10.5t-0.5 10.5q-1 5 0.5 9t0.5 9t-1.5 10t1.5 10q2 7 0.5 13.5t-0.5 13.5q-1 8 0.5 15t-0.5 15t-2 15v15q1 8 0.5 14.5t0.5 14.5q1 10 0 22q0 3 1.5 6t0.5 7q-1 3 0 6.5t1 7.5q1 3 0 6.5t-1 6.5q2 8 2 17t1 17q1 5 0.5 9t0.5 8q2 5 1 9t1 7
q2 5 0.5 8.5t0.5 7.5q1 3 0.5 7t0.5 6q3 5 1.5 10t1.5 9q2 2 1 5t-1 6t2 9q1 5 1.5 9t-0.5 9q4 4 1.5 9t2.5 8q-2 7 1 16v8.5t2 7.5q2 4 1 8t1 8q1 2 1 5.5t1 7.5q1 8 2 17t3 17q0 2 -0.5 3.5t-0.5 4.5q-8 -14 -13.5 -28t-12.5 -28l-16 -36t-17 -35q-8 -17 -15 -33t-15 -33
q-6 -12 -11 -24t-13 -23l-10 -20t-10 -21q-5 -8 -9.5 -16t-7.5 -16q-3 -5 -5.5 -9.5t-2.5 -11.5q-2 0 -2 -4q0 -1 -0.5 -1t-0.5 -1t2 -3zM268 433q-8 -1 -16 -1t-16 -2q-5 -1 -8.5 -0.5t-7.5 -1.5q-5 -2 -15 -2h-4q-2 -2 -5 -2h-6q-8 -2 -11 -2q-5 0 -8.5 -1t-8.5 -2
q-4 -1 -7.5 -0.5t-7.5 -1.5q-7 -2 -14 -2t-15 -1q-1 -1 -1.5 -2t-1.5 -2q-2 -5 -2 -9t-2 -9q-2 -7 -3 -13t-3 -13q-2 -5 -2 -9.5t-2 -9.5t-2.5 -10.5t-2.5 -10.5q-2 -8 -4 -16.5t-4 -17.5q-2 -10 -3.5 -19.5t-3.5 -19.5q-2 -11 -4 -21.5t-4 -21.5q-2 -5 -2 -11.5t-2 -12.5
q-2 -9 -3 -18.5t-3 -18.5q0 -7 -2 -15q-2 -6 -2.5 -12.5t-1.5 -12.5l-2 -16t-1 -16q-1 -5 -0.5 -9.5t-1.5 -8.5t-1 -8t0 -8q0 -5 -0.5 -8.5t-0.5 -7.5q1 -6 1 -11.5v-10.5q2 -4 2 -6q2 1 4 3q8 7 13.5 15t11.5 17q16 27 31 56q4 8 7.5 14.5t6.5 13.5q5 8 8.5 15.5t7.5 15.5
q11 23 20.5 45t17.5 45q4 10 7.5 19.5t7.5 18.5q5 14 11 27t12 27q2 5 3.5 9t3.5 9q2 4 4 7.5t4 7.5q5 13 11 25.5t12 24.5q2 5 5 9.5t6 9.5zM312 48h-2v-7q0 -2 2 -6h1q-1 3 -1 6.5v6.5zM315 87q0 1 2 1q-2 3 -1 6t-2 8q1 -5 1 -8v-7zM318 135h-2q0 -2 0.5 -3.5t0.5 -3.5
v-6h2v6.5t-1 6.5zM311 29q-4 -6 1 -13q-1 5 -1 8v5zM315 83h-2v-12h2v12zM320 167h-1q1 -4 1 -11h1q0 7 -1 11zM321 172q3 6 -1 14q1 -5 1 -8v-6zM322 188q3 6 -1 14q1 -5 1 -8v-6zM319 151h-1q1 -4 1 -11h1q0 7 -1 11zM316 117q-1 0 -1 -1v-9q0 -1 2 -1q0 7 -1 11zM312 53
q3 7 0 11v-11zM308 -5q-2 -5 1 -11q0 3 -0.5 5.5t-0.5 5.5zM309 1q4 5 -1 10q0 -2 0.5 -5t0.5 -5zM306 -29h2q-1 3 -1 8h-2q0 -5 1 -8zM300 -82h2q0 6 -1 9h-2q1 -3 1 -9zM331 291h2v9h-2v-9zM330 278h2q0 5 -1 8h-1v-8zM330 272h-2q0 -2 0.5 -4t0.5 -4h1v8zM327 250h2
q0 6 -1 9h-2q1 -3 1 -9zM326 234h2v9q-1 0 -1 -0.5t-1 -0.5v-8zM325 220h2q0 3 -2 9h-1q1 -3 1 -9zM324 213h-2q1 -2 1 -4.5t1 -4.5h1q0 6 -1 9zM42 52h-2v-8h2v8zM340 362q-1 0 -2 -1q1 -2 1 -6l1 1v6zM126 541h2q0 2 -2 6h-1q0 -2 0.5 -3t0.5 -3zM339 350h-2q0 -2 0.5 -3
t0.5 -3h1v6zM338 336h-2q0 -4 1 -6h1v6zM335 319h1q0 2 -0.5 3t-0.5 3h-1q0 -2 0.5 -3t0.5 -3zM334 305h2q-2 2 -2 6h-1q0 -4 1 -6zM345 396h-2q0 -2 0.5 -3t0.5 -3h1v6zM42 73h-2q0 -2 2 -6h1q-1 2 -1 6zM344 385l-2 -1q0 -4 1 -6h1v7zM302 -66h1v7h-1v-7zM342 373h-2
q0 -2 0.5 -3t0.5 -3h2q0 2 -0.5 3t-0.5 3zM299 -98h1v6h-1v-6zM299 -108h-2q0 -2 0.5 -3t0.5 -3h1v6zM298 -124h-2q0 -4 1 -6h1v6zM297 -140h-2v-6h2v6zM125 525h2q0 2 -2 4h-1q1 -1 1 -4zM348 424h2v4h-2v-4zM347 413h2q0 3 -1 4h-1v-4zM58 199h1v5h-1v-5zM53 170h2
q0 1 -0.5 2t-0.5 2h-1v-4zM53 163h-1v-5h1v5zM51 151h-1q0 -3 1 -4h1q-1 1 -1 4zM50 139h-2v-4q1 0 1 0.5t1 0.5v3zM47 124h2q-1 2 -1 4h-1v-4zM46 117h-1q1 -2 1 -5h1q0 3 -1 5zM45 103h-2q0 -1 0.5 -2t0.5 -2h2q0 1 -0.5 2t-0.5 2zM43 89h-2q1 -1 1 -4h1v4zM346 401
q1 0 1 1t-0.5 1.5t-0.5 1.5h-1q0 -2 1 -4zM304 -41h2v4h-2v-4zM303 -52h2q0 1 -0.5 1.5t-0.5 2.5h-1v-4zM295 -156h-1v-4h1v4z" />
    <glyph glyph-name="line01" unicode="_&#x31;" horiz-adv-x="0" 
d="M438 -77v-6q-2 -3 -2 -4t-2 -3q-1 1 -2 1.5t-2 1.5q0 -2 -2 -2q-4 3 -8 5q-2 0 -4 -0.5t-4 1.5q-1 -1 -2 -1t-3 -1q0 2 -0.5 2.5t-0.5 2.5q-2 -2 -3 -2q-2 0 -6 8q-7 1 -13 1.5t-12 1.5q-7 0 -13.5 -0.5t-13.5 0.5q-10 2 -19.5 2h-20.5h-40q-5 0 -10 -1t-10 -1t-9.5 0.5
t-9.5 -0.5q-6 -2 -12 -2h-12q-6 -1 -12.5 -1.5t-12.5 -1.5q-6 0 -12 1t-12 -1q-8 -2 -15 -1.5t-15 -0.5q-3 0 -6.5 -1t-7.5 -1q-3 -1 -6.5 0t-6.5 -1q-6 -2 -12 -1.5t-11 -0.5q-5 0 -8 -1.5t-8 -0.5q-4 0 -7.5 0.5t-7.5 -2.5h-2q-8 -1 -15 -1.5t-15 -0.5q-3 -1 -6 -2.5
t-7 -0.5q-2 1 -5.5 1t-5.5 -3q-5 1 -10 0l-10 -2q-7 -2 -13.5 -2.5t-13.5 -1.5q-8 -1 -16.5 -3t-16.5 -3q-16 -2 -27 -6l-15 -3q-10 -2 -19.5 -4t-18.5 -4l-16 -4l-16 -4q-9 -2 -18 -4.5t-17 -4.5q-14 -5 -27.5 -9t-27.5 -9q-11 -3 -20 -7q-14 -7 -29.5 -12.5t-29.5 -13.5
l-16 -10t-16 -13q-6 2 -13 3.5t-15 3.5q-2 2 -5.5 5t-7.5 5v15q4 5 7.5 9t8.5 9q8 8 16.5 14.5t18.5 11.5q8 4 14.5 8t14.5 7q18 9 36 15q16 6 31 11t31 10q10 3 19 6t20 5q8 2 15.5 4.5t15.5 4.5q3 1 6.5 1t7.5 2q5 2 10.5 2.5t10.5 1.5q5 2 10.5 2.5t10.5 2.5t10 1.5
t10 0.5q8 3 16.5 3.5t16.5 3.5q5 2 10.5 2h11.5l12 3q4 1 7.5 0t5.5 2h1q7 -2 13.5 0.5t13.5 1.5q8 0 16 2t16 1q6 3 12.5 2t13.5 0q7 0 14 1.5t14 0.5q8 0 15.5 -0.5t14.5 0.5q14 3 27.5 2t27.5 0q12 -3 24 -1.5t23 -0.5q9 -2 18 -1.5t17 -1.5t16.5 -1t16.5 -1t16 -1t16 -1
q5 -1 10.5 -1.5t11.5 -0.5q2 0 5 -1t6 -1q3 -1 6.5 -0.5t6.5 -1.5q2 -2 6 -0.5t6 -0.5q5 -3 9.5 -1.5t8.5 -2.5q5 1 9 -1t9 -4q4 -1 12 -5q5 -2 10 -5.5t10 -5.5q4 -1 6 -3.5t4 -4.5z" />
    <glyph glyph-name="line02" unicode="_&#x32;" horiz-adv-x="0" 
d="M618 -141q-3 -3 -9 -7q-11 3 -22.5 5t-22.5 7q-7 -2 -13 0.5t-12 4.5q-5 2 -11.5 2.5t-11.5 3.5q-4 2 -14 2q-5 2 -11 -1q-6 -4 -11 0q-5 3 -11.5 3.5t-12.5 2.5q-4 2 -8 3.5t-9 1.5q-5 1 -9.5 1t-9.5 1q-5 2 -9.5 1.5t-9.5 1.5t-10 1t-10 1t-11 1t-11 1t-10.5 1.5
t-10.5 1.5q-7 2 -13.5 1t-13.5 1q-9 2 -17.5 1t-16.5 1q-11 2 -21 1t-20 1q-15 3 -30.5 2t-30.5 1q-17 2 -33.5 1.5t-33.5 0.5h-67q-9 0 -18 -1.5t-18 -1.5q-9 1 -18 1.5t-17 -1.5q-11 -2 -20.5 -1t-20.5 -1q-8 -2 -16.5 -1.5t-16.5 -1.5q-7 -1 -13 -0.5t-12 -1.5
q-6 -1 -12 -1t-12 -1q-3 0 -6 -1t-6 -1h-7t-6 -2t-7 -0.5t-7 -0.5q-5 -2 -9 -1t-8 -1q-5 -2 -9 -1.5t-9 -0.5q-8 -2 -15 -2.5t-15 -2.5q-3 -1 -6.5 -1t-7.5 -1q-3 -2 -6.5 -1.5t-5.5 -0.5q-7 -2 -14 -3t-14 -3q-3 -2 -7 -2t-8 -1q-9 -2 -18.5 -4t-18.5 -5q-8 -2 -16.5 -3.5
t-16.5 -3.5q-5 -2 -10.5 -3.5t-11.5 -3.5q-11 -3 -21.5 -6t-21.5 -8q-11 -4 -21.5 -7.5t-19.5 -10.5q-2 -2 -8 -6q2 -3 5 -5t7 -6l-22 4q-8 5 -16.5 9t-11.5 15q3 11 11 17t16 11q7 4 13.5 7.5t14.5 6.5q7 3 14 5.5t14 6.5q11 5 21 8l20 6q12 4 24 7.5t24 5.5q8 2 15.5 3
t15.5 5q7 -1 13.5 1.5t13.5 4.5q8 1 15.5 2t15.5 4q5 -2 9.5 0.5t9.5 2.5q3 -1 6 0l6 2q3 0 6 -0.5t6 2.5h2q7 1 13.5 1t13.5 1l6 2t6 1q8 -2 12 2h1q8 1 16.5 1t17.5 1q10 2 17 2q5 1 9.5 0t8.5 1q8 2 17 1t17 1q14 2 28 1t28 1t27.5 2h27.5q14 1 27.5 0.5t27.5 -0.5t28 1
t28 -1t28 -1t28 -1q9 -2 18 -1.5t17 -1.5t15.5 -1t15.5 -1q5 -1 11 -0.5t11 -1.5q6 -2 12 -1.5t12 -1.5q5 -1 9.5 -0.5t9.5 -1.5t9 -1.5t8 -0.5q5 -2 9.5 -1.5t9.5 -0.5q4 -2 8.5 -1.5t8.5 -1.5q4 -1 7.5 -0.5t7.5 -1.5t7.5 -1.5t6.5 -0.5q10 -2 19.5 -3.5t20.5 -3.5
q4 -4 8 -3t9 -1q4 -2 9 -1.5t10 -1.5t10 -1.5t10 -0.5q8 -2 15.5 -4t15.5 -4q5 -2 10 -3.5t10 -2.5q4 0 7 -3q7 -4 14 -7t14 -8q5 -4 11.5 -6.5t13.5 -4.5q8 -4 7 -10z" />
    <glyph glyph-name="line03" unicode="_&#x33;" horiz-adv-x="0" 
d="M614 -117q3 -1 6.5 -2t7.5 -2q1 -2 3.5 -4t0.5 -5q-5 -5 -12 -9q-18 2 -36.5 2.5t-35.5 2.5q-19 2 -37 1t-37 1q-17 2 -35.5 2.5t-37.5 2.5h-2q-18 -2 -34.5 0.5t-33.5 1.5q-10 -1 -19.5 0.5t-19.5 -0.5q-11 -1 -19.5 0.5t-17.5 -0.5q-9 -1 -16.5 0.5t-15.5 -0.5
q-6 -1 -12.5 -0.5t-11.5 0.5q-7 -2 -13.5 -1t-13.5 0q-5 -1 -10.5 0t-10.5 -1t-9.5 -1t-9.5 0t-10.5 -0.5t-10.5 -0.5t-10 0t-10 -1q-4 -2 -8 -0.5t-8 -0.5q-5 -2 -8.5 -1.5t-7.5 0.5q-3 -1 -6.5 -1h-5.5q-5 -1 -12 -1q-5 -2 -9 -1.5t-9 -0.5q-7 -2 -14 -1.5t-14 -0.5
q-5 -2 -11 -1t-11 -1q-8 -2 -16.5 -2.5t-16.5 -1.5l-16 -2l-16 -2q-7 0 -13.5 -1t-13.5 -3q-4 -1 -7.5 -0.5t-7.5 -0.5q-10 -2 -19.5 -3.5t-19.5 -3.5q-4 0 -7.5 -1t-7.5 -1q-6 1 -12 -0.5t-13 -2.5q-8 -2 -16 -3.5t-17 -3.5q-8 -2 -15.5 -3t-15.5 -3t-16 -3t-16 -3
q-6 -2 -12 -2.5t-12 -2.5q-8 -2 -14.5 -3.5t-13.5 -3.5q-8 -2 -14.5 -4t-13.5 -4q-12 -3 -28 -9q-17 -5 -33.5 -11.5t-33.5 -13.5q-17 -5 -32 -12.5t-30 -15.5q-8 -4 -15.5 -8.5t-15.5 -9.5q-2 2 -2 2.5t-2 1.5q-2 -2 -4 -3t-4 -3q-1 2 -1.5 2t-1.5 1q-3 -2 -6.5 -4.5
t-5.5 -7.5l-3 3q-1 10 8 19l11 11q29 24 59 40q8 5 15.5 8.5t15.5 8.5q2 2 4.5 2.5t4.5 2.5q24 11 50 22q14 5 27 10.5t27 10.5q12 5 24.5 9t24.5 9q16 5 31 8.5t31 8.5q13 4 26 7.5t27 6.5q10 2 19 4t20 4q7 2 14.5 3.5t14.5 2.5q9 2 17.5 4t17.5 2q5 1 10.5 2t11.5 2
t12.5 2t13.5 2q4 1 8 0.5t8 1.5t8 0.5t7 2.5q8 -1 15 1.5t15 1.5q5 0 9.5 1t8.5 0q4 4 8.5 1.5t8.5 2.5q5 -2 9 -1t9 2q5 -1 10.5 0.5t10.5 -0.5q5 4 10.5 2t10.5 2h3q7 0 14 -1t14 1q6 1 11 0t10 1q6 2 11 0.5t10 0.5q7 2 13 1t11 0q8 1 15 0t14 1q8 1 15 -0.5t14 0.5
q11 2 22 0t22 -1q13 2 25 1t25 -2q14 -1 26.5 -2t26.5 -2q13 -1 26 -1t25 -2q17 -4 33.5 -4t32.5 -4q11 -1 21 -1.5t21 -2.5q5 -2 11 -2.5t11 -3.5q3 -1 7 -5q7 -4 13 -7t12 -8q3 -2 7 -4t9 -4q1 -1 1 -1.5t2 -2.5z" />
    <glyph glyph-name="line04" unicode="_&#x34;" horiz-adv-x="0" 
d="M-505 -284q4 -8 11 -14q-2 0 -4 -0.5t-4 -0.5q-8 2 -14 7t-12 11q-6 5 -8 16q0 7 3 13q2 7 6 11.5t9 9.5q13 14 31 24q8 6 15.5 10t15.5 9q5 3 9 5t9 4q22 13 49 22q17 8 34.5 14t35.5 12q11 4 21.5 7.5t21.5 6.5q9 4 18.5 6t19.5 5q14 4 29 7.5t29 7.5q25 3 47 9
q8 2 14.5 3t14.5 2q21 4 41.5 7t40.5 6q11 1 20.5 2t19.5 3q11 2 22 2.5t22 1.5q13 2 26.5 2t26.5 2q16 1 31.5 1.5t31.5 0.5q8 0 17 0.5t17 -0.5q8 -2 16.5 -2t16.5 -1q10 0 20 -0.5t20 -1.5q8 -2 15.5 -3t15.5 -3q4 -1 7 -1.5t7 -1.5q4 0 7 -2.5t7 -1.5q2 1 3.5 0t3.5 -2
q7 -3 13 -6t13 -6q22 -11 35 -30q6 -8 13 -16.5t13 -16.5q4 -5 8 -9t7 -10q5 -8 6 -17t-4 -20q-8 -16 -20.5 -26.5t-26.5 -18.5q-9 -4 -17 -6.5t-16 -6.5q-7 -4 -14 -6t-14 -6q-13 -7 -27 -11.5t-28 -10.5l-14 -4t-17 -1q-5 2 -10.5 5t-10.5 9q-1 2 -8 4q-2 4 -4.5 7.5
t-4.5 6.5q2 2 2.5 3t2.5 2q6 -2 9 -4q11 6 22.5 12t22.5 13q7 5 14.5 9.5t13.5 9.5q3 3 7 5.5t7 4.5q6 5 11.5 10t10.5 11q5 5 10 9.5t10 9.5q2 3 5 6t6 7q2 4 4.5 7t4.5 8q-1 0 -2 5q-7 2 -13.5 3.5t-14.5 2.5q-10 2 -20 3t-21 2q-7 2 -13 2t-13 1q-45 2 -89 0
q-19 0 -37.5 -0.5t-38.5 -1.5l-34 -2t-34 -3q-9 -1 -18.5 -1.5t-18.5 -2.5q-11 -1 -21 -2t-20 -3q-17 -2 -34 -4.5t-34 -4.5q-8 -2 -17 -3t-17 -3q-9 -2 -18 -3.5t-17 -3.5l-27 -6q-13 -2 -25 -5l-24 -6q-10 -2 -19.5 -5t-19.5 -5q-12 -3 -23.5 -6.5t-23.5 -6.5
q-13 -3 -26 -8l-26 -10q-18 -5 -32 -12q-19 -6 -37 -14t-35 -18q-6 -3 -12 -7t-12 -7q-2 -1 -2.5 -3t-1.5 -4zM444 -191q-7 -7 -6 -12q2 3 3 6t3 6z" />
    <glyph glyph-name="line05" unicode="_&#x35;" horiz-adv-x="0" 
d="M657 -112q-2 -4 -2.5 -7t-2.5 -8q-2 2 -2.5 3.5t-2.5 3.5q0 -2 -0.5 -2.5t-0.5 -1.5q-2 0 -2.5 0.5t-2.5 0.5q-2 1 -3 0.5t-2 -0.5q-1 2 -1 5q-7 -5 -14 0q-3 2 -5 5t-5 6q-5 2 -11.5 2t-11.5 3h-3q-11 0 -23 2t-24 0h-15q-15 1 -30.5 2t-31.5 1q-16 -1 -31.5 -1.5
t-31.5 1.5q-13 2 -26 1.5t-27 0.5h-53q-3 -1 -5.5 0.5t-5.5 -0.5q-2 -1 -5 1t-6 1h-12h-12h-12h-12q-3 0 -6 0.5t-6 -0.5q-15 -3 -29.5 -2.5t-29.5 0.5t-30 0.5t-29 -1.5q-17 -2 -33 -1t-33 -1q-11 -2 -22.5 -1t-22.5 -1t-22 -1t-22 -1q-8 -2 -16.5 -1.5t-16.5 -1.5t-16 -1
t-16 -1q-7 -2 -14 -1t-14 -1q-6 -2 -12.5 -1.5t-12.5 -1.5q-6 -1 -12 -0.5t-11 -1.5q-6 -2 -12 -1t-11 -1t-10.5 -1.5t-10.5 -0.5q-5 -2 -10.5 -1.5t-10.5 -1.5q-5 -1 -9.5 -0.5t-8.5 -1.5q-5 -2 -9 -1.5t-9 -0.5q-9 -2 -18 -2.5t-18 -2.5q-4 -1 -8 -0.5t-8 -1.5t-7.5 -1.5
t-7.5 -0.5q-8 -3 -16.5 -3.5t-16.5 -3.5q-5 -2 -11 -1t-11 -1q-8 -2 -15 -3t-15 -4q-5 -2 -9 -1.5t-9 -0.5q-8 -2 -14.5 -3t-13.5 -3q-6 -2 -12.5 -3t-12.5 -3t-12 -2.5t-11 -2.5q-6 -2 -11.5 -3t-11.5 -3q-9 -2 -18.5 -5.5t-19.5 -5.5q-11 -2 -22.5 -6.5t-22.5 -8.5
q-8 -2 -15.5 -6.5t-15.5 -9.5l-6 -3q6 -3 11.5 -6t12.5 -5q-5 -2 -8.5 -2.5t-7.5 -1.5h-8.5t-8.5 2q-6 2 -12.5 3.5t-12.5 4.5q-5 2 -9.5 6t-7.5 6q-2 4 -2 5.5t-1 3.5q1 2 1 4t2 4q5 11 18 21q16 13 33 20q11 5 22.5 9.5t23.5 9.5q8 2 15.5 4.5t15.5 4.5q10 3 19.5 6
t19.5 5q6 2 11.5 2.5t10.5 2.5t11 3t11 3q6 2 12.5 3t12.5 2q10 2 19.5 4t20.5 4q9 1 18 2.5t18 3.5q7 2 13.5 2.5t14.5 2.5q4 1 7.5 1t7.5 1q5 2 15 2q8 2 12 2q2 1 5 1t5 1q5 2 9 1.5t9 1.5q6 2 13 1.5t14 0.5q4 1 7 1.5t7 1.5q4 0 7.5 -0.5t6.5 2.5h1q8 1 14.5 1t14.5 1
q5 1 9 1.5t8 1.5q5 0 9 -0.5t9 2.5h1q8 -2 17 0.5t17 1.5q6 0 11.5 1t10.5 1q6 1 11.5 0t10.5 1q8 2 15 1t15 1q12 2 24 1t23 1q12 2 24 1t23 1q20 3 39.5 2t39.5 1t38.5 1.5t37.5 0.5h76h26q10 1 19 -1.5t19 -1.5t19.5 1.5t18.5 -1.5t17.5 -1t16.5 -1t14.5 -1.5t13.5 -0.5
q7 -2 13 -1.5t13 -1.5q5 -1 10 -0.5t10 -1.5t10 -1.5t10 -0.5q4 -2 7.5 -1.5t7.5 -0.5q10 -2 14 -3q11 -3 22 -4t22 -4q5 -2 10 -1.5t10 -1.5q9 -3 18 -4.5t19 -3.5q8 -3 16.5 -5t16.5 -5q6 -2 7 -3q7 -5 13.5 -7.5t13.5 -6.5q3 -2 5 -3.5t6 -3.5z" />
    <glyph glyph-name=".notdef" horiz-adv-x="238" 
 />
    <glyph glyph-name="NULL" horiz-adv-x="0" 
 />
    <glyph glyph-name="NULL" horiz-adv-x="0" 
 />
    <glyph glyph-name="nonmarkingreturn" unicode="&#xd;" horiz-adv-x="238" 
 />
    <glyph glyph-name="space" unicode=" " horiz-adv-x="238" 
 />
    <glyph glyph-name="n" unicode="n" horiz-adv-x="366" 
d="M126 120h2q-1 -2 -1 -5t-1 -5q-5 -12 -9 -24t-12 -23q-2 -2 -6 -8q-12 -13 -26 -6q-5 2 -10 3.5t-12 0.5q-5 3 -9.5 6t-9.5 7q-11 9 -16.5 21t-8.5 25q-4 16 -6 35q0 6 -0.5 12.5t-0.5 13.5q1 11 1.5 22.5t2.5 23.5q1 5 1 11t1 11q2 16 5.5 31t7.5 30q1 5 2.5 9.5
t3.5 9.5q3 15 13 28q2 1 5 1.5t6 2.5q2 -2 5 -3.5t5 -3.5q-1 -2 -1 -3t-1 -3l4 2q0 -3 0.5 -5.5t0.5 -5.5h1q1 3 1 8h2v-8q0 -17 0.5 -34t-0.5 -34q-1 -11 -1 -22.5t-2 -22.5q-2 -24 -1.5 -47.5t0.5 -47.5q0 -5 0.5 -10t1.5 -10l2 -10t3 -10q8 6 12.5 13t8.5 15l28 54t28 55
q8 17 16 35t17 35q6 13 15.5 23.5t20.5 19.5q3 3 7 5l8 4q15 1 29 -8q5 -3 10 -5.5t10 -7.5q8 -8 12.5 -17.5t8.5 -20.5q5 -18 6.5 -36t-0.5 -37q-1 -11 -2 -23t-4 -23q-1 -5 -1 -10.5t-1 -10.5q-2 -6 -1.5 -12.5t-1.5 -12.5q-2 -7 -1.5 -14t-2.5 -14v-2q-1 -10 -1 -19
t-2 -19t-2.5 -19.5t-3.5 -19.5q-1 -2 -0.5 -2.5t0.5 -2.5q-1 -10 -2 -19t-3 -19q-1 -6 -0.5 -12.5t-1.5 -13.5q-2 -5 -2 -9.5t-1 -9.5q-2 -1 -2.5 -2t-2.5 -3l-2 4l-2 -1q-6 2 -11.5 2.5t-10.5 2.5l-1 -1q-1 1 -3 2q-8 3 -11.5 10t-5.5 15q-2 10 -2 17q-2 13 -3 25t-3 24
q-2 17 -3 34.5t-1 34.5q1 10 1.5 20t2.5 20q2 9 2.5 18t2.5 18q2 10 4.5 20t4.5 20q3 16 7 31.5t7 31.5q2 11 4 23t1 23q0 5 -1 9q-3 -3 -5.5 -5t-4.5 -4q-5 -4 -10.5 -8t-10.5 -9l-10 -8t-10 -9q-2 -2 -3.5 -4.5t-3.5 -5.5q-11 -20 -19 -40l-16 -40q-5 -14 -11.5 -27.5
t-13.5 -27.5q1 0 1 -1q0 -2 1 -2q-2 -8 -2 -10q-4 -1 0 -6v6zM121 108q4 1 0 5v-5q-2 0 -2 -1t2 -3v4zM51 171h1v22h-1v-22zM273 35h1v18h-1v-18zM279 101h-1v-15h1v15zM268 -13h1v15h-1v-15zM277 78h-2v-5v-6q0 -2 1 -4h1v15zM294 210h1v15h-1v-15zM280 107h1v12h-1v-12z
M292 202h-1v-11h1v11zM283 135h-1v-10h1v10zM266 -45h1v11h-1v-11zM52 140h-1v-8h1v8zM286 152h-1v-9h1v9zM288 168h-1v-9h1v9zM290 184h-1v-9q1 0 1 0.5t1 0.5q-1 2 -1 8zM61 316h-1v-8h1v8zM53 221h1v8h-1v-8zM59 287h-1v-9h1v9zM271 17h1v8h-2q0 -5 1 -8zM57 259h-2
q0 -4 1 -6h1v6zM132 131v-4h-1v4h1zM128 120v5q4 -4 0 -5z" />
    <glyph glyph-name="k" unicode="k" horiz-adv-x="282" 
d="M223 360q16 2 27 -8q2 -1 3.5 -1.5t3.5 -1.5q9 -6 11 -17q3 -16 0 -31t-8 -29q-17 -55 -64 -94q-11 -10 -23 -16.5t-25 -11.5q-5 -2 -9 -4t-9 -4l36 -54t24.5 -37t20.5 -29.5t24 -30.5q4 -4 7.5 -7t7.5 -7q9 -6 7 -18l-6 -3q-2 0 -3.5 0.5t-3.5 0.5v-1h-2q-5 5 -11.5 6
t-12.5 3l-8 2t-7 3q-12 6 -21.5 14t-19.5 17q-13 13 -23 29.5t-17.5 33.5t-13.5 33.5t-11 28.5q-5 -4 -6 -9.5t-3 -10.5q-8 -17 -8 -41q0 -8 -1.5 -17t-2.5 -18q-1 -3 -2 -5.5t-3 -5.5q-3 0 -6 0.5t-6 0.5q-3 1 -13 5v1q-1 1 -1 2q-1 -1 -1 -1.5t-2 -2.5q0 2 -2 6
q-1 -2 -1.5 -2.5t-1.5 -2.5q-4 2 -7.5 3t-5.5 3q-6 6 -7 11q-7 25 -8 45q-1 9 -1.5 18t-2.5 17v2q-1 11 -1.5 21.5t-1.5 21.5q-2 33 -2 65.5v65.5q1 21 1 42.5t2 43.5q1 11 0.5 21.5t1.5 21.5t1.5 21t2.5 21v4q0 12 1.5 24.5t3.5 24.5q1 7 1 14t1 15q2 11 4 22.5t4 22.5
q2 8 3.5 14.5t5.5 13.5q2 2 4 4.5t4 5.5q8 -4 15.5 -7.5t13.5 -9.5q3 -15 4 -30l2 -30q3 -42 2.5 -82.5t-0.5 -82.5q1 -42 0.5 -83.5t-0.5 -83.5q0 -13 1 -26t2 -27q2 2 2.5 3l1.5 3q16 30 33 59t37 57q6 9 12.5 17.5t14.5 16.5q5 5 8.5 9.5t8.5 8.5q11 8 24 14zM115 175h2
v-8q8 4 15.5 7t14.5 7q22 14 38 32.5t28 41.5q8 13 12 27t9 28q4 13 2 32q-7 -4 -12.5 -8t-10.5 -9q-4 -4 -6.5 -8t-7.5 -6q-8 -4 -12.5 -10.5t-9.5 -12.5q-9 -11 -17 -23.5t-16 -24.5q-6 -10 -11.5 -20t-10.5 -19q1 -3 1 -4.5t1 -3.5q-2 0 -2 -5q-4 -2 -5 -3v-6q-2 0 -2 -4
q-4 -1 -1 -5q0 2 1 3v2zM66 344h-1v-141h1v141zM265 330h-1v-7v-8v-7l1 1v21zM65 604h1v12h-1v-12zM67 487h1v6h-1v-6zM91 126h-1v-3h2q-1 1 -1 3zM263 300h-1v-3h1v3zM126 193v5q4 -4 0 -5zM124 188v5h2q0 -4 -2 -5zM121 189h3q-2 -4 -3 -5v5zM119 179q0 5 3 5
q-1 -2 -1.5 -2.5t-1.5 -2.5zM117 175v4h2q0 -2 -2 -4z" />
    <glyph glyph-name="d" unicode="d" horiz-adv-x="328" 
d="M172 283q4 11 8 21.5t8 21.5q5 10 8.5 20t8.5 19q5 11 7 25q1 8 2 16.5t3 16.5q1 5 1.5 10t1.5 10l4 24l4 24q4 20 8 40.5t12 40.5q2 5 4.5 10t7.5 9q6 2 10 -0.5t9 -4.5t9.5 -5t9.5 -6q0 -9 0.5 -19t-0.5 -20q-2 -14 -2.5 -27.5t-2.5 -27.5q-1 -14 -2 -28.5t-2 -29.5
q-1 -6 -1 -12.5t-1 -12.5q-2 -14 -3 -28.5t-2 -28.5q-1 -7 -1 -14t-1 -14q-2 -9 -1.5 -17.5t-1.5 -17.5q-2 -11 -1 -21t-1 -21q-2 -13 -1 -25.5t-1 -25.5q-2 -14 -1.5 -28.5t-1.5 -28.5q-1 -11 -0.5 -21t-1.5 -21q-1 -8 -1 -15.5t-1 -15.5q-2 -15 -2.5 -29.5t-2.5 -29.5
q-2 -25 -1.5 -49.5t-0.5 -49.5v-1q-1 -1 -1 -1.5t-1 -1.5q-1 0 -3 -1q-2 4 -2 5q-1 -2 -4 -5q-1 1 -1.5 2t-1.5 2l-10 2l-10 2q-15 0 -18 19q-2 11 -3.5 21t-1.5 21q-1 8 -2 16.5t-2 16.5v1q-1 12 -1 24t-2 24q-3 29 -2.5 58t0.5 58t3 58q1 9 1 17.5t1 16.5q2 12 3 24t1 25
q0 4 -1 6l-6 -18t-6 -17q-8 -23 -16.5 -45.5t-17.5 -44.5q-6 -15 -12 -29.5t-13 -28.5t-12 -22.5t-10 -15t-12 -14t-18 -17.5q-11 -5 -20.5 -3t-19.5 5q-20 6 -28 27q-14 35 -9 71q8 61 44 107q18 23 39 37q25 16 54 4q8 -5 17 -9.5t17 -9.5zM50 68q5 2 9 4.5t8 5.5
q14 13 24.5 28t19.5 32q8 17 17 35t17 36q2 5 3.5 9t3.5 9q8 22 16 41v3q-1 1 -1.5 2.5t-1.5 3.5q-4 2 -7.5 4t-6.5 4q-5 2 -13 6q-16 -5 -25.5 -15t-17.5 -22q-22 -29 -34 -66q-8 -24 -13 -48t-4 -49q1 -6 2 -11.5t4 -11.5zM258 142h1v34h-1v-34zM255 92h2v28q-1 0 -2 1
v-29zM261 224h-1v-27h1v27zM250 -19h-1v-24h1v24zM264 265q-4 -14 0 -24v24zM251 14h1v22h-1v-22zM253 53h1v20h-1v-20zM265 280h1v20h-1v-20zM268 327h-1v-15h1v15zM269 339h1v16h-1v-16zM273 380h-1v-13h1v13zM282 476h-1v-11h1v11zM279 451h-1v-11h1v11zM275 402h-1v-9h1
v9zM277 428h-1v-11h1v11zM284 497h-1v-8h1v8zM249 -80h1v9h-1v-9zM285 514l1 -1v7h-1v-6zM39 130h-2q1 -2 1 -5h1v5zM288 534q0 1 1 1v3h-2q1 -1 1 -4z" />
    <glyph glyph-name="h" unicode="h" horiz-adv-x="328" 
d="M73 136q8 13 14.5 25.5t14.5 25.5q14 24 27 49t30 48q5 7 10.5 14t11.5 14q11 12 22 25.5t20 27.5q3 5 8.5 10t10.5 8q4 -2 7.5 -3.5t7.5 -3.5q14 -5 21 -24q2 -6 2.5 -12t2.5 -12q2 -12 1.5 -24.5t-0.5 -25.5q1 -5 0 -9t-2 -9q0 -4 0.5 -8t-2.5 -8v-5q0 -10 -1 -20
t-3 -20q-2 -8 -2 -15.5t-1 -15.5q-1 -11 -1.5 -23t-2.5 -24v-2q-1 -11 -1 -21.5t-2 -21.5q-2 -9 -1.5 -18.5t-2.5 -18.5v-2q-1 -10 -1 -20t-2 -20q-1 -8 -2 -15.5t-2 -15.5q-1 -14 -1.5 -27t-1.5 -28q-2 -1 -3.5 -2t-3.5 -3q-1 2 -1.5 2.5t-1.5 2.5l-4 -4l-9 6l-4 -2
q-4 4 -5 7q-1 -2 -3 -4q0 1 -2 3q-1 0 -1.5 -0.5t-2.5 -0.5h-5q-2 2 -3 4h-6q-6 5 -8.5 11t-4.5 12t-2 12v12q-1 4 -1.5 8t-1.5 8v9t-2 8q-1 2 -0.5 3.5t0.5 3.5q0 15 -0.5 30t0.5 29q1 10 1.5 19t2.5 18q1 2 0.5 3t-0.5 3l2 18t3 18q1 6 1 12t1 12q2 14 4 26.5t5 25.5
q3 16 6.5 31.5t7.5 30.5q4 12 7.5 24t7.5 23q3 8 4 15.5t6 13.5q1 2 0.5 4t-0.5 5q-5 -6 -11 -11.5t-9 -13.5q3 2 5.5 3t4.5 3l1 -1q-8 -9 -15 -18t-14 -19q-8 -10 -14.5 -20t-13.5 -21t-13 -21t-12 -21q-5 -10 -9.5 -20.5t-9.5 -20.5q-7 -14 -14.5 -27.5t-13.5 -27.5
q-8 -16 -15 -32l-14 -32q-5 -9 -9 -18.5t-9 -18.5q-1 -3 -4 -6q-6 -1 -11 2.5t-11 1.5q-2 1 -4.5 2t-5.5 2q-5 7 -6.5 15t-3.5 16q-2 10 -2 19t-2 18q-1 12 -1 24t3 24v7q1 11 1 21t2 21q2 16 4.5 31.5t5.5 32.5q5 29 12 58l14 58q4 17 9 32.5t10 31.5q5 20 12 38.5t15 37.5
q5 14 11.5 26.5t14.5 24.5q4 5 7.5 9t7.5 9h12q5 -3 11 -6t13 -7q3 -4 3 -8.5v-9.5q-2 -8 -3 -14.5t-3 -14.5q-5 -23 -10.5 -44.5t-11.5 -44.5q-5 -22 -10.5 -43.5t-11.5 -44.5q-2 -11 -4.5 -22.5t-5.5 -22.5q-2 -12 -4.5 -24t-5.5 -23l-4 -20l-4 -20q-2 -11 -5 -22.5
t-5 -22.5q-2 -8 -4 -15.5t-4 -15.5q-1 -2 -0.5 -3t0.5 -3h1zM274 299h1v31h-1v-31zM249 40h1v22h-1v-22zM257 140h-1v-20h1v20zM252 87h-2v-6v-8q1 -2 1 -5h1v19zM246 13q1 0 2 -1v20h-2v-19zM245 5h-1v-7q0 -2 -0.5 -4t0.5 -4v-5h1v20zM253 95h1v20h-1v-20zM242 -45h1v17
q-1 0 -1 1v-18zM258 148h1v6v6v5l-1 -1v-16zM273 282h-1v-13h1v13zM263 206h-1v-13h1v13zM261 185q-1 -5 -1 -6.5t1 -6.5v13zM267 232h1v11h-1v-11zM266 224q-2 -4 -2 -5t2 -6v11zM269 251h1v8h-1v-8zM89 281h-1q0 -3 1 -5v5zM105 350h-1v-3h2q-1 1 -1 3zM103 341h-1v-3h1v3
zM96 312h-1v-4h1v4zM93 298l1 2q0 1 -0.5 1t-0.5 1v-4zM91 287h1v4h-1v-4zM87 270h-1v-3h1v3zM84 255h1v4h-2q1 -2 1 -4zM81 244h2q0 2 -1 4q-1 -2 -1 -4zM58 134h1v3h-1v-3zM61 145l1 1v3h-1v-4zM65 166h2q0 1 -0.5 1.5t-0.5 1.5h-1v-3zM68 177h1v4h-1v-4zM73 201h-1
q0 -2 1 -3v3zM76 213h-2q1 -1 1 -3h1v3zM78 225h-1v-4h1v4zM81 236h-2v-4h1q0 2 1 4z" />
    <glyph glyph-name="f" unicode="f" horiz-adv-x="196" 
d="M47 285q-14 -6 -26.5 -11.5t-25.5 -10.5q-5 -2 -5.5 -2.5t-0.5 0t-0.5 1t-5.5 0.5q-2 0 -3.5 3.5t-4.5 3.5q3 4 5.5 7.5t6.5 5.5q7 5 10.5 7t6.5 3.5t6.5 3t11.5 5.5l12 6t11 7q2 1 3 2t3 2q2 13 2.5 25t2.5 24q4 20 6.5 41t7.5 41q8 32 18.5 61.5t26.5 58.5q6 11 13 20
t16 17q6 5 13 10t15 7t15.5 2.5t15.5 -4.5q6 -2 11.5 -5t11.5 -6q-1 -1 -1 -2t-1 -2q-19 -13 -32 -36q-12 -23 -20 -47t-15 -49q-4 -15 -7 -29.5t-6 -29.5q-2 -5 -2 -10.5t-1 -10.5l-2 -12t-2 -13q-1 -3 -0.5 -6.5t0.5 -7.5q20 8 40.5 14t41.5 11q9 -2 17 -7t18 -9
q-2 -2 -3.5 -3t-3.5 -2q-9 -4 -18 -7.5t-17 -8.5q-16 -8 -31.5 -12.5t-32.5 -10.5l-18 -6q-2 -20 -3 -36q-2 -16 -2.5 -32t-2.5 -32q-1 -11 -0.5 -20.5t-1.5 -19.5q-2 -9 -1.5 -18.5t-2.5 -18.5q-1 -2 -0.5 -3.5t0.5 -3.5q-1 -6 -1 -12.5t-2 -13.5q-2 -8 -2.5 -16t-1.5 -16
q-2 -11 -2 -21t-2 -21q-1 -1 -1 -4q0 -11 -0.5 -21.5t-1.5 -21.5q-1 -6 -1 -12t-1 -11q-1 -2 -1.5 -4t-1.5 -4q-6 -1 -13 2q-4 2 -6 2q-14 0 -19 14q-1 14 -1 27t-2 27q-2 11 -1.5 22t-1.5 22t-1.5 22.5t-1.5 22.5q-2 9 -2 18t-1 18q-1 11 -1.5 21t-0.5 21v42q0 11 0.5 21
t1.5 21v10zM108 203q-1 -6 -1.5 -12t1.5 -12v24zM111 244q-4 -11 0 -19v19zM112 259h1v15h-1v-15zM106 155h-1v-13h1v13zM115 297h-1v-5v-5h1v10zM124 370h-1v-7h1v7zM127 386h-2q0 -4 1 -5h1v5zM121 349h1v5h-1v-5zM104 120h-2q0 -1 0.5 -2t0.5 -3h1v5zM96 26h1v5h-1v-5z
M136 439h-1v-3h1v3zM133 424v4v-4zM130 410h1v4h-1v-4zM129 400h-1v-3h1v3zM98 65h1v3h-1v-3zM101 98h-1v-4h2q-1 1 -1 4z" />
    <glyph glyph-name="s" unicode="s" horiz-adv-x="226" 
d="M131 139q-2 -5 3 -12q21 -35 32 -69q5 -19 8.5 -37.5t1.5 -38.5q-5 -33 -22 -59q-24 -35 -66 -42q-8 -2 -14.5 -2h-14.5q-19 2 -35 9q-7 4 -12.5 9.5t-7.5 13.5q-4 11 -4.5 21.5t1.5 21.5q3 22 10.5 41.5t18.5 39.5q8 15 16.5 29t19.5 28q4 5 7.5 9.5t7.5 9.5
q-5 8 -9.5 16t-9.5 16q-8 11 -15 22t-15 22q-6 8 -10.5 17t-6.5 20q-2 7 -3 13.5t1 14.5q1 7 2 13.5t3 12.5t3.5 11.5t4.5 10.5q8 15 16.5 28.5t21.5 24.5q6 5 13 9t12 7h18q5 -2 9.5 -4.5t9.5 -4.5q-11 -9 -17 -21t-11 -24q-3 -8 -6 -16.5t-5 -17.5q-3 -11 -4 -22t-1 -22
q-1 -17 4.5 -32.5t14.5 -29.5l8 -12t9 -12q2 2 3 2.5t3 2.5l9.5 9.5l9.5 9.5q10 9 19.5 19t20.5 19q12 10 23.5 19.5t25.5 17.5l21 12q6 2 9 2h18l4 -4l-2 -2q-14 0 -25.5 -6t-22.5 -14q-14 -10 -26.5 -20t-23.5 -23q-13 -14 -26.5 -28t-26.5 -28zM32 -9q-1 2 -1 4h-2l3 -3
q0 -5 -2 -9.5t-4 -9.5l-1.5 3l-1.5 3v-8q-6 -4 0 -7q-1 -3 -1 -9h-1q-1 2 -1 3.5t-1 3.5q-3 -14 -3.5 -20t1.5 -11q-1 -5 -1 -7.5t-1 -4.5q5 -5 5 -6q3 -14 13 -19q5 -5 11 -3.5t11 2.5q17 4 29.5 12.5t20.5 24.5q6 12 8 25t3 27q1 11 -0.5 22t-3.5 22q-3 15 -8 29.5
t-11 28.5q0 1 -4 5q-2 -4 -4 -6q-4 -7 -8 -13t-9 -13l-18 -30q-4 -7 -7 -14t-7 -14l-2 -4zM165 -17h1v15h-1v-15zM69 235h1v6h-1v-6zM27 -16h-2q0 -2 1 -3h1v3zM19 -56v6h1v-6h-1zM22 -36v7q3 -4 0 -7z" />
    <glyph glyph-name="u" unicode="u" horiz-adv-x="283" 
d="M113 80q-1 -5 -4 -8.5t-6 -7.5q-5 -7 -10.5 -13t-13.5 -10q-11 -1 -23 3q-4 2 -8 2.5t-8 1.5q-22 8 -30 33q-3 8 -4.5 15.5t-3.5 15.5q-2 17 -2 33.5t1 33.5q1 11 2.5 22.5t3.5 22.5q4 28 12 57q4 20 14 41q2 3 4.5 6t4.5 6q7 -1 11 -4t9 -5q0 -2 0.5 -3t0.5 -3q2 0 4 1
q0 -2 1 -3t1 -3q0 -11 0.5 -21t-0.5 -20q-2 -14 -2.5 -27t-2.5 -26q-1 -8 -0.5 -15.5t-1.5 -15.5q-2 -17 -1.5 -33t-0.5 -33q0 -2 -2 -10v-5q2 -8 1.5 -17t1.5 -17q0 -1 2 -3q6 3 10 7q22 28 39 60q10 19 19.5 38t20.5 38q4 8 5.5 17t3.5 17q5 23 8.5 45t11.5 43q2 4 3 7
t3 7h4h6q9 -5 17.5 -8.5t16.5 -8.5q4 -6 5.5 -13.5t1.5 -15.5q1 -16 1.5 -31.5t-1.5 -31.5v-19t-2 -18q-2 -8 -1.5 -15.5t-0.5 -15.5q-2 -9 -1.5 -17.5t-1.5 -17.5q-2 -10 -1 -20t-1 -20q-1 -8 -1 -4.5t0.5 9t1 8.5t-0.5 -5q-1 -10 -1 -19.5t-1 -19.5q-2 -8 -4 -16.5
t-4 -16.5q-1 -5 -2.5 -10.5t-3.5 -10.5q-2 -8 -8 -12q-7 0 -14 4q-4 2 -8 2.5t-8 1.5q-1 0 -2 -0.5t-3 -0.5q-5 5 -11 8.5t-8 11.5q-1 5 -2.5 10.5t-1.5 10.5q0 13 -3 25.5t-1 26.5q1 7 0.5 4t-0.5 -9t-0.5 -9.5t0.5 4.5q1 9 0.5 17.5t1.5 17.5q2 8 2 14.5v14.5v6
q-10 -20 -19.5 -38t-18.5 -36v-9q1 1 2 1t2 1zM213 68h-2q0 -6 0.5 -1t0.5 12.5t0.5 13t0.5 -0.5q1 -1 2 -1q0 6 -0.5 1t-0.5 -12.5t-0.5 -12.5t-0.5 1zM214 83h1v31h-1v-31zM217 127q0 -1 1 -1v22h-1v-21zM227 265h-1v-20h1v20zM50 164h-1v-17h1v17zM221 186h1v17h-1v-17z
M220 175q-1 0 -2 1v-7v-5q0 -2 0.5 -3t0.5 -2h1v16zM223 213h1v18h-1v-18zM212 61h1v17h-1v-17zM63 300h1v11h-1v-11zM52 188v8v-8zM58 257h1v6h-1v-6zM208 42h-1v-6h1v6zM54 215h1v7h-1v-7zM62 283h-2q1 -1 1 -3h1v3zM56 238q1 1 1 2v1q0 1 -0.5 1t-0.5 2v-6zM210 53h-1
q0 -2 1 -3h1q0 1 -0.5 1.5t-0.5 1.5zM206 28h-1v-4q1 0 1 1v3zM113 80v5q3 -3 0 -5z" />
    <glyph glyph-name="q" unicode="q" horiz-adv-x="299" 
d="M151 195q-2 -5 -3 -9t-6 -7q0 3 -1 4q-1 0 -1 -1q1 -1 1 -1.5t1 -1.5q-1 -2 -2 -5l-2 -6q-21 -42 -50 -80q-6 -8 -13 -14.5t-17 -10.5q-6 -2 -12 -0.5t-11 3.5t-9 2t-8 3q-10 5 -13 15q-2 6 -3 12.5t-2 12.5v14q-1 11 1 23t4 23q5 22 12 41q6 17 14.5 32t19.5 29
q16 20 38 26q19 6 37 -3q4 -2 8 -4.5t8 -4.5l9 -9q2 -2 3.5 -4t3.5 -4q3 7 6 13l6 12q5 12 8.5 24.5t7.5 25.5q2 6 3.5 12.5t3.5 13.5q2 8 8 12q7 -2 13.5 -4.5t12.5 -7.5q2 -1 3.5 -2t3.5 -2q8 -1 10.5 -6.5t2.5 -10.5q1 -11 1 -21t-2 -21q-1 -2 -1 -5q0 -11 -0.5 -22.5
t-1.5 -22.5q-2 -13 -3 -25t-2 -25q-2 -12 -2.5 -24t-2.5 -24q-2 -9 -1 -18.5t-3 -18.5v-1q0 -11 -0.5 -22.5t-1.5 -22.5q-1 -6 -1.5 -11.5t-0.5 -11.5q-1 -5 -0.5 -11t-1.5 -11v-1q-1 -11 -1.5 -20.5t-1.5 -20.5q-1 -12 -1.5 -24.5t-2.5 -24.5v-3q-1 -11 -1 -21.5t-2 -21.5
q-2 -9 -2 -18t-2 -19q-2 -5 -1.5 -10t-0.5 -10q-2 -10 -4.5 -19t-4.5 -19q-2 -6 -3.5 -12t-3.5 -12q-2 -1 -3.5 -2l-4.5 -3v14h-1q0 -3 -0.5 -5.5t-0.5 -4.5q-6 -3 -7 3h-10q-2 4 -2 5q-2 -2 -4 -3q-1 2 -1.5 2.5t-1.5 2.5q-2 -2 -2 -4q-11 4 -17 7.5t-8 16.5l-4 40t0 40
q1 11 1 21t3 21v2l3 42q0 5 0.5 9t1.5 9t0.5 9t1.5 9v4l3 39q1 11 2 22.5t2 22.5q2 10 2.5 19.5t2.5 19.5q2 14 3.5 27t3.5 27q0 2 2 10q-4 -2 -5 -3v5q4 1 0 5v-5l-2 -2q2 -2 2 -3zM39 92q17 14 29.5 29.5t23.5 32.5l45 75q7 11 5 20q-3 11 -7.5 21t-15.5 17
q-10 -2 -17.5 -7t-13.5 -12q-8 -8 -14 -17.5t-10 -20.5q-5 -12 -9 -24t-7 -24q-4 -13 -5 -25.5t-3 -25.5q-2 -9 -1.5 -18.5t0.5 -20.5zM206 -4h-1v-25h1v25zM207 1h1v25h-1v-25zM202 -56h1v22h-1v-22zM212 61h1v22h-1v-22zM237 331q1 5 1.5 11t-1.5 11v-22zM200 -85
q3 10 0 21v-21zM215 110q-1 -5 -1.5 -9.5t1.5 -9.5v19zM209 33q3 10 0 20v-20zM199 -92q-1 -5 -1.5 -9.5t1.5 -9.5v19zM195 -138q1 0 2 -1v7v8q0 3 -1 5h-1v-19zM217 136h-1v-18h1v18zM218 143h1v18h-1v-18zM193 -159q1 3 1.5 6.5t-1.5 8.5v-15zM220 171h2v6v6h-2v-12z
M234 301h1v11h-1v-11zM34 131h-1v-11h1v11zM233 287h-1v-11h1v11zM228 235h1v10h-1v-10zM224 204h-1v-11h1v11zM226 224l-1 1v-11h1v10zM231 266h-1v-11h1v11zM191 -173h1v8h-1v-8zM35 146h1v3h-1v-3zM33 95h1v4h-1v-4zM190 -178h-1v-4h1v4zM187 -190h-1q0 -1 0.5 -1.5
t0.5 -1.5v3zM184 -205h1v3h-1v-3zM41 176h-2q1 -1 1 -3h1v3zM38 165v-4v4z" />
    <glyph glyph-name="g" unicode="g" horiz-adv-x="279" 
d="M120 127q-5 -1 -5 -7q-1 -1 -3 -5l-1 -1q-4 -3 0 -6l-1 1q1 -5 -1.5 -8t-4.5 -6q-8 -11 -15 -21.5t-17 -19.5q-5 -5 -9.5 -8.5t-9.5 -7.5q-8 -1 -14 -0.5t-13 3.5q-1 0 -2 0.5t-3 0.5q-8 1 -15.5 8t-9.5 16q-2 11 -2 25.5t2 25.5q2 17 7 33t11 32q13 32 36 55
q17 17 40 20q10 1 22 -4q6 -2 11.5 -5t10.5 -6q4 -2 7 -5t6 -5v-7q-2 0 -8 -2q-6 6 -11.5 11t-15.5 7q-5 -2 -10.5 -4.5t-10.5 -6.5q-8 -7 -15 -15.5t-12 -17.5q-11 -20 -18.5 -41t-10.5 -44q-1 -5 -1.5 -9.5t-1.5 -9.5q-2 -7 -2 -14t1 -14q3 -1 5 0.5t4 3.5q24 23 46 54
q12 18 23.5 35.5t22.5 36.5q5 8 9 15t6 16q6 2 8.5 7.5t5.5 10.5q7 13 13.5 25.5t12.5 25.5q3 5 4.5 9t3.5 9l2 4l2 4q10 -2 17.5 -6.5t15.5 -9.5q0 -10 0.5 -19.5t-1.5 -18.5q-2 -11 -1 -21t-1 -21q-2 -9 -1.5 -18.5t-2.5 -18.5v-3q-1 -9 -1 -18.5t-2 -18.5
q-1 -12 -2.5 -23.5t-3.5 -23.5q-1 -7 -1.5 -14t-1.5 -14q0 -3 -0.5 -5.5t-0.5 -6.5l2 -2h2q8 5 16 10.5t16 10.5q3 -3 4 -5l-4 -2l-4 -2q2 -1 4.5 -2t4.5 -2q-11 -6 -20.5 -11t-17.5 -10q-6 -4 -6 -9.5t-2 -10.5q-2 -6 -2 -12.5t-1 -12.5q-2 -9 -3.5 -18t-2.5 -18
q-1 -7 -2 -13.5t-3 -14.5q-2 -13 -5 -25t-6 -25q-6 -20 -13 -38.5t-17 -36.5q-13 -24 -32 -48q-8 -11 -17.5 -19.5t-20.5 -16.5q-20 -14 -44 -11q-8 2 -16.5 3.5t-16.5 5.5q-11 5 -16 14.5t-7 20.5q-1 14 2 26t8 25q7 19 15 34q20 39 48 76q7 8 14 16.5t15 16.5q5 5 8.5 9.5
t8.5 9.5l14 12l14 12q3 2 5.5 5t5.5 6q8 50 16.5 100.5t17.5 102.5q-6 -10 -12 -19.5t-12 -18.5q-3 -4 -6 -7t-6 -7q-2 -4 -5 -8t-4 -9q-5 -2 -7 -12v1q-2 -1 -2 -5zM44 -143q-1 -1 -1 -1.5t-1 -1.5l2 -2q-7 -19 -16 -32q0 1 -0.5 2t-0.5 2h-1v-4q-4 -1 0 -5v5h2v-4
q-5 -11 -8 -21t-5 -21q-3 -19 5 -34q9 4 20.5 13.5t18.5 19.5q15 18 25.5 38.5t18.5 42.5q10 26 16 52.5t12 52.5q0 3 -1 7q-8 -10 -16 -19.5t-16 -17.5q-10 -11 -18 -23t-17 -24q-2 -4 -3.5 -8t-6.5 -6q0 3 -1 4l-1 -1q2 -2 2 -3q-1 -4 -2 -7t-5 -5v5q-1 0 -2 -1v-3z
M10 -234h1v10h-1v-10zM226 291l1 -1v8h-1v-7zM223 263h1v8h-1v-8zM221 233h2q-1 3 -1 8h-1v-8zM215 170h-1v-6h1v6zM210 126h1q0 3 -1 5v-5zM208 113h-1v-6h1v6zM26 100h2q0 2 -0.5 3t-0.5 3l-1 -1v-5zM25 80h-1v-5h1v5zM131 -25q-2 -3 -4 -5q4 -3 4 5zM12 -218h2v5h-2v-5z
M19 -196h2q0 1 -0.5 2t-0.5 2h-1v-4zM18 -199h-1v-3h2q0 1 -0.5 1.5t-0.5 1.5zM10 -248h2q-1 1 -1 3h-1v-3zM201 54h1q0 3 -1 4h-1q0 -3 1 -4zM189 -26l1 1q0 2 -1 4v-5zM203 72h1v4h-2q1 -1 1 -4zM205 91h1v3h-1v-3zM192 -6h-1v-4h1v4zM195 9h-2q0 -1 0.5 -1.5t0.5 -1.5h1
v3zM213 150h-1v-4h1v4zM217 187v4v-4zM220 213h-1v-3h1v3zM16 -206h-1v-3h1v3zM111 114l1 1h3v1q0 -6 -5 -7l1 -1v6zM115 120l2 -2q0 -2 -2 -2v-1v5zM122 131q1 0 1 -0.5t1 -0.5q-2 -2 -2 -3v5v-1zM129 143q0 -1 2 -3l-1 -1q-1 1 -1 4zM44 -148v5h2q0 -5 -2 -5z" />
    <glyph glyph-name="b" unicode="b" horiz-adv-x="293" 
d="M72 557q8 0 15 -4t15 -6q1 -2 2.5 -5.5t1.5 -6.5q2 -12 2 -25t-1 -27q-2 -11 -1 -21t0 -21l-2 -18l-2 -18t-0.5 -17.5t-0.5 -16.5q-1 -11 -2 -20.5t-1 -20.5q-2 -5 -2 -10.5t-1 -10.5q0 -10 -1 -20l-2 -20q0 -5 0.5 -11t-0.5 -11q0 -4 -0.5 -8t-0.5 -9q3 5 5.5 9t3.5 9
q7 17 15.5 31.5t18.5 29.5q7 12 19 23q13 15 32 5q4 -2 7.5 -3.5t7.5 -3.5q8 -3 13.5 -10t10.5 -15q9 -19 14 -42q3 -11 4 -21.5t2 -21.5q1 -13 0.5 -25t-2.5 -24q-2 -14 -3.5 -27t-4.5 -26q-3 -14 -8 -26.5t-14 -24.5q-7 -8 -15 -13.5t-19 -7.5q-9 -1 -17.5 -0.5t-17.5 2.5
q-8 2 -14 2q-24 3 -45 18q-1 -7 -1 -13t-1 -11q-2 -18 -5 -36.5t-9 -35.5q-1 -4 -2.5 -8t-6.5 -6q-5 2 -9.5 1.5t-7.5 4.5q-4 -2 -8 -1.5t-8 1.5q-3 3 -5 6t-4 5q-5 19 -6 39q-1 5 -0.5 10.5t0.5 11.5q-2 11 0 22q0 6 -0.5 12.5t-0.5 12.5q2 14 1 26.5t0 25.5q0 11 1 23
t1 23q1 11 0.5 22t0.5 22t1 21.5t1 21.5q1 9 1 18t1 18q1 11 2 22.5t2 23.5l9 57q3 17 6 33.5t5 33.5q3 16 6.5 31t9.5 30q2 5 5 11t9 11zM87 114q14 -21 35 -38q17 1 26 15q8 11 12.5 23.5t8.5 26.5q14 59 16 125q0 7 -0.5 13t1.5 12q2 8 -1 15.5t-4 15.5q-1 2 -2 2t-2 2
q-5 -4 -9 -7l-8 -6h-3q-2 -3 -5 -5.5t-6 -5.5q3 -3 3 -5q-8 -13 -14.5 -25t-11.5 -26q-7 -15 -12.5 -30.5t-13.5 -29.5q-5 -11 -7 -22t-2 -23q0 -6 -0.5 -12.5t-0.5 -14.5zM233 216h2q0 3 -1 5v8q-2 -4 -2 -6t0.5 -3.5t0.5 -3.5zM78 218h-1q0 -5 1 -8h1q-1 3 -1 8zM83 305h1
q0 2 -0.5 3t-0.5 3h-1q0 -2 0.5 -3t0.5 -3zM81 292h2q0 3 -1 5h-1v-5zM81 283h-1v-5h1v5zM80 267h-1q1 -2 1 -6h1q0 4 -1 6zM80 251h-1v-6h1v6zM78 229h1q0 4 -1 6l-1 -1q1 -2 1 -5zM96 466h-1v-3h1v3zM91 397q-1 -1 -1 -2t2 -4q-1 3 -1 6zM88 360h-1v-4h1v4zM86 345h1v4h-1
v-4zM84 322h-1v-3h1v3zM231 261h-1v-4h1v4zM71 69l-1 -2q0 -1 0.5 -1.5t1.5 -2.5q-1 3 -1 6zM70 51h1v3h-1v-3zM233 193l2 1l-2 4v-5zM78 200h-1v-4h1v4z" />
    <glyph glyph-name="x" unicode="x" horiz-adv-x="245" 
d="M6 24q0 -1 -2 -7l-4 2q-1 -2 -2 -3t-2 -3q-3 0 -5.5 0.5t-5.5 0.5l-4 4q17 35 34 69.5t41 66.5q1 6 -2 13q-12 23 -20.5 47t-16.5 48q-3 10 -5.5 20t-0.5 21l8 8q15 -6 28 -13.5t21 -21.5q14 -22 27 -50q2 -2 3 -5t3 -5q20 20 40.5 39t46.5 32q6 2 10 3q0 -14 -9 -22
q-8 -8 -16.5 -15.5t-16.5 -15.5q-12 -11 -22 -24t-21 -27q4 -8 7 -15t7 -14q11 -23 21.5 -45.5t19.5 -45.5q5 -14 12 -26.5t14 -26.5q2 -5 6.5 -7t9.5 -4q-2 -3 -8.5 -6.5t-23.5 -10.5q-5 2 -11.5 4t-12.5 4q-5 10 -9 19l-8 18q-4 10 -13 21q-12 15 -23 31t-20 33l-4 6t-4 7
q-5 -8 -9 -14t-9 -13q-11 -16 -21 -32l-20 -32q-2 -3 -4 -6.5t-4 -6.5q0 3 -1 4l-1 -1q1 -1 1 -1.5t1 -1.5z" />
    <glyph glyph-name="p" unicode="p" horiz-adv-x="305" 
d="M245 263q1 -2 2.5 -4t1.5 -4q1 -11 2 -22.5t-1 -22.5q-6 -39 -28 -68q-3 -5 -7 -8.5t-8 -7.5q-9 -8 -18.5 -14.5t-20.5 -9.5q-14 -4 -26 -8t-26 -5l-4 -2q-6 2 -12 3.5t-13 3.5q-1 -3 -2 -5.5t-2 -4.5q-2 -13 -6 -24.5t-7 -24.5q-2 -8 -1.5 -15.5t0.5 -15.5q2 -10 2 -15
v-25q0 -8 1 -15t1 -15t-0.5 -15t1.5 -15q2 -22 1 -44t1 -44l-4 -4q-6 2 -8 1q-2 2 -4.5 2.5t-4.5 1.5t-3.5 1t-2.5 3l-3 -3q-13 1 -16 15q-6 18 -9 38q-2 9 -3.5 18.5t-3.5 18.5q-1 7 -1 13.5t-2 13.5q-2 9 -2 17.5t-2 17.5v2q-1 11 -1 22.5t-2 22.5q-2 21 -1.5 42.5
t-0.5 42.5q-1 8 -2 15t0 15q2 17 1.5 33t1.5 33q1 9 1 18t1 18q2 14 2.5 28.5t1.5 28.5q2 16 6 43t7 43q2 8 4 16.5t7 15.5h9q4 -2 8 -4.5t9 -5.5q3 -7 2.5 -14.5t1.5 -15.5q1 -8 0.5 -18.5t-1 -22.5t-1 -23t0.5 -18q3 -34 2 -67.5t0 -67.5q1 -10 1.5 -19.5t0.5 -20.5l2 1
q10 9 13.5 21t7.5 24l12 34t14 33q8 19 18 35q5 9 13 20q2 3 4.5 7t4.5 8q5 10 13.5 16t19.5 6q14 2 27 -8q8 -6 13.5 -13.5t10.5 -14.5q6 -8 6 -18q-5 -1 0 -6v6zM98 127l2 -2q4 1 10 5l15 9q35 19 59 46q7 8 13 16t10 17q5 12 8.5 24.5t2.5 26.5q-2 11 -5 20.5t-13 16.5
q-8 -4 -12 -7q-18 -16 -29 -33q-9 -14 -17.5 -29t-15.5 -30q-8 -17 -14 -34.5t-12 -35.5q-1 -2 -1 -5t-1 -5zM53 137h1q0 58 1.5 127t1.5 127h-1q0 -58 -1.5 -127t-1.5 -127zM246 222h1v13q0 4 0.5 7t-1.5 7v-27zM55 57h1v18h-1v-18zM68 102q-3 -7 0 -13q1 2 1 4t1 4
q-2 4 -2 5zM65 -124q0 1 1 1q-1 1 -1 3v-4z" />
    <glyph glyph-name="y" unicode="y" horiz-adv-x="277" 
d="M153 134q-4 -11 -11 -23q-9 -15 -18.5 -28.5t-20.5 -25.5q-13 -13 -28 -23q-14 -3 -25 0.5t-22 8.5q-15 3 -20 22q-3 8 -5 15.5t-1 15.5v9t-2 10q-1 3 0.5 6.5t1.5 8.5q-1 14 1.5 27.5t5.5 27.5q2 11 4.5 21.5t5.5 21.5q5 13 9.5 25.5t10.5 23.5q4 5 7.5 9t9.5 8
q4 -2 7 -4t7 -4q0 -7 -1 -10q-10 -34 -14 -64q-2 -11 -3.5 -21.5t-2.5 -21.5q-2 -8 -2 -17.5t-1 -17.5q-1 -11 -2 -21t0 -21q1 -7 1.5 -14t1.5 -14q0 -2 2 -4q25 17 43 38q5 6 8.5 12t8.5 12q7 11 13.5 22t12.5 22q10 17 19 34.5t17 35.5q8 15 14.5 31t12.5 33q1 5 3 8.5
t4 8.5q13 -2 22.5 -9t20.5 -12q0 -12 0.5 -23t-0.5 -22q-2 -13 -3 -25t-3 -24q-3 -15 -6 -30.5t-5 -31.5q-2 -14 -5.5 -27.5t-5.5 -27.5l-4 -22t-4 -23q-2 -11 -4.5 -23t-4.5 -23l-6 -36q-2 -8 -2.5 -17t-2.5 -17q-2 -6 -3 -12.5t-2 -14.5q-2 -9 -2.5 -18.5t-2.5 -18.5
t-3 -18.5t-3 -17.5q-3 -11 -5 -20.5t-4 -20.5q-2 -9 -3 -18t-3 -19q-2 -11 -4 -21t-4 -21q-2 -10 -2.5 -18.5t-2.5 -18.5q-1 -8 -2 -15t-3 -14l-3 -1.5l-3 -1.5q-1 2 -1 3.5t-1 3.5q-1 -1 -1.5 -2.5t-1.5 -3.5q-1 2 -2 3l-3 3q-3 2 -7 1t-7 4q-2 -4 -3 -5q-5 3 -8.5 6
t-6.5 5v44q1 9 2 18.5t2 19.5q1 9 1.5 18.5t1.5 17.5q2 15 1.5 30t1.5 30q1 14 1.5 26.5t3.5 26.5l4 28t4 29q2 8 3 17.5t2 17.5q3 11 5 21.5t4 21.5q4 20 9 41t10 41q3 17 7 28v7q-6 -2 -5 -2q0 1 -0.5 1.5t-0.5 2.5l-1 -1q0 -1 2 -3zM38 120h-1v-17h1v17zM38 96h-1v-12h1
v12zM239 263h1v9h-1v-9zM172 -122h-1v-7h1v7zM42 163h1v4h-1v-4zM40 146h-1v-3h1v3zM186 -30h-1q0 -2 0.5 -2.5t0.5 -1.5v4zM183 -48l1 2v3h-1v-5zM182 -59l-2 -1q0 1 2 -5v6zM178 -79h2q0 2 -0.5 2.5t-0.5 1.5h-1v-4zM177 -90h-1v-5h1v5zM173 -111h2v5h-2v-5zM168 -145h1v5
h-1v-5zM167 -156h-1v-4h1v4zM162 -185v-4v4zM150 -259h-1v-3h1v3z" />
    <glyph glyph-name="z" unicode="z" horiz-adv-x="232" 
d="M0 29q-1 12 5 23q11 21 21 41.5t22 40.5q8 14 15.5 27.5t15.5 27.5q12 21 25 41t28 40l21 30q0 2 1 4q-8 -2 -15.5 -4t-15.5 -4q-11 -2 -21 -4t-21 -4t-20.5 -2h-19.5q-11 0 -23 5q-1 0 -5 3q2 1 3.5 2t3.5 1q16 0 31 3t30 7q13 3 25.5 6.5t25.5 7.5q8 2 15 5t15 5
q5 2 9 2.5t8 1.5q9 -5 16 -9t15 -8q2 -5 0.5 -9.5t-3.5 -9.5q-5 -13 -11.5 -24.5t-14.5 -23.5q-11 -20 -23 -39.5t-24 -39.5q-11 -20 -23 -40.5t-23 -40.5q-7 -12 -13 -23.5t-13 -23.5h6q23 8 46.5 17.5t47.5 16.5q16 5 32 9t33 9h10l6 -4t7 -4q-12 -2 -22.5 -6.5
t-21.5 -8.5q-14 -5 -28 -11l-28 -12q-17 -7 -33 -13t-33 -12q-9 -4 -18 -7l-18 -6q-2 -1 -4.5 -0.5t-4.5 0.5q-6 2 -11.5 3t-11.5 3q-4 2 -8.5 4t-7.5 7z" />
    <glyph glyph-name="c" unicode="c" horiz-adv-x="231" 
d="M199 110q-1 -2 -1 -4t-2 -4q-8 -14 -15 -27.5t-16 -26.5q-11 -16 -25 -27q-20 -14 -43 -7q-9 4 -17 5q-35 9 -55 40q-10 14 -15.5 30.5t-7.5 33.5q-2 10 -2 19.5v19.5q0 14 2 26.5t4 26.5q3 15 7.5 30t9.5 30q5 16 12.5 31t18.5 28q7 8 15 15.5t19 12.5q18 8 37 0
q6 -2 11.5 -5t11.5 -7q2 -1 4 -3l5 -5l-4.5 -1.5t-3.5 -0.5h-7q-2 1 -4 1.5t-4 2.5q-13 -7 -21 -20q-8 -11 -13.5 -22.5t-10.5 -23.5q-7 -17 -11.5 -35t-8.5 -37l-6 -42q-1 -11 -1 -22.5v-22.5q1 -16 3.5 -31t8.5 -30q2 -5 5.5 -10.5t6.5 -10.5q11 2 18.5 6.5t15.5 10.5
q15 13 26 28t21 32t20 33t19 33q5 10 9 20.5t9 21.5q2 4 3.5 8t3.5 9t5 8t6 7q2 -1 3.5 -1.5t3.5 -1.5t2.5 -2t2.5 -3q1 -5 -0.5 -8.5t-3.5 -7.5q-5 -12 -9.5 -24.5t-9.5 -24.5q-3 -8 -6.5 -16t-7.5 -16q-1 -1 -1 -2t-1 -3q-2 0 -2 -5v1q-2 -1 -2 -5q-4 -3 0 -5l-2 -6t-5 -5
q-1 1 -1 2q-1 -1 -1 -2q-1 -1 -3 -5q-3 -2 0 -4zM52 153h-1v-34h1v34zM54 176h-1v-6h1v6zM56 188h1q0 3 -1 4h-1q0 -2 0.5 -2.5t0.5 -1.5zM202 119q0 1 1 2q0 -1 1 -2v-3t-3 -2h1v5zM213 135q0 -4 -2 -5v5h2zM215 140q0 -5 -2 -5v5v-1h2v1zM215 144l2 -2l-2 -2v-1v5z
M201 114q0 -4 -2 -4v4h3h-1z" />
    <glyph glyph-name="e" unicode="e" horiz-adv-x="212" 
d="M147 250q1 -4 -1.5 -6t-3.5 -6h-4q-4 -5 -7.5 -10.5t-7.5 -10.5q-7 -8 -13.5 -16t-13.5 -16q-4 -4 -7 -8t-7 -7q-2 -3 -5.5 -5.5t-7.5 -5.5q0 -8 -1 -16.5t0 -16.5q1 -12 1.5 -24t4.5 -23q1 -2 2 -5t2 -5q20 5 36.5 14.5t32.5 21.5q21 20 39.5 39t27.5 45l2 4q2 -1 3 -1
t3 -1q1 -2 2 -5l2 -6l1.5 3l1.5 3q0 -5 0.5 -8.5t0.5 -6.5h1q0 2 0.5 3.5t1.5 5.5q1 -5 1 -8.5t1 -7.5h1q0 3 0.5 5.5t0.5 5.5q2 -8 1.5 -12.5t-3.5 -12.5q-12 -23 -32.5 -43.5t-39.5 -35.5q-14 -11 -31 -22q-6 -4 -12.5 -7t-14.5 -4l-4 -2q-12 4 -24.5 7t-25.5 7
q-23 7 -36 31q-9 18 -12 39q-6 33 -1 68q6 64 38 118q5 8 10.5 15t10.5 15q4 6 9 10t10 9q28 25 62 6q5 -2 8.5 -4t7.5 -5q7 -4 12 -11q2 -2 4 -8q2 -14 -1 -26t-8 -24q-3 -8 -6.5 -14.5t-6.5 -13.5q-2 0 -2 -1l-1 2q-1 -1 -1 -2q-6 -2 0 -5zM157 272q-6 0 0 -4v4q3 2 0 5
v-5zM137 338l-4 -4l-4 -4q-5 -8 -10.5 -16t-10.5 -17q-12 -23 -20.5 -47t-13.5 -49q0 -2 0.5 -4.5t0.5 -5.5q5 6 8.5 11t7.5 10q13 17 22.5 35t17.5 38q5 12 7 25t-1 28zM57 115v26v-26zM170 317h-2q0 -2 0.5 -3.5t0.5 -3.5h1v7zM59 175h1v7h-1v-7zM62 196h-1v-5h1v5z
M167 302h-1q0 -1 0.5 -2t0.5 -2h1q0 3 -1 4zM162 284l1 1v3h-1v-4zM165 295q-1 0 -1 -1v-3h1v4zM148 254q0 1 1 2q0 -1 1 -2v-2.5t-3 -1.5l1 -1v5z" />
    <glyph glyph-name="o" unicode="o" horiz-adv-x="218" 
d="M62 344h13l7 -3.5t6 -3.5t5 -3.5t4 -3.5q3 -2 5.5 -3.5t5.5 -2.5q10 -4 17 -11t14 -15q17 -22 27 -44q3 -9 6.5 -17.5t5.5 -17.5q2 -11 3.5 -21t-2.5 -21q-1 -2 -0.5 -3t0.5 -3q0 -10 -2 -19.5t-4 -19.5q-1 -15 -8 -31q-7 -22 -24 -40q-8 -8 -17 -13t-21 -4q-4 0 -5 1
q-7 2 -13.5 4t-13.5 4q-30 8 -48 34q-13 19 -19 47q-6 30 -3 60q2 15 3 30.5t5 30.5q4 18 10.5 34.5t17.5 31.5q9 13 25 23zM93 316q-2 -4 -3.5 -6.5t-2.5 -5.5q-3 -11 -6.5 -21.5t-5.5 -21.5q-4 -15 -5.5 -30.5t-2.5 -31.5q-1 -17 -1 -34t2 -34q2 -11 4 -20.5t4 -20.5
q2 -5 3.5 -10t6.5 -8q5 2 13 6q11 6 17.5 15t11.5 20q9 19 12.5 39.5t3.5 40.5q0 18 -5 40q-2 13 -6 22q-5 11 -11 21t-12 21q-3 5 -6.5 9.5t-10.5 9.5zM56 191h1v15h-1v-15zM58 221h1v8h-1v-8zM173 159h1v6h-1v-6zM172 149h-2q0 -4 1 -6h1v6zM168 132h1v4h-1v-4zM60 239h1
v4h-1v-4z" />
    <glyph glyph-name="i" unicode="i" horiz-adv-x="141" 
d="M95 290q0 -1 2 -5q-1 -8 -2 -14.5t-2 -13.5q-2 -11 -1.5 -12t-1.5 -12q-2 -8 -3.5 -17t-2.5 -17q-1 -5 -1.5 -8.5t-1.5 -8.5q-2 -9 -2.5 -18.5t-2.5 -19.5l-6 -36v-3q-1 -15 -1.5 -30.5t-1.5 -30.5q0 -5 1 -11t1 -11q1 -6 0.5 -11.5t1.5 -11.5q2 -5 1.5 -9.5t3.5 -8.5
q3 -2 6 -3.5t6 -3.5q-2 -5 -5 -7t-5 -3q-15 3 -27 6q-11 2 -17 9t-10 16q-2 7 -3.5 13.5t-3.5 13.5q-2 14 -4 27t-3 27q-2 12 -2.5 24.5t-2.5 24.5q-2 14 -2 26.5v26.5q1 22 6 45q2 10 4 19t4 19q2 7 3 11t2.5 7t4 7t7.5 10q2 4 4.5 7t4.5 6h16q8 -5 17 -9.5zM60 114h-1v-13
h1v13zM61 126h1v9h-1v-9zM69 185h-1v-8h1v8zM66 161h1v8h-1v-8zM63 143h2q0 2 -0.5 4t-0.5 4h-1v-8zM76 226h-1v-6h1v6zM73 207h1q0 2 -0.5 2.5t-0.5 2.5h-1q0 -4 1 -5zM70 193h1v5h-1v-5zM78 238l-1 -1v-3h1v4zM80 249l-1 -1q0 -2 2 -5q-1 4 -1 6zM82 257l1 1l-1 -2.5
t-2.5 -6t-3 -6t-1.5 -1.5q0 -2 1 0.5t2.5 6t2.5 6zM93 430q5 -2 11.5 -5t11.5 -8q1 0 2 1q2 -2 2 -3q2 -5 2.5 -9.5t1.5 -9.5v-9t-2 -7q-3 -8 -6.5 -15t-6.5 -15q-4 -10 -11 -11q-7 2 -13.5 3.5t-13.5 3.5q-11 2 -14 14q1 20 7 38.5t29 31.5zM116 400h-1v-9h1v9z" />
    <glyph glyph-name="r" unicode="r" horiz-adv-x="167" 
d="M54 31q-7 2 -12.5 3t-12.5 3q-2 2 -4 5l-4 6q-9 20 -12 40q-2 9 -3 18.5t-3 18.5v2q-2 22 -3 44t0 44q1 14 2 27t3 26q2 15 4 30.5t7 30.5q3 8 5 16t7 16l8 8q7 -3 12.5 -5.5t10.5 -6.5q2 -2 3.5 -4.5t3.5 -4.5t2 -5t1 -5q1 -7 1 -13.5t1 -13.5q2 -20 2 -39t1 -38v-4
q2 2 4 6q6 10 11.5 20t11.5 20q12 18 24 32q8 9 15.5 17.5t15.5 16.5q10 10 21 14h12q2 -3 6.5 -3.5t6.5 -6.5q-4 0 -7.5 -0.5t-7.5 -0.5q-12 -11 -21.5 -23t-18.5 -25q-14 -17 -24.5 -36t-21.5 -38q-7 -13 -12.5 -26t-11.5 -26q-2 -5 -3 -8.5t-1 -8.5q1 -10 0.5 -19.5
t-0.5 -18.5q1 -16 -1 -31t-6 -29q-2 -8 -4.5 -14t-7.5 -11zM61 110q-1 -5 -1.5 -10.5t1.5 -10.5v21zM61 209h-1v-8h1v8z" />
    <glyph glyph-name="j" unicode="j" horiz-adv-x="169" 
d="M31 353h11q8 -5 16 -9t16 -9q13 -24 18 -52q2 -11 3.5 -21.5t3.5 -21.5q2 -14 2.5 -29t2.5 -29q1 -14 0.5 -27.5t1.5 -27.5q2 -17 1.5 -32.5t0.5 -32.5l2 -24t-1 -24q-1 -14 -0.5 -28t-0.5 -28q-2 -21 -4.5 -41.5t-9.5 -40.5q-8 -26 -16 -51.5t-16 -51.5
q-2 -6 -4.5 -11.5t-4.5 -11.5q-6 -12 -18 -18q-6 2 -12 4.5t-13 2.5q-2 0 -4.5 1.5t-4.5 2.5q-2 7 -0.5 12t2.5 10q6 23 9 43q2 9 3 17.5t3 16.5q2 7 1.5 13.5t1.5 12.5q2 11 1.5 22.5t1.5 22.5q1 10 0.5 19.5t1.5 19.5q2 11 1.5 21.5t0.5 21.5q3 39 2.5 78t-1.5 78v54
t-2 53q-2 20 -1.5 39.5t-0.5 39.5q0 10 6 16zM96 87h-1v-112h1v112zM93 153v-24v24zM92 -59h1v15h-1v-15zM90 -79h1v8h-1v-8zM91 196h-1v-5h1v5zM89 -89h-1v-4h1v4zM86 -107v4v-4zM61 531q6 2 10 0t7 -4l14 -7q1 0 1 -1q0 -3 1 -4q-3 -12 -6.5 -24t-6.5 -24q-1 -3 -1 -6
t-1 -5q-6 -20 -24 -35q-6 1 -12 1.5t-13 2.5q-16 5 -13 23q2 13 6.5 23.5t11.5 21.5q3 4 5.5 8t4.5 9q2 2 3 5t3 5q8 8 10 11z" />
    <glyph glyph-name="v" unicode="v" horiz-adv-x="223" 
d="M86 -1q-9 -2 -17 1t-16 5q-7 2 -10.5 7.5t-7.5 11.5q-10 18 -16 37.5t-10 39.5q-2 14 -4 27.5t-3 27.5q-2 13 -2 26v27q1 13 1.5 26t2.5 26q2 14 4 27t6 27q2 8 4.5 16t9.5 15q6 3 11 -3q3 -2 11 -6q0 -5 1 -10l1.5 4.5t0.5 3.5q4 -5 4.5 -11t1.5 -12q2 -14 2 -27t1 -26
q2 -14 1 -27t1 -27q2 -11 1.5 -22.5t1.5 -22.5t1 -21t1 -20q2 -9 2 -18t2 -19q2 -8 2 -16t1 -16q0 -5 0.5 -10t1.5 -11q5 7 8.5 13t7.5 11q11 19 18.5 38.5t13.5 40.5q4 16 8 31.5t7 32.5q2 10 3 20.5t3 20.5q2 9 1.5 17.5t2.5 17.5v2q1 11 1 20.5t2 20.5q2 9 1.5 18.5
t2.5 18.5v1q1 8 1 17t1 17q2 4 2.5 6.5t2.5 5.5q1 4 6 11q5 -2 8.5 -4.5t7.5 -4.5q1 -3 -0.5 -5t0.5 -4q0 -8 1 -17t-1 -17t-1.5 -15t-1.5 -14q-2 -8 -2.5 -16t-2.5 -16q-1 -5 -1 -10t-1 -10q-2 -11 -3 -21.5t-3 -21.5t-3.5 -21t-3.5 -21q-5 -23 -12 -44.5t-15 -44.5
q-4 -13 -10 -25.5t-13 -23.5q-13 -19 -22 -35q-1 -2 -0.5 -4t-0.5 -4q2 -1 2.5 -1t2.5 -1q-2 -3 -5 -5.5t-5 -4.5zM55 220l-2 1v-11v-7q2 4 2 7v10zM55 151q4 7 0 12v-12z" />
    <glyph glyph-name="l" unicode="l" horiz-adv-x="131" 
d="M75 648q8 -1 11.5 -6t9.5 -7q-1 -3 -1 -5.5t-1 -4.5h1q2 2 3 7q1 -5 2.5 -9t1.5 -8v-20q-1 -11 -1.5 -22t-2.5 -22q0 -11 -1 -21.5t-3 -21.5q-1 -8 -2.5 -16t-1.5 -16q-1 -21 -4 -41.5t-4 -41.5q-1 -15 -3 -29.5t-2 -28.5t-2 -27t-2 -27q0 -11 -2 -23t-2 -23
q0 -8 -1.5 -16.5t0.5 -16.5q0 -9 -2 -18.5t0 -18.5q1 -1 0.5 -2t0.5 -2q-3 -21 -3 -41q0 -11 -0.5 -22t-0.5 -22q-1 -11 -1 -21.5v-21.5q0 -13 -0.5 -25t-0.5 -23t-1.5 -21t-1.5 -21q-3 -3 -5 -7q-3 0 -5.5 0.5t-4.5 0.5l-18 9q-2 0 -3.5 -0.5t-2.5 0.5q-7 2 -12 11
q-4 21 -5.5 41.5t-3.5 41.5q-2 14 -2.5 27t-1.5 27q-1 15 -1 28.5v27.5q-1 11 -0.5 21t0.5 20q0 8 1 15.5t1 15.5q0 12 2 24t2 24q1 25 4.5 50t5.5 51q3 22 6 44.5t5 45.5q2 11 4 21.5t5 21.5t5 22.5t5 22.5q2 11 5 21l6 20q2 10 5.5 19t7.5 19q2 8 4.5 11.5t7.5 8.5z
M77 465h1q2 15 4 29t4 29h-1q-2 -14 -4 -28.5t-4 -29.5zM67 362h1q1 8 1.5 15.5t1.5 15.5h-1q-1 -8 -1.5 -15.5t-1.5 -15.5zM90 567h1q1 8 2 15l2 14h-1l-2 -14t-2 -15zM60 297q2 7 4 13.5t0 14.5q-1 -7 -1.5 -14t-2.5 -14zM57 246h1q1 5 1.5 10t1.5 9l-1 1q-1 -5 -1.5 -10
t-1.5 -10zM55 210h1q0 7 1 10h-1q-1 -3 -1 -10z" />
    <glyph glyph-name="M" unicode="M" horiz-adv-x="546" 
d="M60 -63q-1 4 -1.5 5.5t-1.5 3.5q0 -2 -2 -6q-2 1 -4 3v2l-1 1q-4 -2 -6.5 0t-4.5 1q-3 -1 -9 1q-14 7 -17 20q-2 8 -4 14.5t-2 14.5q0 5 -0.5 9t-1.5 9t-0.5 9t-1.5 9q-1 2 -0.5 6t0.5 6q0 10 0.5 20t-1.5 19q-4 24 -1 51q2 19 1 38t1 38q1 11 0.5 21t1.5 20t2 19t2 18
q1 8 1 15t1 14q0 5 1.5 9.5t0.5 9.5q0 5 -0.5 10.5t2.5 10.5v2q-1 12 1 23.5t2 22.5q0 5 2 15q1 5 0 9t2 8v5v8.5t2 9.5q2 3 1 7.5t3 7.5q-2 13 1.5 24.5t5.5 22.5q1 6 2.5 11.5t3.5 10.5q1 2 0.5 3.5t0.5 3.5q2 2 5 4.5t5 5.5q3 -4 7.5 -6.5t7.5 -9.5v-21q2 5 1.5 9.5
t1.5 11.5q1 -5 1 -9q2 -11 2 -21t2 -21q1 -2 1 -9q-1 -23 1 -45t1 -45q3 -14 2.5 -27.5t-0.5 -27.5v-124q0 -11 -1.5 -21t-0.5 -21t0.5 -22t-0.5 -22v-9q2 8 4.5 15.5t3.5 16.5q1 8 2 14.5t3 13.5l4 20t4 19q5 22 11 44l9 42q2 8 4.5 15t4.5 15q4 20 10 38t11 38
q2 11 5.5 20t8.5 20q5 17 12.5 34t13.5 34q3 8 7 14.5t8 14.5q0 3 1 3l9 6q3 2 5.5 3.5t2.5 6.5q4 -2 7.5 -5t8.5 -5q-5 -8 -2 -14t2 -13q-1 -8 1 -14.5t3 -13.5q0 2 0.5 3t1.5 5v-27l6 -6v-79v-1h2v68l1 2l2 -2v-188q2 5 3.5 7.5t2.5 4.5q3 12 7 22.5t9 21.5q7 20 15 39.5
t16 39.5q5 12 11 23t12 23q7 16 15.5 31t16.5 30q2 4 4.5 7.5t4.5 6.5q5 7 9.5 13.5t9.5 11.5q2 5 5.5 7.5t6.5 5.5q8 0 11 1q5 2 10 -1t9 -6t7 -5.5t8 -4.5q15 -10 22 -31q5 -11 6 -22.5t6 -22.5q0 -7 1.5 -13t0.5 -12q0 -10 1.5 -19.5t1.5 -18.5q0 -10 -0.5 -19.5
t0.5 -19.5q2 -16 2 -32v-33q1 -17 0.5 -33t-0.5 -33t0.5 -33.5t-0.5 -33.5q0 -9 -1 -18.5t-1 -17.5q0 -10 0.5 -19.5t-0.5 -18.5q-2 -12 -2.5 -23.5t-2.5 -22.5q-2 -7 -3.5 -13.5t-2.5 -13.5q0 -2 -0.5 -3t-0.5 -3q-2 -16 -2 -32t-1 -32l-4 -4q-2 2 -4 2t-5 -3l-2 6
q-4 1 -7.5 2.5t-8.5 2.5q-1 0 -2.5 -0.5t-3.5 -0.5q-7 2 -9 6q-3 5 -5.5 10t-1.5 11q1 15 -1.5 29.5t-1.5 28.5q1 3 0 6t-2 7q-2 7 -1.5 15t-1.5 16t-1.5 16t0.5 16q-1 8 -0.5 15.5t0.5 15.5v34v28.5t-1 28.5q0 11 1.5 20.5t1.5 18.5q0 11 -1 20.5t1 19.5q2 11 1.5 23
t1.5 23t1 23.5t1 23.5q2 13 1 25t1 23q2 10 2 20v20v9.5t-4 7.5q-5 -6 -10 -14l-10 -16q-11 -14 -18.5 -30t-16.5 -30q-12 -21 -21 -42q-6 -12 -11.5 -24.5t-10.5 -26.5q-7 -16 -12.5 -32.5t-10.5 -33.5q-4 -11 -7 -21t-6 -21q-3 -8 -4.5 -16t-3.5 -16q-3 -8 -3.5 -15.5
t-2.5 -15.5q-2 -5 -2.5 -11.5t-2.5 -13.5q-5 -25 -4.5 -51t0.5 -52q-1 -2 -2 -2.5t-2 -1.5l-5 -5q-1 3 -1.5 5l-1.5 6q0 -3 -0.5 -5l-1.5 -6q-2 8 -2 7h-10q-2 2 -2.5 3t-2.5 2l-2 -2q-1 3 -3 11q0 -4 -0.5 -6t-0.5 -4q-2 -2 -4 -1t-4 3t-3.5 3t-3.5 0q-2 4 -6 10
q0 7 -0.5 13.5t0.5 13.5q0 7 0.5 13.5t1.5 12.5q0 7 -1 13.5t1 13.5q2 8 1.5 17.5t0.5 19.5q1 5 1.5 11t0.5 11q1 7 0 13.5t1 11.5q2 8 1 14.5t1 13.5q2 9 1.5 19t1.5 19q1 8 1 15.5t2 15.5q2 6 1 13t1 15t1.5 15.5t0.5 15.5q2 8 1.5 15.5t1.5 14.5q2 8 1 17t1 17
q2 14 1.5 27t0.5 27q0 2 0.5 3.5t0.5 3.5q1 2 1 6q-3 8 -2 16t0 17h-3q-10 -21 -19.5 -41.5t-17.5 -41.5q-5 -13 -9.5 -26t-8.5 -26q-9 -26 -15.5 -52t-14.5 -52q-2 -8 -4.5 -17t-4.5 -17q-2 -9 -3.5 -17.5t-3.5 -17.5q-5 -17 -8.5 -33.5t-7.5 -33.5q-2 -10 -4.5 -19.5
t-4.5 -18.5q-2 -13 -4.5 -24.5t-4.5 -24.5q-3 -11 -6.5 -23.5t-5.5 -24.5q-2 -5 -1.5 -11t-1.5 -11q-2 -6 -1.5 -11.5t-0.5 -10.5q-2 -12 -3 -24t-4 -23q0 -3 -2 -4.5t-4 -5.5zM475 195h2v205l-1 1h-1v-206zM68 249h-2v-48h1h1v48zM66 159h-3v-22v-10.5t3 -11.5v44zM474 144
h-2v-36l1 -1h1v37zM463 -7q4 10 0 17v-17zM472 89h-2v-13q1 -1 2 -1v14zM468 54h1v5h-1v-5zM466 36h1v7h-1v-7z" />
    <glyph glyph-name="W" unicode="W" horiz-adv-x="470" 
d="M109 -6q-3 -13 -8 -25t-9 -21q-5 -10 -9 -18.5t-12 -15.5q-5 2 -10.5 3.5t-11.5 3.5q-3 2 -6 2.5t-5 1.5q-9 3 -14 11t-10 17q-4 10 -6 25q-1 6 -1.5 12.5t-2.5 13.5q-5 28 -3.5 56.5t-0.5 57.5q-1 14 1.5 28.5t1.5 29.5q2 7 2 13.5v14.5q0 4 1.5 7.5t0.5 7.5q-1 5 0 9
l2 8q1 5 0 9.5t1 8.5q2 5 1 10t1 10t1.5 10t0.5 10q2 5 1.5 10t1.5 10q1 4 1.5 8t1.5 8q2 10 3 19.5t3 18.5q2 7 2.5 13.5t2.5 13.5q1 9 8 17q7 -1 13.5 -6t12.5 -9q5 -3 6 -8t2 -11q4 -34 3 -67t0 -66q-3 -12 -2 -24.5t-1 -23.5q-2 -10 -1 -19.5t-1 -18.5q-2 -11 -1.5 -22
t-1.5 -22q-2 -12 -1 -24t-1 -25q-3 -20 -2 -41.5t0 -43.5q0 -3 2 -7q2 4 3.5 7.5t3.5 7.5q8 17 16.5 33t14.5 33q5 6 6.5 13.5t4.5 14.5q3 6 6.5 12.5t4.5 14.5q5 10 8 19.5t6 19.5l18 46l18 46q4 10 7.5 19t7.5 20q5 11 8.5 23t8.5 23q0 3 2 5h7q9 -7 20 -12q4 -11 4 -22.5
v-22.5q0 -7 0.5 -14t-0.5 -15q-3 -16 -2.5 -32t0.5 -32q-2 -34 0 -66q0 -5 0.5 -10t1.5 -10t0 -10t2 -9v-6q0 -9 1.5 -18.5t3.5 -18.5q5 -26 15 -47q5 -1 8 2.5t6 5.5q6 5 10.5 13t9.5 16q10 15 17 32t13 34q6 14 10.5 28.5t7.5 31.5q2 8 4 16.5t4 18.5q2 8 3 15.5t2 15.5
q2 11 3.5 21.5t3.5 20.5q2 7 2 13.5t1 14.5q0 5 2 15q1 5 0 8.5t3 7.5v5q-2 14 1 27.5t1 27.5q3 12 2.5 24t0.5 26v47q0 14 -1.5 26.5t-3.5 25.5q-2 2 -4 3t-4 3v6q2 1 3 2.5t3 3.5q5 -1 8.5 -2t6.5 -4q6 -7 14 -9q2 -2 3.5 -4t2.5 -3l3 -6l2 -4l2 -16t3 -17q1 -8 0.5 -16
t1.5 -16q2 -11 1 -21.5t1 -21.5q3 -14 2.5 -28.5t-0.5 -29.5q1 -14 0.5 -29t-0.5 -30q0 -5 -1 -9.5t-1 -9.5t0.5 -9t-0.5 -9q-2 -5 -2 -9.5v-9.5t-1 -9.5t-2 -9.5q-1 -11 -3 -22l-4 -22q-2 -6 -3.5 -13t-3.5 -14q-2 -11 -5 -20.5t-5 -20.5q-3 -11 -7 -22t-9 -22
q-6 -13 -12.5 -26.5t-14.5 -24.5q-4 -7 -7.5 -13.5t-8.5 -11.5q-7 -8 -14 -14.5t-15 -11.5q-2 0 -3 -1t-2 -1h-15t-14 5q-4 2 -7.5 0.5t-5.5 3.5q-10 1 -16.5 9t-13.5 16q-5 8 -9.5 25t-6.5 29q-2 11 -3 20.5t-4 20.5v4q1 20 -1.5 41t-0.5 42q1 7 1.5 14t0.5 15q1 7 0 14.5
t1 14.5q2 11 1.5 20.5t-1.5 20.5q-6 -16 -12.5 -31t-12.5 -31q-7 -17 -13 -32.5t-13 -32.5q-5 -16 -10.5 -32t-11.5 -32q-5 -17 -11.5 -32.5t-8.5 -33.5l3 1.5t3 2.5q-2 -4 -2.5 -7.5t-3.5 -5.5q0 1 -0.5 2.5t-0.5 2.5h-1v-5q-1 -1 -1.5 -1t-1.5 -1q1 -2 3 -4zM53 -16
q2 19 2 41t-2 30v-71zM66 274q-3 -12 0 -19v19zM415 337q-1 -5 -1.5 -9t1.5 -9v18zM55 93q1 5 1.5 9t-1.5 9v-18zM60 175h2v9q0 2 -0.5 3.5t-0.5 3.5h-1v-16zM59 151h-2v-7q0 -3 0.5 -5t0.5 -4h1v16zM64 229h-2v-13q1 -1 2 -1v14zM413 271h-2q0 -5 1 -7h1v7zM234 241h2v8h-2
v-8zM232 184h2q0 5 -1 7h-1v-7zM120 28q0 -3 -0.5 -5t-0.5 -3q-1 1 -1 4q0 1 0.5 1.5t1.5 2.5zM115 14q1 2 1 3.5t1 2.5q0 -1 0.5 -1.5t0.5 -2.5l-1 -1q-1 0 -1 -0.5t-1 -0.5zM111 0q0 -5 -2 -6v6h2z" />
    <glyph glyph-name="Z" unicode="Z" horiz-adv-x="357" 
d="M97 -1q5 4 9 4t9 2q10 3 20 4.5t20 3.5q6 2 12 2.5t12 2.5t11.5 4t11.5 1q2 3 5.5 2t6.5 1t6 1.5t5 1.5q3 2 6 1.5t6 0.5q11 3 21.5 4.5t21.5 3.5q3 1 6 2.5t6 2.5q5 2 9 0t9 -4q9 -5 17.5 -11t17.5 -11q3 -2 6.5 -2.5t6.5 -2.5l1 -1q1 -1 1 -5q-5 -5 -10.5 -6.5
t-10.5 -3.5q-9 -2 -18 -6q-10 -5 -20 -8.5t-21 -6.5t-21.5 -5t-21.5 -5q-7 -2 -14 -3.5t-14 -3.5q-4 -2 -8 -2t-9 -1q-4 -2 -8.5 -1.5t-8.5 -1.5t-8 -2t-8 -2t-8.5 -2.5t-9.5 -1.5q-10 -1 -19 -3.5t-19 -1.5q-3 -3 -6.5 -3t-6.5 1q-16 2 -28 7q-5 2 -9.5 4t-9.5 2
q-4 0 -7.5 1t-7.5 2q-5 7 -14 7q-1 2 -5 6q-8 10 -9 16.5t4 20.5q10 23 21 41q5 9 10.5 18t10.5 17q5 9 10.5 17t10.5 17q7 11 13.5 22t13.5 22q6 9 12.5 17.5t12.5 17.5q3 5 5.5 9.5t6.5 9.5q3 5 5.5 9.5t5.5 8.5q5 7 9.5 14t9.5 14q6 8 11.5 15.5t10.5 16.5q3 5 6 8.5
t6 8.5q8 11 16.5 22t16.5 22q9 16 19 28q7 8 12.5 17t12.5 18q3 5 7 9t7 9q4 7 8.5 12.5t9.5 11.5q5 8 10.5 13.5t8.5 13.5l3 3q5 7 11 13.5t11 14.5q9 12 17 26q-22 -7 -45 -13q-3 -2 -6.5 -2t-7.5 -1q-6 -2 -12 -3t-11 -4q-5 -2 -8.5 -2t-7.5 -2q-3 -2 -6.5 -2t-7.5 -1
q-8 -2 -13 -2q-3 -1 -6.5 -1.5t-6.5 -1.5q-7 -2 -13 -3.5t-13 -1.5q-2 0 -4 -1.5t-4 -1.5t-4 1.5t-3 1.5q-5 -3 -10 -2.5t-10 -0.5q-1 0 -1.5 0.5t-2.5 0.5q6 6 8 6q8 2 14.5 4.5t13.5 4.5q9 2 17.5 5t16.5 5q13 3 24.5 6.5t23.5 7.5q11 3 21 6.5t21 7.5q11 5 22.5 8t23.5 8
q10 3 20 -2q6 -3 11.5 -6.5t11.5 -6.5q9 -5 13 -16q2 -8 -0.5 -16t-6.5 -16q-7 -14 -14.5 -27t-15.5 -26q-9 -14 -19 -28t-18 -29q-4 -7 -8.5 -13t-9.5 -13q-5 -8 -9.5 -14.5t-9.5 -13.5q-4 -7 -8 -13t-9 -13q-9 -14 -18.5 -26.5t-17.5 -26.5q-6 -11 -13 -19.5t-13 -19.5
q-7 -11 -14.5 -21.5t-13.5 -22.5q-5 -8 -11 -16.5t-12 -16.5q-5 -8 -10 -15.5t-10 -15.5q-4 -7 -7.5 -13t-7.5 -13q-13 -20 -25 -39.5t-23 -40.5q-1 -2 -2 -3t-2 -3q0 -1 0.5 -1.5t0.5 -1.5z" />
    <glyph glyph-name="X" unicode="X" horiz-adv-x="354" 
d="M220 246q8 -17 17 -33t17 -32q10 -18 19.5 -36t20.5 -35q4 -7 8 -13.5t9 -13.5q8 -12 16.5 -23.5t16.5 -23.5q6 -8 13 -15.5t15 -12.5q0 -1 2 -1h1q1 -2 1 -3t1 -2l3 3q0 -3 0.5 -5t0.5 -4l-4 -4q-6 2 -12 3.5l-14 3.5q-10 5 -19 13.5t-17 18.5q-8 8 -14.5 16.5
t-13.5 16.5q-8 8 -14.5 16.5t-13.5 16.5q-8 10 -14.5 19.5t-14.5 19.5q-9 12 -17.5 23.5t-15.5 25.5q-2 4 -4.5 6.5t-4.5 6.5q-6 -11 -12.5 -20.5t-13.5 -20.5q-8 -13 -15.5 -25.5t-15.5 -26.5q-8 -12 -15.5 -24.5t-15.5 -25.5q-7 -13 -13 -25.5t-13 -24.5
q-6 -9 -10.5 -18.5t-9.5 -19.5t-9.5 -20t-7.5 -21l-6 -16t-3 -18q-4 -4 -3 -9t-1 -11q-1 5 -1 7.5v4.5h-1q-1 -2 -1 -4.5t-1 -5.5l-6 3q-1 -1 -2 -1.5t-2 -1.5l-2 1q-4 2 -4.5 6.5t-3.5 7.5q1 8 0 15t2 15q2 4 1 7t1 6q5 18 12 35.5t15 34.5q5 11 10.5 22.5t11.5 22.5
q8 15 15 30t15 29q8 12 14 24.5t13 25.5q5 8 10.5 17t10.5 17q8 14 16 27.5t16 27.5q-6 13 -12 25.5t-11 25.5q-5 11 -9.5 21t-7.5 21q-4 12 -8 23.5t-7 23.5q-2 5 -3.5 11t-3.5 11q-2 8 -4 15t-3 15q0 3 -1 6t-1 6q0 6 0.5 12t1.5 12h9q3 -3 5.5 -6t6.5 -5q6 -4 9 -11
q5 -8 8 -17t8 -18q6 -12 11.5 -25t11.5 -25q6 -11 11 -22l10 -22q2 -6 5.5 -11.5t6.5 -11.5l6 9q5 8 11.5 16.5t11.5 17.5q2 2 2 3q6 8 12.5 14.5t11.5 14.5q15 21 31.5 39t33.5 37q23 26 53 48q3 2 6.5 3t6.5 3t6.5 1.5t5.5 -0.5q11 -8 20 -13q-5 -8 -10 -14.5t-10 -13.5
q-15 -20 -31 -37.5t-31 -36.5q-9 -11 -18.5 -22t-18.5 -22q-8 -11 -17 -22t-17 -22l-24 -33q-5 -5 -8.5 -11t-8.5 -12zM25 -100h-2q0 -2 0.5 -2.5t0.5 -1.5h1v4z" />
    <glyph glyph-name="U" unicode="U" horiz-adv-x="421" 
d="M375 667q10 -1 17 -6.5t15 -8.5q4 -16 3 -31q0 -7 -2 -17q-1 -5 -0.5 -9t-1.5 -9t-1.5 -10t-0.5 -10q-2 -10 -2.5 -19t-2.5 -18q-2 -10 -3 -19t-4 -19q-2 -5 -1 -11.5t-1 -12.5q-3 -10 -3.5 -20t-3.5 -20q2 -8 -0.5 -14t-1.5 -14q0 -3 -1 -6.5t-1 -7.5q-1 -4 -1 -7.5
t-1 -7.5q-2 -5 -1.5 -9.5t-1.5 -9.5q2 -9 -0.5 -17t-2.5 -16q0 -7 -2 -17q0 -5 0.5 -9t-2.5 -7v-1q-1 -8 -1 -16.5t-1 -16.5q-1 -5 -1.5 -9t-1.5 -8q0 -5 0.5 -9t-2.5 -9v-1q2 -9 -0.5 -17.5t-1.5 -17.5q0 -5 -1 -9t-1 -8q-1 -5 0 -9t-3 -7v-3q0 -10 -0.5 -20t-1.5 -20
q0 -5 -1 -9.5t-1 -9.5q-1 -5 -0.5 -9t-2.5 -8v-4q2 -10 0.5 -19.5t-2.5 -19.5q-2 -11 -3.5 -21t-4.5 -21q-2 -7 -3 -14t-3 -14q-1 -5 -2.5 -10.5t-6.5 -7.5l-3 3l-3 -3q-2 4 -3 4q-5 2 -8 3t-8 3q-2 -4 -7 -1q-14 9 -16 29q0 4 -1 7t-1 7q-1 4 0 8t-2 7q-1 0 -1 1t1 1
q1 8 -0.5 16.5t-2.5 16.5q-2 9 -2 18v18q0 5 1 11t1 12q1 6 0 12.5t1 12.5q2 8 1 16t1 15q2 8 1 15.5t3 15.5v1q1 8 1.5 17t0.5 17q1 5 3 13q0 9 2 14q1 5 1 9.5t1 9.5q1 10 2 19t3 18v13q-5 -8 -8 -15.5t-8 -13.5q-1 -7 -5.5 -11t-7.5 -10q-3 -7 -6.5 -12.5t-6.5 -12.5
q-3 -8 -6.5 -14t-7.5 -13q-5 -10 -6 -18q-2 -2 -3.5 -3t-2.5 -3q-1 -3 -1 -4.5t-1 -3.5q-5 -8 -10.5 -16.5t-10.5 -17.5q-2 -5 -3.5 -9.5t-4.5 -8.5q-7 -13 -13.5 -25.5t-14.5 -24.5q-5 -7 -9.5 -14t-9.5 -14q-13 -18 -32 -26h-8q-3 0 -5.5 0.5t-5.5 1.5q-7 3 -13.5 4.5
t-12.5 3.5q-21 9 -34 29q-3 6 -6.5 11.5t-5.5 12.5q-4 10 -7 20t-4 21q-3 3 -2.5 7.5t-1.5 9.5q-2 4 -0.5 9t0.5 9q-3 9 -2.5 18t0.5 18q-1 8 -1.5 17t1.5 18q1 8 0.5 17t1.5 17q1 5 1 10.5t1 10.5t2 10.5t0 10.5q4 4 3 9.5t2 10.5q2 3 1.5 7.5t0.5 9.5q2 17 5 32.5t7 32.5
q4 21 12 42q2 6 6 10.5t6 9.5q3 8 12 5q4 -1 7.5 -3t7.5 -4q3 -2 5.5 -4t5.5 -3q11 -3 12 -13q0 -1 2 -3q-1 -2 -2 -3t-1 -3v-8q2 -11 -0.5 -22.5t-1.5 -22.5q-2 -5 -1.5 -10t-1.5 -10q-1 -5 -1 -10t-1 -10q-2 -5 -1.5 -10.5t-1.5 -10.5q-1 -5 -0.5 -10t-1.5 -10t-1 -11
t-1 -11q-2 -6 -1 -11.5t-1 -10.5q-2 -7 -1.5 -13t-1.5 -12q-2 -8 -1 -16t-1 -16q-2 -12 -1.5 -24.5t-0.5 -24.5q0 -13 -0.5 -25.5t0.5 -25.5q2 -14 3.5 -28t7.5 -27q5 -1 10 2t9 7q7 7 14.5 13.5t12.5 16.5q3 5 7 10l8 10q10 14 17 27q8 14 16.5 26.5t16.5 26.5
q7 13 13.5 25t13.5 25q5 8 9 16l8 16q2 4 3.5 7.5t3.5 7.5q5 11 10.5 22.5t10.5 22.5q5 13 10 25t10 26q3 10 7 19t6 20q2 7 3.5 13.5t3.5 13.5q2 11 4.5 23t4.5 23q6 23 12 44.5t13 43.5q3 10 7 19.5t6 19.5q2 8 5 14.5t5 14.5q1 3 3.5 6t4.5 6zM64 203q-1 -9 -1.5 -21
t-0.5 -24t0.5 -21.5t1.5 -12.5v79zM338 118q1 5 1.5 9.5t-1.5 9.5v-19zM331 34q1 5 1.5 10t-1.5 10v-20zM333 63q1 5 1.5 10t-1.5 10v-20zM67 236h-2v-8v-9h2v17zM340 144q1 4 1.5 8t-1.5 9v-17zM335 91q4 11 0 18v-18zM353 273h-2q1 -4 0 -7.5t2 -8.5v16zM69 262
q-4 -9 0 -14v14zM349 237q4 9 0 15v-15zM347 214q1 4 1.5 7.5t-1.5 7.5v-15zM346 208q-1 -4 -1.5 -7.5t1.5 -7.5v15zM344 184q-1 0 -2 1v-16h2v15zM354 282q2 8 0 12v-12zM329 10h1v13h-1v-13zM70 273h1v13h-1v-13zM73 307h-1v-13h1v13zM361 344h1v13h-1v-13zM364 374
q-2 -8 0 -12v12zM357 314q-2 -8 0 -12v12zM360 335q-2 -3 -2 -6.5t2 -8.5v15zM367 401h2v10h-2v-10zM76 334h2v9h-2v-9zM74 315h2v10h-2v-10zM81 370h2q0 6 -1 10h-1v-10zM80 361h-2q1 -3 1 -9h1v9zM367 393h-2v-10h2v10zM372 435h1v8h-1v-8zM88 425h2q0 2 -0.5 3.5
t-0.5 3.5h-1v-7zM371 426h-2q0 -2 0.5 -3.5t0.5 -3.5l1 1v6zM87 414h-1v-8h1v8zM85 395h-2q0 -5 1 -7h1v7zM402 636h2q0 2 -0.5 3.5t-0.5 3.5q-1 0 -1 -1v-6zM378 473h-2q0 -2 0.5 -3.5t0.5 -3.5h1v7zM374 451h2q0 5 -1 7h-1v-7zM92 456h-2v-8h2v8zM326 -2h2q0 3 -1 4h-1v-4
zM385 512h-2q0 -1 0.5 -2t0.5 -2h1v4zM379 482h2q0 2 -0.5 2.5t-0.5 1.5h-1v-4zM382 500h-1v-5h1v5z" />
    <glyph glyph-name="A" unicode="A" 
d="M51 217q-6 -1 -10.5 -1t-8.5 -2t-7.5 -2t-7.5 -2q-5 -2 -10.5 -2t-10.5 -1q-2 0 -2.5 -1t-2.5 -1t-4 -0.5t-3 0.5q-4 3 -9 0q-4 -2 -7.5 -1.5t-7.5 -1.5t-7.5 -1t-7.5 -1q-2 -1 -12 3q9 4 17 7t16 5q2 0 3 1t3 1q5 2 10.5 4.5t10.5 3.5q6 1 11.5 2.5t10.5 3.5q14 4 31 11
q2 1 4.5 1t5.5 1q1 2 2 3t1 2q3 8 5.5 15.5t4.5 15.5q5 15 10.5 30t10.5 31q10 33 26 67q3 8 6 17.5t8 17.5q5 10 9.5 19.5t9.5 19.5t10.5 19.5t11.5 19.5q3 6 6.5 11.5t7.5 10.5q9 9 17 8q2 -1 3.5 -0.5t2.5 0.5q10 -3 17.5 -9.5t16.5 -8.5q2 -4 6 -6t6 -7q2 -4 4 -7.5
t4 -7.5q5 -10 6.5 -20.5t4.5 -21.5q3 -9 3 -19q0 -12 2 -23.5t0 -22.5q4 -16 2.5 -32t0.5 -32q2 -22 1.5 -43.5t0.5 -42.5v-88q0 -5 -1 -11t-1 -12q-1 -6 0 -12.5t-1 -12.5q-2 -9 -2 -18.5t-2 -18.5q-2 -11 -3 -23l-2 -24q-1 -8 -0.5 -16.5t-1.5 -16.5q-2 -7 -2 -13.5v-13.5
q-2 -8 -2 -11q-1 -3 -0.5 -6t0.5 -5q-2 -3 -5 -9q-2 3 -4 7l-2 -6l-2 6q-6 0 -8 1v4q-2 -2 -4.5 -2.5t-4.5 -2.5q-1 2 -1.5 3.5t-2.5 3.5l-4 -2l-4 12t-2 12q1 13 -1.5 25t-0.5 25q-4 10 -3 19t0 19q0 7 -2 17q-1 5 0 8.5t-2 7.5v3q0 13 -2 25.5t0 26.5q-4 25 -3 49.5
t0 49.5q0 4 -2 8q-4 -2 -7 -3t-6 -1q-8 -1 -15 -2.5t-14 -3.5t-13 -3t-12 -4q-4 -2 -8 -2t-8 -1q-8 -2 -15 -3t-13 -5q-6 1 -7.5 -3t-2.5 -8q-4 -11 -6.5 -21t-5.5 -21q-5 -17 -8.5 -34.5t-7.5 -35.5q-2 -8 -4 -17t-5 -18q-2 -5 -1.5 -10t-0.5 -10q-1 -4 -1.5 -6.5
t-1.5 -5.5q0 -4 -0.5 -6.5t-1.5 -6.5q-1 -5 -1 -10t-1 -11q-2 -8 -2 -15.5t-1 -17.5q-1 2 -1.5 4t-1.5 4q-3 -12 -7 -18q-2 -3 -2.5 -8t-1.5 -10q-3 2 -6 5v50q-1 1 -2 1q0 -4 -0.5 -7.5t-0.5 -8.5q-2 7 -3 12t-1 10l2 22t4 22q2 5 1 9.5t2 8.5q2 17 6 32.5t6 32.5
q4 8 5 16.5t3 16.5q3 8 4.5 15.5t3.5 15.5q1 8 6 21zM207 278v75q1 19 0.5 37t1.5 37q2 18 -0.5 36.5t-1.5 36.5q0 1 -1 1h-1h-1q-4 -6 -6 -10q-8 -14 -15.5 -28t-15.5 -29q-5 -10 -9.5 -20t-9.5 -20q-5 -11 -9.5 -21.5t-9.5 -21.5l-6 -16l-6 -16q-2 -5 -4 -10.5t-4 -10.5
q-2 -8 -4.5 -15t-5.5 -15q-3 -6 -1 -11q3 1 5 1t4 1q6 2 11.5 4t11.5 1q8 5 15.5 5.5t15.5 2.5q5 2 10 1.5t10 0.5q7 1 13 1.5t13 2.5zM271 267q-1 -10 -1.5 -27t-0.5 -33.5t0.5 -30t1.5 -16.5v107zM267 359h2v15v7.5t-2 7.5v-30zM269 278h2q0 3 0.5 6t-0.5 6v7t-2 6v-25z
M269 129h-2v-23h2v23zM258 -32q2 3 2 6.5t-2 8.5v-15zM260 17l2 1v6t-2 6v-8v-5zM266 89h-2q1 -2 1 -7h1v7zM263 59h2q-1 3 -1 7h-1v-7zM8 -1v-10h-2q0 3 -0.5 5.5t2.5 4.5z" />
    <glyph glyph-name="Y" unicode="Y" horiz-adv-x="348" 
d="M278 394q-7 -11 -13 -21t-14 -20q-5 -7 -9 -13t-9 -13q-5 -8 -11 -16.5t-11 -17.5q-5 -7 -9 -13.5t-8 -13.5q-12 -17 -21 -33q0 -6 2 -10l-6 -10l-6 -10t-5.5 -9.5t-6.5 -9.5q-3 -4 -5.5 -8.5t-5.5 -9.5q-7 -9 -14 -17t-13 -17q-6 -8 -12.5 -13t-13.5 -10q-17 -12 -33 -4
q-5 2 -10 2.5t-10 2.5q-14 5 -21 15.5t-10 24.5q-4 14 -3 29t0 30q2 4 2 8.5t1 9.5q0 5 1 8.5t1 8.5q1 7 2 13.5t3 12.5q1 5 1.5 10.5t2.5 10.5q1 8 5 19q3 11 5.5 22t6.5 22q4 14 9 28.5t9 28.5q2 7 5 13.5t6 13.5q6 17 13 32.5t14 31.5q2 6 6 11t6 11h10q4 -3 7 -6.5
t6 -9.5q-1 -4 -1 -9t-2 -10t-2.5 -9t-2.5 -9t-2 -9t-2 -9t-3.5 -9t-2.5 -9q-1 -7 -2.5 -13t-3.5 -12q-2 -7 -4.5 -13t-3.5 -12l-4 -16l-4 -16q-2 -11 -5 -21.5t-6 -21.5t-5 -23.5t-6 -23.5q-1 -4 -0.5 -8t-1.5 -8q0 -9 -3 -17.5t-2 -17.5q-4 -5 -3 -11.5t-1 -12.5
t-1.5 -12.5t0.5 -12.5v-25q3 -3 4 -5q2 1 3 1t3 2q8 6 15.5 12t15.5 12q2 2 2.5 3t2.5 3l24 27q13 15 25 34q5 6 9.5 11.5t8.5 11.5q6 9 13 17.5t12 18.5q2 5 5.5 8.5t6.5 7.5q8 11 15 22t15 22l18 27q11 15 22 34q2 2 3 3.5t3 3.5q1 4 4 8q7 9 13 18t13 19q5 7 9.5 13.5
t9.5 13.5t8.5 13.5t7.5 14.5q9 16 17.5 32t16.5 32h10q5 -2 8.5 -5t8.5 -6q1 -1 3 -5q-1 -5 -2 -10.5t-2 -10.5q-2 -11 -5.5 -23t-7.5 -23q-5 -16 -11 -31t-11 -31q-3 -10 -6.5 -19t-6.5 -18q-8 -22 -14 -40q-3 -10 -6.5 -19t-6.5 -18q-3 -12 -7 -23t-7 -22q-4 -10 -7 -19.5
t-6 -19.5t-6.5 -19t-6.5 -19q-3 -11 -6 -20.5t-7 -20.5q-4 -14 -8 -26.5t-8 -26.5q-5 -14 -9 -28.5t-8 -28.5q-5 -14 -9 -28l-8 -28q-2 -6 -3 -11.5t-3 -10.5t-2.5 -10.5t-3.5 -10.5q-1 -12 -5.5 -23t-6.5 -23q-3 -5 -3 -10.5t-3 -10.5q-2 -5 -3 -10.5t-3 -11.5
q-2 -5 -3 -10t-3 -10l-6 -20t-8 -19q-2 -5 -4.5 -9.5t-7.5 -6.5q-2 1 -3.5 1t-3.5 1t-6 5q-2 -2 -4 -2q-1 1 -1.5 2t-2.5 2l-2 -2q-2 2 -3 2q-2 -2 -4 -3q-2 2 -2.5 4t-2.5 4q-1 0 -3 -2q-4 4 -7 8q-2 20 4 38q1 4 1.5 8t1.5 9q1 8 2.5 16t3.5 16q1 7 2 13.5t3 13.5
q4 15 6 30t8 29q1 13 4.5 25t7.5 24q7 33 18 67q5 14 10 29t10 29q4 14 8.5 26.5t8.5 25.5q5 17 10 28q5 12 9 24t9 25q2 8 5.5 14.5t6.5 14.5q6 17 12 33t14 31q0 6 2.5 10.5t2.5 11.5zM41 183h-2q0 -2 0.5 -3.5t0.5 -3.5h1v7zM119 508h-2q0 -2 0.5 -2.5t0.5 -1.5h1v4z
M177 228v4h1q0 -1 0.5 -2t0.5 -2h-2z" />
    <glyph glyph-name="K" unicode="K" horiz-adv-x="227" 
d="M80 233l7 -7t5 -7q6 -8 11.5 -17.5t11.5 -18.5q5 -8 10 -16.5t10 -16.5q6 -9 11.5 -18t11.5 -18q5 -9 10.5 -17.5t10.5 -16.5q5 -9 11 -17.5t12 -16.5q7 -11 13.5 -22t13.5 -22q5 -9 10.5 -18t10.5 -17l9 -15q5 -8 8 -17t6 -19q1 -5 5 -15q-5 -5 -6 -7q-3 2 -6 3.5
l-7 3.5q2 0 -2 -2q-2 2 -4.5 2.5t-5.5 2.5q-1 -1 -2 -1.5t-2 -1.5q-5 5 -11 8.5t-10 9.5l-33 42q-4 6 -7 12t-7 13q-8 14 -16.5 27.5t-16.5 27.5q-7 11 -13 23t-12 23q-8 12 -14 25t-13 25q-5 8 -8 17.5t-7 18.5q-1 -1 -1 -2q-1 -14 -1.5 -28t-1.5 -28q0 -5 -0.5 -8.5
t-1.5 -8.5q-1 -4 0 -8t-2 -8l-1 -1v-1q1 -10 -0.5 -18.5t-3.5 -17.5q-2 -8 -2 -12q-1 -3 -1.5 -5.5t-0.5 -5.5q-2 -7 -2 -14.5t-1 -15.5q-1 -4 -1.5 -7.5t-0.5 -8.5q-1 -4 -0.5 -7.5t-1.5 -8.5t-1.5 -10t-1.5 -11q-1 -5 -1 -10t-1 -10q-2 -6 -4 -9q-1 1 -2 1.5t-2 1.5l-3 -3
q0 2 -0.5 2.5t-0.5 2.5h-10q-1 2 -1 3t-1 3q-2 -4 -2 -5q-3 -2 -3 0.5t-2 4.5q-1 -1 -1 -1.5t-2 -1.5q-1 2 -5 8q0 4 0.5 8t-0.5 9q-3 13 -2.5 25.5t0.5 26.5q-1 26 0 53q0 5 -2 10t-1 10t1.5 10.5t-1.5 10.5q-2 10 -1.5 19.5t-0.5 19.5q-1 8 1 14.5t1 14.5q0 8 -0.5 15
t1.5 15t1 16.5t1 16.5t1 15t1 15q2 7 1.5 14.5t1.5 14.5q2 8 1 15.5t3 14.5v1q1 10 1 19t1 18q2 10 2 16q1 4 0.5 8t2.5 8v2v16.5t2 16.5q2 5 1.5 10.5t1.5 10.5t1 10.5t1 10.5t1 10t1 10t1 10t1 10t2 10.5t1 10.5l2 12l2 12q4 -2 7 -4.5t6 -4.5q1 -3 6.5 -6t10.5 -3v-12
l1.5 4.5t1.5 3.5q2 -11 4.5 -20.5t3.5 -20.5q1 -9 2 -18.5t3 -18.5q2 -8 -2.5 -17t-4.5 -17v-127q5 3 7 8t6 9t6 8.5t6 9.5t8.5 11t8.5 12q11 15 23 29t23 28q14 18 28.5 34.5t28.5 32.5q10 11 19.5 21t19.5 20q6 6 11.5 12t11.5 12l17 17t18 17q8 8 16 15t16 12q2 2 6 4
q6 2 8 -4l-7 -7q4 -2 6 -2q-2 -5 -6 -13q0 -1 1 -1q-7 -8 -13.5 -15.5t-13.5 -14.5q-13 -13 -24.5 -26.5t-25.5 -26.5q-11 -11 -22 -24t-22 -24q-13 -14 -26 -28.5t-26 -29.5q-9 -11 -18 -21t-17 -21q-5 -6 -9.5 -11.5t-9.5 -12.5q-8 -11 -16 -21.5t-15 -21.5
q-5 -8 -10 -14.5t-10 -13.5q-2 -4 -2 -5zM68 326h-2v-16q1 -4 0.5 -7.5t1.5 -7.5v31zM61 162q-1 -6 -1.5 -12t1.5 -11v23zM64 203h-2v-16q0 -1 2 -1v17zM59 120q-1 -4 -1.5 -7.5t1.5 -7.5v15zM57 89q-4 -8 0 -15v15zM77 457h-2q1 -3 1 -7h1v7zM44 -30h2q0 2 -0.5 3.5
t-0.5 3.5h-1v-7zM66 263h-2q0 -2 0.5 -2.5t0.5 -1.5h1v4zM71 499q2 0 2 1q0 2 -1 4h-1v-5zM53 58q1 0 2 1q0 1 -0.5 1.5t-0.5 2.5h-1v-5zM42 -54q1 1 2 1q-1 1 -1 4h-1v-5zM46 -2h2v5h-2v-5z" />
    <glyph glyph-name="S" unicode="S" horiz-adv-x="296" 
d="M131 175q-3 12 -7.5 21.5t-6.5 20.5q-2 5 -3.5 9t-3.5 9q-3 7 -5.5 14t-5.5 15q-2 8 -4.5 16.5t-4.5 17.5q-3 10 -4 19.5t-3 18.5q-1 2 -0.5 3.5t0.5 3.5v34q-1 10 0.5 19.5t3.5 19.5q2 9 3.5 17t3.5 16q6 18 14 35t19 32q8 10 16.5 17.5t17.5 15.5q13 10 26 11
q3 1 6.5 2t7.5 0q8 0 16 -5q6 -3 11.5 -6.5t11.5 -6.5q4 -2 5 -3.5t3 -6.5h-7q-2 -1 -3 1t-3 -1q-1 0 -2.5 1t-3.5 1h-3.5t-3.5 -2q-3 -2 -6 -3.5t-5 -3.5q-4 -3 -7.5 -5.5t-5.5 -6.5q-2 -5 -5 -8t-6 -7q-2 -5 -5 -9t-5 -9q-6 -14 -11.5 -27t-7.5 -28q-1 -6 -2.5 -12
t-3.5 -12l-1 -1q2 -8 0 -14.5t-2 -13.5q0 -8 0.5 -17t-0.5 -17q-1 -9 0 -17.5t3 -16.5q1 -8 2.5 -16t3.5 -16q2 -15 7.5 -29t9.5 -29q5 5 11 8.5t11 8.5q16 12 32 24.5t32 24.5q7 5 13.5 9t12.5 8q5 4 11 8t11 7l12 6t12 5q12 3 24 -3q6 -4 9 -5q2 -1 2 -2t2 -3
q-3 -2 -5.5 -2h-4.5h-10q-45 -26 -84.5 -58.5t-77.5 -67.5q6 -17 11.5 -34.5t10.5 -34.5q2 -11 5 -22t5 -22q1 -10 5 -23q2 -5 2.5 -11t1.5 -11q2 -10 2 -14q1 -4 0.5 -7.5t2.5 -6.5q1 -1 0.5 -2.5t-0.5 -3.5v-29q-1 -25 -11 -52q-4 -12 -11 -21.5t-15 -17.5
q-10 -10 -29 -15q-25 -8 -56 -5q-8 1 -15.5 2t-14.5 5q-2 1 -4.5 0t-4.5 2q-9 1 -16.5 5.5t-15.5 8.5q-3 2 -6 4.5t-5 4.5q-4 3 -10 11q-5 5 -8 11t-6 13l-4 14t-2 15q0 18 3 36q2 10 4 17q5 14 11 27t14 25q8 13 16 24.5t16 22.5q12 17 26 32t27 31q3 3 6.5 6t7.5 6z
M65 -120q5 0 10 0.5t10 -2.5q4 -2 6 0q2 3 4.5 2.5t4.5 -0.5q8 0 14 1.5t13 3.5q14 5 22.5 14.5t14.5 23.5q2 4 2.5 7.5t2.5 8.5q2 4 2 8.5t1 9.5t1.5 8.5t0.5 8.5q2 12 -0.5 23.5t-1.5 22.5q0 7 -3 13q-2 4 -1.5 8t-0.5 8q-4 11 -6 21.5t-5 21.5q-2 11 -6 22t-6 22
q-12 -14 -23.5 -27.5t-21.5 -28.5q-8 -10 -14 -20t-13 -21q-9 -14 -15.5 -28.5t-12.5 -29.5q-2 -6 -3 -12l-2 -12q-1 -8 -0.5 -14.5t0.5 -14.5q0 -2 0.5 -3.5t0.5 -3.5q6 -17 10.5 -24t14.5 -17zM224 -16h-2v-13q1 -3 0.5 -6t1.5 -6v25zM138 375h1v13h-1v-13z" />
    <glyph glyph-name="N" unicode="N" 
d="M281 443q-1 -4 -1.5 -8t1.5 -9v17zM279 410q-1 -5 -1.5 -9t1.5 -9v18zM29 56q-11 10 -13 28q-2 10 -4 19.5t-3 20.5q-3 4 -2 8.5t-1 9.5q-2 4 -1 8t-1 9q-2 11 -1 23t-1 23q-2 13 -1.5 26t-0.5 26q-1 8 1 16t1 16q0 8 -0.5 15.5t1.5 15.5t1.5 17t-0.5 17q1 5 2.5 8.5
t0.5 8.5q-2 9 0 17q2 10 2.5 19.5t2.5 18.5q1 8 2 15.5t4 15.5l1.5 3t2.5 3l4 -2l4 -2l-2 -6l2 -1q5 5 9.5 2.5t8.5 -4.5q9 -3 10 -15q1 -6 1.5 -11.5t-0.5 -11.5q0 -14 2 -27.5t1 -27.5t-0.5 -27.5t0.5 -27.5v-56v-55q0 -1 1 -2q1 2 2 5t2 5l4 -4q-1 3 -1 5t-1 4q2 3 2 8
t4 8q3 2 3.5 4.5t1.5 4.5q2 9 4.5 17.5t5.5 17.5q5 13 9 26t9 26q2 5 4 10.5t4 10.5q2 7 5 13t5 13q9 25 20 49t22 47q5 13 10.5 26.5t13.5 24.5q2 10 7 17l10 14q4 7 9.5 12.5t10.5 11.5q-3 5 4 12l11 11l15 -9q12 -6 18 -20q4 -8 6.5 -16.5t4.5 -17.5q3 -14 3 -27
q-1 -11 1.5 -20.5t0.5 -20.5q-2 -15 -1.5 -30t-1.5 -30q-1 -8 -0.5 -17t-1.5 -17q-1 -7 -0.5 -14t-1.5 -13t-1.5 -12t-0.5 -11q-2 -5 -1.5 -10.5t-1.5 -10.5q-1 -5 -0.5 -10t-1.5 -10t-1 -9.5t-1 -9.5t-2 -10v-10q0 -4 -1.5 -7t-1.5 -8q1 -3 1 -6.5t-3 -6.5v-1
q2 -9 -0.5 -18t-1.5 -18q0 -5 -1 -9.5t-1 -9.5q-1 -5 -0.5 -10t-2.5 -10v-1q2 -13 0 -25t-2 -24q0 -5 -1 -10.5t-1 -10.5t0.5 -11t-1.5 -11q-2 -8 -1.5 -15t0.5 -15q0 -15 -2 -30t-1 -30q0 -5 -0.5 -10t-1.5 -10t-1.5 -9t-2.5 -9q-2 -4 -1.5 -9t0.5 -10q-4 2 -6 2l-1 -1
q-4 1 -7.5 3t-8.5 2q-12 0 -15 12q-5 15 -12 29.5t-10 31.5q-2 12 -3.5 24.5t-3.5 25.5q-2 14 -1.5 28.5t0.5 28.5q-1 6 -1.5 11.5t1.5 10.5q2 6 2 11.5v11.5q0 5 -0.5 11t0.5 11q2 8 1.5 15.5t1.5 15.5q1 6 0.5 12.5t1.5 11.5q1 6 0.5 11.5t1.5 10.5t1.5 9.5t0.5 9.5
q2 5 1.5 9t1.5 8q3 13 3.5 25.5t5.5 25.5q-1 10 1 19t4 19q1 8 2 15.5t4 15.5q1 2 0.5 4.5t-0.5 5.5q2 6 2 9q1 5 1 9.5t2 8.5q2 5 1 9.5t3 8.5q0 8 2 16.5t3 16.5q1 7 2.5 14t3.5 14q1 8 2 14.5t3 13.5q2 6 2.5 13t2.5 13q1 2 0.5 5t-0.5 8q-4 -5 -7 -9t-5 -8q-3 -8 -7 -15
t-9 -14q-3 -4 -5 -8.5t-4 -9.5q-8 -13 -14.5 -26t-14.5 -27l-6 -15q-5 -10 -9.5 -19.5t-9.5 -19.5q-5 -15 -11 -30t-11 -30q-5 -13 -8.5 -25.5t-8.5 -25.5q-5 -14 -9 -27t-8 -27t-6.5 -26.5t-7.5 -25.5q-4 -13 -7.5 -25.5t-7.5 -24.5q-3 -9 -5.5 -18.5t-4.5 -19.5
q-2 -6 -1.5 -13t-0.5 -15q-5 -5 -9 -2q-10 5 -17 4zM243 2h2v19v9.5t-2 9.5v-38zM245 54q2 6 2 12.5t-2 12.5v-25zM249 113q-1 -6 -1.5 -11.5t1.5 -11.5v23zM233 567q8 -1 9 0t0 7q-4 0 -5.5 -2.5t-3.5 -4.5zM252 144q-2 -5 -2 -10t2 -10v20zM241 -76q1 4 1.5 8t-1.5 9v-17z
M253 152h1v19h-1v-19zM277 378q-4 -9 0 -14v14zM256 193q-1 -3 -1.5 -6.5t1.5 -7.5v14zM272 332q-1 0 -2 -1v-11q1 0 2 -1v13zM274 353h-1v-13h1v13zM262 241h1v13h-1v-13zM259 223q4 7 0 12v-12zM268 298l2 1v11q-1 0 -2 1v-13zM258 215h-1v-13h1v13zM266 280h2v10h-2v-10z
M264 262h2q0 2 -0.5 5t-0.5 5h-1v-10z" />
    <glyph glyph-name="R" unicode="R" horiz-adv-x="291" 
d="M91 202q-3 -7 -5.5 -12t-4.5 -11q-2 -8 -5 -16t-5 -16t-5 -16t-5 -16t-4.5 -15.5t-1.5 -15.5q0 -2 -0.5 -3t-0.5 -3t-0.5 -3t-0.5 -3q3 -8 2.5 -15.5t-0.5 -15.5q1 -8 0.5 -15.5t-0.5 -15.5v-6t-2 -5q1 -5 -1 -6.5t-4 -3.5q-5 1 -9 2t-9 3v4q-1 -1 -1.5 -1t-1.5 -1
q-4 2 -7 0q-4 2 -7.5 5t-7.5 5v17q0 9 0.5 17.5t-0.5 16.5q-2 9 -2 17.5v16.5q0 9 0.5 17.5t-1.5 16.5q-2 17 -1.5 33t-0.5 32v68q0 17 -0.5 33t1.5 33q1 10 0.5 19t1.5 18q1 7 0.5 13.5t1.5 12.5q2 8 1 15.5t3 15.5q-1 6 0.5 12.5t2.5 12.5q2 9 2 19t5 19q-1 8 1 16t3 16
q2 8 3.5 16t6.5 16h9q5 -4 9 -7l8 -6q4 -17 3.5 -32t-0.5 -30q0 -5 -1 -10.5t-1 -10.5t0.5 -10t-0.5 -10q-2 -8 -2 -14.5v-13.5q0 -8 -2 -16t-1 -16t1.5 -16t-1.5 -16q-2 -14 -1.5 -28.5t-0.5 -29.5v-57v-18q5 10 8.5 18.5t7.5 16.5q5 11 10 21l10 20q6 14 13 26.5t13 25.5
q5 11 11.5 21t13.5 21q10 17 20.5 33.5t21.5 33.5q7 11 14 20t15 20q8 12 18 23t19 22q10 12 27 20q8 4 16.5 4.5t16.5 -5.5q4 -2 7.5 -4t7.5 -4q18 -8 26 -33q5 -18 0 -41q-1 -3 -1 -6t-1 -6q-4 -19 -11 -36t-15 -34q-4 -8 -9 -15.5t-10 -15.5q-8 -13 -17.5 -23.5
t-20.5 -21.5q-23 -24 -50 -41q-15 -10 -30.5 -19t-30.5 -17q-3 -2 -6.5 -3t-5.5 -3q-2 -7 -0.5 -12.5t3.5 -11.5q10 -27 24 -54q5 -12 11 -24t12 -23q8 -12 14 -25t13 -25t13.5 -23.5t13.5 -23.5q8 -14 15.5 -27.5t15.5 -27.5q2 -5 4.5 -11t6.5 -11q-2 -5 -3 -9.5t-8 -6.5
q0 1 -2 5q-1 -2 -1 -3t-1 -3q-2 2 -3.5 3t-3.5 2q-3 2 -6.5 2.5t-7.5 2.5q-2 0 -3.5 -0.5t-3.5 0.5q-5 3 -10.5 6t-9.5 8q-2 3 -5.5 5.5t-5.5 6.5t-4.5 6.5t-4.5 6.5q-2 3 -4.5 6.5t-4.5 7.5q-2 3 -3.5 6.5t-3.5 6.5q-7 14 -14 26.5t-14 26.5q-5 12 -11 24l-12 24
q-5 10 -9.5 19.5t-8.5 20.5q-8 17 -14 34t-11 35q-2 6 -3 10zM306 532q-4 -2 -7.5 -3t-6.5 -3q-12 -8 -22 -19t-19 -23q-8 -10 -15 -19.5t-14 -20.5q-7 -10 -14 -19t-13 -20q-7 -12 -14 -23.5t-14 -23.5q-8 -14 -16 -28.5t-16 -28.5q-3 -6 -5.5 -12.5t-6.5 -12.5
q-3 -5 -5 -10t-4 -12q11 5 20 9.5t17 9.5q16 8 28 16q16 11 30 23.5t28 26.5q6 6 11.5 13t10.5 14l10 14t10 15q5 6 8 13.5t7 15.5t7 16l6 16q2 5 2.5 10.5t2.5 10.5q2 4 1.5 7.5t1.5 7.5q2 6 1.5 8.5l-2.5 12.5q0 11 -8 19zM46 331q-2 -6 -2 -11.5t2 -11.5v23zM47 371h1v9
h-1v-9zM49 407h2q0 2 -0.5 3.5t-0.5 3.5h-1v-7z" />
    <glyph glyph-name="O" unicode="O" horiz-adv-x="345" 
d="M77 533q8 2 17 -5q3 -2 7 -3t6 -7q8 4 16 6t17 2h19q6 0 11 -2l10 -4q17 -7 37 -23l12 -10t11 -13q7 -9 11.5 -18.5t9.5 -19.5q3 -8 5.5 -15.5t4.5 -15.5l6 -28t5 -28q3 -3 2 -7.5t1 -7.5q2 -4 1 -8t1 -8t1.5 -8t0.5 -8q3 -14 2 -27.5t0 -27.5q1 -7 0.5 -14t-0.5 -14
q0 -9 -0.5 -18t-1.5 -18q-1 -5 -1 -8.5t-2 -7.5q-1 -4 -0.5 -8t-1.5 -8q-4 -11 -5.5 -23t-5.5 -23q-2 -7 -3.5 -14.5t-3.5 -15.5q-5 -16 -10.5 -31t-13.5 -29q-6 -11 -12.5 -21t-14.5 -20q-13 -15 -31 -26q-8 -5 -16.5 -8t-18.5 -3q-11 0 -20.5 2t-19.5 5q-8 3 -15 5.5
t-14 6.5q-5 3 -9.5 6.5t-8.5 8.5q-5 6 -10 11t-9 12q-16 24 -24 53q-2 8 -4.5 15t-3.5 15q-3 4 -2.5 8.5t-0.5 9.5q-2 5 -3.5 11t0.5 12q-4 8 -2.5 15.5t-2.5 15.5v6v39q1 14 1 28t2 28q1 6 1 11.5t1 11.5q1 5 1 11t1 11q2 9 3 18.5t4 18.5q1 5 1.5 9.5t0.5 9.5
q1 11 3.5 20.5t3.5 20.5q4 2 3 5.5t1 6.5q2 2 2 6t1 7q1 4 1 7t1 6q5 11 7 21t6 20q2 7 4.5 13.5t5.5 13.5q8 22 22 35zM108 507l-4 -6t-3 -8q-1 -6 -2.5 -11.5t-3.5 -10.5q-2 -11 -5 -21t-5 -21q-1 -12 -4 -23.5t-3 -22.5q-4 -8 -4 -17.5t-2 -17.5q-2 -5 -1.5 -9.5
t-1.5 -9.5q-1 -4 -0.5 -8.5t-1.5 -9.5q-2 -4 -0.5 -8t-0.5 -7q-2 -4 -1.5 -7.5t0.5 -7.5l-3 -15q-1 -13 -1.5 -25.5t-0.5 -25.5v-84q0 -9 0.5 -18.5t1.5 -18.5v-1q3 -3 2.5 -6.5t-0.5 -6.5q1 -4 1.5 -7t1.5 -7l2 -14t3 -14q4 -14 8 -27.5t12 -25.5q2 -5 5 -8.5t5 -7.5
q4 -6 12 -6q5 1 9 1t8 2q12 5 23.5 10.5t20.5 15.5q11 11 20.5 23t16.5 26q8 14 13.5 29t10.5 30q2 5 3 10.5t3 10.5t2 10.5t4 10.5q0 11 2.5 20.5t4.5 20.5q1 5 0.5 10.5t1.5 10.5t1.5 8.5t0.5 8.5t1.5 9t0.5 9q1 8 0.5 14.5t-0.5 13.5q0 6 0.5 12.5t-0.5 13.5q0 7 -1 13
t-1 13t-2 13.5t0 14.5q-4 10 -5.5 20t-3.5 21q-5 25 -13 46q-6 16 -13.5 30t-19.5 26q-10 11 -27 19t-32 2q-4 -2 -8 -1.5t-8 -1.5q-2 -1 -3.5 1t-3.5 -1q-1 -1 -3 -1t-4 -2q0 1 -1 1q-3 0 -4 1zM49 201q1 5 1.5 9t-1.5 8v-17zM289 244q-4 -9 0 -15v15zM289 270q-4 -9 0 -14
v14zM51 245h2q0 7 -1 10h-1v-10zM50 148h-1v-10h1v10zM58 315h1v5h-1v-5zM285 198h1v5h-1v-5zM282 177l2 1q0 2 -1 4h-1v-5zM55 278h-2q0 -3 1 -4h1v4z" />
    <glyph glyph-name="B" unicode="B" horiz-adv-x="336" 
d="M60 -33q-4 -4 -5 -6q-5 2 -9 2.5t-8 2.5q-1 1 -1 2t-1 2l-2 -2q-1 1 -1.5 1t-1.5 1l-2 -2q-2 1 -5 1.5t-5 2.5q-4 3 -6 10q-2 4 -2 7.5t-1 7.5q-1 5 -1.5 9t-0.5 9q-1 4 0 8t-1 8q-2 7 -1 13t-1 12q-2 11 -1 21t-1 20q-3 20 -2.5 40t0.5 40q-1 20 -1.5 39.5t1.5 39.5
q2 15 1 30t1 30q2 10 1.5 19.5t1.5 19.5q1 8 1 15t1 15q0 4 1 7.5t1 7.5v7.5t2 7.5q2 3 0.5 7t-0.5 8q2 9 2.5 17.5t2.5 16.5q2 12 4.5 23.5t4.5 22.5q2 5 4.5 10t4.5 10h10q5 -5 10.5 -7.5t9.5 -9.5q0 -5 -0.5 -9.5t0.5 -9.5q0 -4 0.5 -7t1.5 -7q1 -3 -2 -5.5t2 -5.5
q-2 -2 -2 -5v-6v-13v-15v-13v-13v-13v-13q-4 -19 -3 -37t1 -37q-1 -19 -1 -38v-38v-75v-5h2l4 10t3 10q6 20 15 40q8 22 17 44t20 43q8 17 16.5 34.5t18.5 34.5q10 19 20.5 37.5t21.5 36.5l10 16t11 16q6 7 12.5 14t12.5 14q2 2 4 2t4 2q10 10 22 7q5 -2 9.5 -4.5t9.5 -5.5
q1 -1 2 -1.5t2 -1.5q5 -3 6.5 -4.5t4.5 -7.5q1 -2 1 -3t1 -3q1 -13 -3 -25t-9 -24q-10 -22 -21 -42.5t-22 -41.5q-7 -11 -14 -23t-13 -24q-3 -5 -6.5 -10.5t-6.5 -10.5q-2 -3 -3.5 -6.5t0.5 -7.5q8 -5 15.5 -9t15.5 -10t13.5 -13.5t10.5 -15.5q6 -11 9.5 -23.5t8.5 -24.5
q1 -4 0.5 -8t1.5 -7q0 -13 2 -25t0 -24q-2 -13 -3.5 -26t-7.5 -26q-7 -16 -23 -29q-6 -5 -12.5 -8t-14.5 -2q-2 0 -4 -1.5t-4 -0.5q-5 2 -9.5 1.5t-9.5 1.5t-9 2.5t-9 2.5t-10.5 3t-10.5 4t-10.5 4.5t-11.5 3.5q-17 6 -33 20q-4 2 -6 6.5t-4 8.5q3 12 13 17q8 -2 14 -7
t14 -7q0 -1 0.5 -2t0.5 -2l2 2l6 -3q-2 -6 -2 -8q5 -5 9.5 -4.5t9.5 0.5q13 -1 26 7t19.5 17.5t11.5 29.5q5 17 6 35t1 36q-1 6 -1.5 11.5t-2.5 11.5q-2 10 -5 18.5t-8 16.5q-4 8 -9.5 11.5t-12.5 5.5q-8 2 -12 4q-11 5 -18 16q-1 8 1.5 14.5t6.5 12.5q6 11 12.5 20.5
t13.5 20.5q8 11 15 21t14 21q10 14 19 28.5t17 29.5q11 17 15 37v4q-3 -2 -6 -4.5t-6 -5.5q-3 -4 -5.5 -7.5t-4.5 -6.5q-3 -4 -5.5 -6.5t-4.5 -7.5t-5.5 -8t-5.5 -7q-9 -13 -18 -25.5t-17 -26.5q-9 -14 -17.5 -29t-16.5 -29q-6 -10 -12 -19.5t-11 -20.5q-6 -12 -12 -23.5
t-11 -24.5q-3 -8 -6.5 -16.5t-6.5 -17.5l-12 -33q-5 -14 -9.5 -27.5t-9.5 -27.5q-3 -8 -6 -16.5t-2 -17.5l-3 -3q1 -4 3 -7.5t-2 -7.5q-2 -2 0 -5q1 -5 1.5 -9t-1.5 -9t-1.5 -11t0.5 -11t0.5 -10.5t-0.5 -10.5q0 -4 -2 -12v-13zM51 281h2v16v8.5t-2 8.5v-33zM60 488
q-2 -3 -2 -6.5t2 -8.5v15zM306 468h1v13h-1v-13zM56 427q4 7 0 12v-12zM54 372q1 3 1.5 6.5t-1.5 8.5v-15zM278 88h2v10h-2v-10zM65 49v7q2 -4 0 -7zM68 59v5h1v-5h-1zM70 70v4h1q0 -3 1 -4h-2z" />
    <glyph glyph-name="P" unicode="P" horiz-adv-x="276" 
d="M69 305q12 30 21 60q3 9 8 20q5 14 11 28l12 28q7 15 15 29.5t16 28.5q7 10 14.5 19t15.5 18q9 9 17 13q8 5 19 7t19 0q11 -3 20 -9q8 -5 16.5 -9.5t16.5 -10.5q6 -5 9.5 -11t5.5 -14q6 -29 5 -55l-3 -15q0 -4 0.5 -7.5t-2.5 -6.5q1 -5 0 -10l-2 -10q-2 -11 -4 -21
t-4 -21q-2 -10 -5 -19.5t-6 -19.5q-3 -11 -7.5 -20.5t-9.5 -19.5q-4 -9 -9 -17l-10 -16q-5 -9 -11.5 -15.5t-13.5 -12.5q-8 -8 -17 -12.5t-19 -8.5q-11 -4 -22 -7l-22 -6q-8 -2 -15 -3.5t-15 -1.5q-3 0 -5 -1q-4 -3 -7.5 -1.5t-7.5 2.5q-5 0 -5 -4.5t-2 -6.5q-2 -9 -4 -17.5
t-4 -16.5l-2 -12l-2 -12q-2 -6 -2.5 -12t-2.5 -12q-1 -7 -0.5 -13.5t-1.5 -12.5q-2 -8 -1.5 -15t-1.5 -14q-2 -16 -1.5 -31.5t-0.5 -31.5v-24q-1 -2 -1.5 -2.5t-1.5 -2.5q-2 1 -2.5 1.5t-2.5 1.5q-1 -1 -1.5 -1t-1.5 -2l-6 6h-7q-1 2 -1 4t-1 5q-2 -6 -2 -7q-2 4 -2 7
l-1.5 -3t-0.5 -3q-5 -3 -7.5 2t-6.5 3l-6 9q-1 5 -1.5 9.5t-1.5 9.5q0 5 1 10t-1 10q-2 8 -1.5 15.5t-0.5 15.5q-4 22 -2.5 44t0.5 44q0 5 -2 8q-1 2 -1.5 5t1.5 5q2 5 2 8.5v8.5v56q0 8 1 14.5t1 14.5t-1 15t1 14q2 9 2 18.5v19.5q0 5 2 9.5t1 9.5t-1.5 10.5t1.5 10.5
q2 8 1.5 16.5t0.5 16.5q0 5 1 8.5t1 8.5q1 5 0 9.5t1 8.5q2 7 1.5 13.5t0.5 13.5q0 4 1 8t1 9q0 4 -0.5 8.5t2.5 8.5v3q-1 12 1 24t1 24q0 5 2 8.5t1 8.5t-1.5 9t1.5 8q2 5 1.5 11t0.5 11q2 7 2 14t7 12q8 -4 12 -7q3 -2 4.5 -5t5.5 -4q3 -8 4.5 -17.5t3.5 -18.5
q1 -5 1 -10.5t1 -11.5q2 -13 2 -25.5v-25.5q1 -13 0.5 -26t-0.5 -26q0 -16 1 -31.5t-1 -30.5q-2 -14 -1.5 -28.5t-0.5 -28.5v-6zM245 515q-2 -1 -3 -1t-3 -1q-9 -8 -20 -20.5t-16 -21.5q-10 -17 -19 -34t-17 -35q-7 -16 -13.5 -30.5t-12.5 -30.5l-18 -51q-6 -17 -11 -33
t-11 -33q-2 -4 -2.5 -8.5t-1.5 -9.5q5 2 8.5 2.5t7.5 2.5q6 2 12.5 5t11.5 7q15 8 30 25q19 22 33 50q7 13 12 25.5t10 25.5q5 12 7.5 24t6.5 24q2 8 2 12q1 9 4 17t1 17q4 5 2 14q0 4 1.5 7t1.5 7v39q0 2 -3 5zM58 287q1 7 1.5 14t-1.5 14v-28zM61 370h1v23h-1v-23z
M296 428h2v9h-2v-9zM294 412h1v5h-1v-5z" />
    <glyph glyph-name="J" unicode="J" horiz-adv-x="275" 
d="M114 445q-5 0 -6 -1l-22 -16t-22 -15q-5 -3 -9.5 -6.5t-9.5 -7.5l-4 -2q1 2 1 3t1 3q-6 0 -9 -4t-8 -6l-3 3q-5 -2 -9.5 -6.5t-10.5 -4.5q-1 1 -1.5 2t-1.5 2q0 1 1 2q4 4 7.5 8t7.5 9q6 6 12 11.5t12 10.5l15 15q8 8 15 15.5t15 15.5l21 21q17 -3 31 -14q2 -2 5.5 -3.5
t6.5 -3.5q10 -3 17 -16q6 -13 10 -27t7 -28q2 -8 3 -15t3 -15q2 -4 1.5 -7.5t1.5 -8.5t1.5 -11.5t0.5 -13.5q2 -8 2 -13q1 -3 0.5 -6.5t2.5 -6.5v-1q1 -8 1 -16.5t1 -16.5q1 -5 1.5 -10.5t1.5 -11.5q2 1 2.5 1t2.5 1q6 5 12 9t12 9q11 8 22 12.5t22 11.5q5 3 11 4.5t11 3.5
q7 3 14 -6q-1 -3 -3.5 -3t-4.5 -1q-13 -7 -26 -17l-28 -22t-28 -21q-5 -3 -9 -7.5t-8 -8.5q0 -8 -1 -15t1 -14q2 -11 1.5 -23t0.5 -23q0 -6 -1 -12t-1 -12q-1 -6 0 -12t-1 -12q-2 -10 -2 -20t-2 -20q-3 -14 -6 -29t-7 -30q-2 -9 -5 -17.5t-6 -17.5q-4 -9 -9 -18t-10 -17
q-5 -9 -11.5 -16t-13.5 -12q-13 -10 -29 -15q-8 -3 -19 -3t-20 2q-5 2 -8.5 3t-8.5 3q-9 3 -13 10.5t-6 15.5q-3 11 -2.5 22.5t0.5 23.5q4 5 3 11t1 12q2 5 1.5 11.5t1.5 11.5q3 10 5 19.5t6 19.5l15 36q5 12 12 23l14 22q5 8 10 14.5t10 14.5q3 6 7.5 10.5l9.5 9.5
q2 3 4.5 6.5t4.5 5.5q2 9 -0.5 16.5t-1.5 15.5t1.5 15.5t-1.5 15.5q-2 9 -1.5 18t-1.5 17q-1 8 -0.5 16.5t-1.5 16.5q-1 7 -0.5 13.5t-1.5 12.5q-2 8 -2 14.5v13.5q-1 5 -2 8.5t-1 8.5q1 5 1 9t-3 8v1q-1 10 -1 19t-1 19zM129 141q-4 -4 -6 -7l-14 -20t-15 -21
q-5 -8 -10 -17t-10 -19q-3 -7 -6 -13t-6 -13q-3 -8 -5.5 -15t-4.5 -15q-1 -4 -1.5 -8t-1.5 -8q-1 -5 -2 -9t-1 -9q-1 -5 -1.5 -8.5t-1.5 -8.5q-2 -9 0 -17.5t3 -16.5q0 -4 4 -12q2 -5 6 -7.5t8 -0.5q8 3 14.5 7t12.5 10q14 13 19.5 29.5t10.5 34.5q1 5 1.5 11t2.5 12t1 12
t1 12q2 7 2 14t1 14q2 13 1 25.5t1 25.5q2 5 1 11t-1 12q1 5 -3 15zM192 94q3 11 0 23v-23zM192 83h-2v-6.5t2 -5.5v4v8zM188 52q1 0 2 1q-1 2 -1 6h-1v-7zM192 200h2v6h-2v-6zM187 41h-2q0 -2 0.5 -2.5t0.5 -1.5h1v4z" />
    <glyph glyph-name="D" unicode="D" horiz-adv-x="296" 
d="M169 485q5 -1 10 -0.5t10 -2.5q2 -2 5 -3t5 -3q8 -7 15 -10q10 -5 17 -21q5 -8 7.5 -17.5t4.5 -19.5q2 -9 3 -18t4 -18v-1q1 -11 1.5 -22.5t0.5 -22.5t0.5 -22.5t-0.5 -22.5q-2 -9 -1.5 -18t-1.5 -17q-1 -6 -1 -11.5t-1 -11.5q0 -5 -2 -13q0 -9 -2 -14q-1 -4 -1 -8.5
t-1 -9.5q-2 -18 -7 -35l-10 -34q-12 -33 -34 -58q-18 -21 -44 -29q-1 -1 -3 -1q-14 -1 -28.5 -2t-28.5 -1q-8 0 -15.5 1.5t-15.5 1.5h-4q-1 -11 -2.5 -20.5t-0.5 -20.5t0.5 -21.5t-0.5 -21.5q-6 2 -9 2l-4 -2q0 3 -1 5v1q-4 1 -7 1.5t-6 0.5q-10 2 -13 3.5t-8 11.5
q0 24 0.5 47.5t-0.5 47.5q0 17 2 35t0 35q3 8 2 17t1 17t1 16t1 16q2 7 1.5 13.5t1.5 12.5q1 6 0.5 12t1.5 12t1.5 12t0.5 11q2 5 1.5 10t1.5 10t1 10t1 10t1 9.5t1 8.5q2 5 1.5 9.5t0.5 9.5q2 4 1.5 8t1.5 9q0 6 2 16t3 19.5t3 20.5q2 5 1.5 10.5t1.5 11.5q2 8 2 16.5
t2 16.5v5q1 8 1.5 14.5t1.5 14.5q0 2 1 5t2 8q-1 0 7 4q1 0 3.5 -1.5t3.5 -3.5l4 -8t2 -9q-1 -33 -0.5 -66.5t0.5 -67.5q-3 -11 -2 -22t-1 -22q-2 -9 -1.5 -18.5t-0.5 -18.5q-2 -8 -2 -16.5v-16.5v-5l6 16t5 16q4 11 7 21.5t8 21.5q4 10 7.5 20t7.5 21q5 16 11.5 31t13.5 31
q6 14 13.5 27t17.5 24q2 3 5.5 5.5t6.5 5.5zM56 52l2 2q1 0 2 0.5t3 0.5q24 0 41 19q11 11 20.5 22.5t16.5 25.5q5 11 9 21t8 21q4 10 6.5 20.5t4.5 20.5q2 8 3.5 14.5t2.5 14.5v8t2 7t1.5 6t0.5 6t1 6.5t1 6.5q2 8 2 12q1 5 1 10t1 10q2 5 2 10.5t1 10.5q2 11 2 22v22v23
v25.5t-3 26.5q-3 -3 -7 -9q-5 -8 -9.5 -16t-8.5 -17q-10 -22 -19.5 -43.5t-17.5 -44.5q-5 -14 -9.5 -26.5t-8.5 -26.5q-5 -15 -10 -30.5t-10 -31.5q-3 -11 -6 -22.5t-5 -22.5q-2 -8 -4 -15.5t-4 -15.5t-3.5 -17t-3.5 -17q-2 -9 -4.5 -18.5t-0.5 -20.5z" />
    <glyph glyph-name="Q" unicode="Q" horiz-adv-x="303" 
d="M274 -77q-8 0 -10.5 0.5t-7.5 4.5h-12q-11 11 -21 22.5t-20 23.5q-9 12 -17 25t-17 26q-2 -4 -4.5 -6.5t-3.5 -5.5q-1 -6 -4.5 -10t-5.5 -9t-6 -8t-6 -8q-2 -4 -6.5 -6t-7.5 -5q-7 -8 -14.5 -7.5t-15.5 -0.5q-6 5 -13 6.5t-15 3.5q-9 4 -17 11q-4 2 -8 5t-6 10
q-6 7 -10 16l-8 18q-8 20 -11 38q-2 8 -2.5 17t-2.5 17q-2 10 -1.5 19t-0.5 19v38q0 4 1 7.5t1 8.5q1 4 0.5 7.5t1.5 8.5q2 4 2 9t1 10q0 7 1 13l2 12t1.5 12t2.5 12q4 11 5 22.5t6 22.5q2 14 6 27.5t6 27.5q5 9 7 19t5 19q4 10 7 19.5t6 18.5q1 2 1 3.5t1 3.5q2 5 4 9.5
t4 9.5q6 13 12 25t16 23h9l6 -6q3 3 4 5q8 17 20.5 30.5t26.5 20.5q13 5 18 4.5t17 -5.5q16 -8 31 -17q10 -6 16 -18q5 -11 8.5 -23t5.5 -23q1 -5 0.5 -10t1.5 -10t1 -10t1 -10q3 -9 2.5 -18.5t-0.5 -19.5v-37q0 -5 -0.5 -8.5t-1.5 -7.5q-1 -5 -0.5 -8.5t-1.5 -7.5
q-2 -6 -1.5 -12.5t-1.5 -12.5q-2 -8 -3 -17t-3 -18q-2 -8 -2.5 -15.5t-2.5 -15.5q-3 -12 -5 -24t-7 -23q0 -11 -3.5 -20t-5.5 -18t-5.5 -18t-7.5 -18q-3 -8 -5 -15.5t-6 -15.5q-2 -5 -1 -9t3 -9q5 -12 9 -24t10 -23q3 -7 5 -14.5t6 -13.5q5 -7 7.5 -14t6.5 -14t7.5 -14.5
t5.5 -15.5q1 -5 3.5 -10t3.5 -10q2 -6 3 -11zM187 157q3 4 3 5q2 7 4.5 14t4.5 14q5 14 8 27.5t7 27.5q5 18 8 36.5t7 37.5q2 8 3 17t1 18q1 10 2.5 19.5t0.5 19.5q-1 14 -0.5 28t-1.5 28q-2 9 -2.5 18.5t-1.5 18.5l-4 18l-4 18q-3 17 -13 29q-3 -2 -5.5 -3t-4.5 -3
q-19 -16 -27 -47q-2 -8 -3.5 -15t-3.5 -14q-3 -8 -4 -15.5t-2 -15.5q-3 -17 -3 -34v-24t2 -24q2 -9 1 -18.5t1 -18.5q2 -5 1 -10.5t1 -10.5t1.5 -11t1.5 -11q1 -4 1 -7.5t1 -7.5q2 -4 1.5 -7.5t0.5 -8.5q2 -10 4 -19.5t4 -19.5q2 -12 4.5 -23.5t5.5 -25.5zM81 -12h5.5t5.5 2
q3 3 6 5.5t6 5.5l10 12t10 13q11 14 18 28q2 5 4 9.5t0 9.5q-1 4 -2 7t-3 7q-5 12 -8 22q-6 20 -11.5 39.5t-9.5 39.5q-2 11 -4.5 20.5t-4.5 20.5l-2 10t0 10q-4 10 -4 20t-3 20q1 13 -1.5 25.5t-0.5 25.5v16q-2 2 -2.5 3t-2.5 0q0 -2 0.5 -5t-0.5 -5q-3 -8 -4 -17t-3 -17
q-1 -5 -1 -8.5t-1 -7.5q-3 -9 -4 -18t-3 -18q-2 -5 -1.5 -11t-1.5 -11q-1 -5 -0.5 -9.5t-1.5 -9.5t-1.5 -9t-0.5 -9v-3q-3 -5 -2 -9t0 -9t-1.5 -10t-0.5 -10v-87q0 -2 -0.5 -4t0.5 -4q2 -3 1.5 -6.5t0.5 -6.5q1 -4 1.5 -7t0.5 -7q1 -5 2 -8.5t2 -8.5q2 -10 6 -18.5t7 -17.5z
M145 358q2 17 2 32.5t-2 22.5v-55zM50 156l-1 1v-18h1v17zM53 202h2q0 5 -1 7h-1v-7zM51 178h1v8h-1v-8zM252 289h-2q0 -3 1 -4h1v4zM248 272h2q0 2 -0.5 2.5t-0.5 2.5q-1 0 -1 -1v-4zM244 248h1v6h-1v-6zM262 371h2q-1 2 -1 5q-1 0 -1 -1v-4zM56 222h1v5h-1v-5zM259 348h2
q0 3 -1 4h-1v-4zM148 436h-1v-5h1v5zM257 329h1v5h-1v-5zM255 314h2q-1 1 -1 4h-1v-4z" />
    <glyph glyph-name="V" unicode="V" horiz-adv-x="270" 
d="M225 551h6t5 -5v-9q0 -10 2 -15q2 -4 2.5 -8t0.5 -9v-28q-1 -14 -1 -27t-2 -27q-1 -6 -0.5 -12t-1.5 -11q-2 -7 -1 -13t-1 -11t-2 -8.5v-7.5q-1 -4 -1.5 -8t-1.5 -8q0 -6 -2 -16q-3 -11 -4.5 -23.5t-4.5 -24.5q-4 -14 -6.5 -29.5t-6.5 -30.5q-1 -2 -1 -9q2 -7 -0.5 -13
t-2.5 -13q0 -1 -2 -3q1 -1 3 -5q-2 -6 -3.5 -13t-3.5 -14q-2 -12 -5 -24.5t-7 -24.5q-5 -15 -10.5 -30.5t-11.5 -30.5q-4 -8 -7 -16t-7 -16q-16 -37 -40 -61q-5 -4 -10 -6l-10 -4q-2 -1 -4 0.5t-4 2.5q-10 2 -14 3q-18 4 -30 21q-5 8 -9 16t-8 17q-3 10 -5 20t-6 21
q-2 5 -1.5 11t-0.5 12q-1 5 -1.5 8.5t-0.5 7.5q-1 4 -1 8t-2 8q-1 2 -0.5 4t0.5 4v123q0 8 2 14t1 14q-1 7 -1.5 14t1.5 13q2 8 1.5 16.5t0.5 16.5q1 5 2 8.5t0 8.5q0 7 2 17q1 8 2 15t3 14q1 8 8 15h5.5t4.5 -3q2 -2 5 -3.5t5 -3.5q7 -5 9.5 -13.5t3.5 -16.5q0 -4 1 -7.5
t2 -7.5q0 -3 -0.5 -7t2.5 -7v-4q-2 -11 0.5 -22t1.5 -22v-45q0 -8 2 -15.5t0 -15.5q-2 -14 -1.5 -28.5t-0.5 -29.5v-58q1 -11 1.5 -20.5t0.5 -20.5q1 -10 0 -20t1 -20q1 -9 1.5 -19t6.5 -18q4 -1 7 1.5t6 5.5q13 13 21.5 29.5t16.5 33.5q5 12 10.5 24.5t10.5 25.5
q14 32 25 68q2 8 4.5 17t4.5 18t4.5 17.5t4.5 16.5q1 4 1 7.5t2 6.5q2 4 1 7.5t1 5.5q2 4 1.5 8t2.5 6q-1 8 1.5 16t3.5 16q2 8 3 17t4 17q2 6 1.5 12t0.5 12q2 8 2 13q1 3 0.5 6.5t2.5 5.5v2q-1 8 0 16.5t2 17.5q1 17 2 34.5t0 34.5q2 8 1.5 15t1.5 15q2 10 1.5 19.5
t0.5 20.5zM51 94h2v42l-1 1h-1v-43zM53 291q-4 -8 0 -12v12z" />
    <glyph glyph-name="H" unicode="H" horiz-adv-x="290" 
d="M252 253q-2 -8 -2 -13v-113q0 -8 -1.5 -15t-0.5 -15t1.5 -15.5t-1.5 -15.5q-3 -10 -3 -19.5t-5 -18.5v-1q2 -8 0 -15t-2 -15q-2 -10 -2.5 -19.5t-1.5 -19.5q0 -4 -1 -7.5t-2 -8.5q-1 4 -1 7t-1 5h-2q0 -2 -0.5 -3.5t-0.5 -3.5q-4 1 -7.5 4t-7.5 -2q-8 3 -10 8.5t-2 12.5
q-1 10 -3 19t0 19q-2 6 -2 12v13q0 2 -1.5 4.5t-1.5 4.5q-1 2 -1 4.5t-1 5.5q-2 4 -1 8.5t-2 9.5q1 10 -0.5 20t-1.5 19v112v10q-24 -5 -47 -8.5t-47 -8.5v-15q0 -10 1 -19.5t-1 -19.5q-2 -9 -2 -18.5v-18.5v-38q0 -4 -1 -7.5t-1 -8.5q-2 -4 -2 -7.5t-1 -8.5
q-2 -5 -1.5 -11.5t-1.5 -12.5q-2 -10 -1.5 -20t-1.5 -20q-2 -8 -1.5 -15.5t-1.5 -15.5q0 -5 -0.5 -10t-4.5 -9l-15 3v3q-2 0 -4.5 -0.5t-4.5 -0.5t-3.5 1t-5.5 3q-2 6 -2 12.5v14.5q0 14 -2 27t-2 26q0 10 -1 19t-3 18q-2 5 -1.5 10t-1.5 10q-3 14 -2.5 28t-0.5 29v57v4h-20
v2q5 2 9.5 3.5l10.5 3.5q4 4 4 14q-2 12 1 24t1 24q2 7 1.5 13.5t0.5 13.5q1 3 1.5 6.5t2.5 7.5q0 4 -0.5 7.5t1.5 7.5q2 3 1 7.5t0 7.5q2 5 1.5 9.5t0.5 9.5q2 5 1.5 9t1.5 9q3 12 4.5 23.5t3.5 23.5q1 7 2 13.5t3 13.5t3.5 13.5t4.5 13.5q0 2 1 3t2 3q2 -2 2 -3q1 1 5 3
q0 -2 1 -1t2 3t2 3.5t1 -1.5l3 3q2 -5 4.5 -9t4.5 -10q0 -1 2 -2.5t4 -3.5v-3q-1 -5 -1.5 -13t-1 -17t-1 -17t-0.5 -12q0 -9 -0.5 -18.5t1.5 -17.5q2 -11 1.5 -22.5t-0.5 -22.5q1 -11 0.5 -22.5t0.5 -22.5q0 -7 -2 -12.5t-1 -11.5t0.5 -12t-0.5 -12q8 -2 11 2q14 2 28.5 6.5
t28.5 6.5q6 1 11.5 3.5t12.5 1.5q4 10 4 19.5v19.5q0 5 1 9t1 8q1 5 0 9t1 8q2 5 1.5 10t0.5 10q0 4 1 7.5t2 6.5q0 10 2 15q1 5 1.5 11t0.5 11q1 11 4 21.5t2 21.5q2 4 1.5 8t1.5 7q1 4 1 7.5t1 7.5q3 11 4.5 22.5t3.5 22.5q2 13 6 25q2 6 2.5 12.5t5.5 11.5q1 0 1 -0.5
t1 -0.5q-1 0 5 2q-2 -5 1 -3.5t0 -3.5q1 -2 2 -3.5t2 -3.5q2 4 3 8v-17q1 0 2 -1q0 2 0.5 4t0.5 4q2 -7 0.5 -20t-1.5 -19v-13t1 -13q2 12 3.5 30t3.5 30q0 -4 -2 -14t-1 -14q0 -4 -0.5 -8t0.5 -8q4 -17 2.5 -34t0.5 -34q-5 -25 -3 -50.5t-1 -51.5q-2 -17 -1.5 -35t-0.5 -35
q0 -3 2 -9zM238 144q1 8 1.5 22t0.5 28.5t-0.5 26.5t-1.5 16v-10v-83zM80 208q-2 -7 -2 -14t2 -14v28zM75 125v-28q5 14 0 28zM80 277q4 14 0 25v-25zM242 336q-1 -5 -1.5 -10t1.5 -10v20zM232 3q-3 -10 0 -17v17zM69 -30h-1v-16h1v16zM245 427q5 7 0 12v-12zM243 375h2v12
q-1 0 -2 1v-13zM236 66h-2q1 -4 1 -10h1v10zM70 25h2v10h-2v-10zM73 53h1v8h-1v-8z" />
    <glyph glyph-name="L" unicode="L" horiz-adv-x="230" 
d="M241 125h11q4 -3 7.5 -5.5t7.5 -5.5q-6 -5 -11.5 -9t-10.5 -8l-33 -27q-14 -11 -26.5 -21.5t-25.5 -21.5q-11 -9 -21.5 -16.5t-21.5 -15.5t-21.5 -16.5t-21.5 -18.5q-5 -5 -10 -9t-11 -9q-3 -2 -6.5 -4.5t-8.5 1.5q-4 3 -8 3t-9 1q-1 0 -1 1l-1 1q-8 2 -11 8t-5 14
q-3 10 -3 22v73q0 5 1 10t1 10q1 5 0 10t1 10q2 8 1.5 15t0.5 14q0 5 0.5 8.5t1.5 7.5q1 5 0 8.5t2 7.5q1 1 0.5 2.5t-0.5 2.5q1 5 0.5 10t1.5 10t1 10t2 10v2v9.5t2 9.5q2 4 1 8.5t1 9.5q2 7 1.5 13.5t1.5 12.5q2 11 2.5 21t3.5 21q2 5 2 11t1 12q0 2 2 10q1 2 0.5 4.5
t1.5 4.5q1 2 0.5 5t-0.5 5q2 6 3 10q2 13 5 25t5 24q3 19 10 34q5 9 10 16q5 1 10 -2q8 -5 16 -8q10 -6 10 -18v-73q-3 -9 -2 -18.5t-1 -18.5q-1 -8 -0.5 -15.5t-1.5 -15.5q-1 -7 -0.5 -13.5t-1.5 -13.5q-2 -6 -1.5 -12.5t-0.5 -13.5q-1 -4 -1.5 -7t-0.5 -7q-1 -4 -0.5 -7.5
t-1.5 -7.5q-2 -3 -0.5 -7.5t-0.5 -8.5q-2 -5 -1.5 -11t-0.5 -11q-2 -5 -1.5 -11t-1.5 -11q-1 -5 -0.5 -10.5t-1.5 -10.5t-1.5 -10t-0.5 -10q-2 -5 -1.5 -10.5t-0.5 -10.5q-2 -5 -1.5 -10t-1.5 -10q-1 -5 -0.5 -9t-1.5 -8q-2 -5 -1.5 -8.5t-0.5 -8.5q-2 -8 -2.5 -15t-2.5 -15
q-2 -5 -2.5 -10.5t-1.5 -10.5q0 -2 -2 -5t1 -7q8 6 12 10q11 9 20.5 18t20.5 17q10 8 19.5 15t20.5 15t21.5 15.5t21.5 15.5t22 16.5t22 16.5zM96 442q-4 -9 0 -15v15zM64 93h-2v-13h2v13zM91 366q-2 -8 0 -12v12zM88 326h1v11l-1 1v-12zM87 312h-2v-12q1 0 2 -1v13zM78 229
q4 8 0 13v-13zM66 114q-1 -3 -1.5 -6.5t1.5 -8.5v15zM94 395h-2v-9h2v9zM83 276h2q0 7 -1 10h-1v-10zM67 125h2q0 2 -0.5 5t-0.5 5h-1v-10zM71 156l-2 -1v-9h2v10zM74 188h2q0 2 -0.5 4.5t-0.5 4.5h-1v-9zM78 218h-2v-10q1 0 2 1v9zM73 176h-2q0 -6 1 -9h1v9zM62 72h-2v-9h2
v9zM81 253h2q-1 3 -1 9h-1v-9zM59 51h-2q0 -2 0.5 -3.5t0.5 -3.5h1v7zM55 29h2v7h-2v-7z" />
    <glyph glyph-name="E" unicode="E" horiz-adv-x="250" 
d="M86 264q16 8 31.5 15.5t32.5 13.5q11 4 21 7t21 8q5 2 8.5 1.5t6.5 -0.5q5 -2 9.5 -5t9.5 -5q-3 -2 -5.5 -3.5t-5.5 -2.5q-11 -3 -20.5 -8t-19.5 -10q-13 -5 -26 -11t-25 -11q-5 -2 -9.5 -2.5t-9.5 -2.5q-2 -2 -5.5 -0.5t-7.5 1.5q-2 0 -8 -3q0 -2 -1 -5.5t-1 -7.5
q-1 -6 -3 -11t0 -12q-5 -5 -2.5 -11t-2.5 -11q1 -5 -0.5 -10.5t-1.5 -10.5q-1 -4 -1.5 -7t-1.5 -8q-2 -3 -0.5 -7t-2.5 -7v-6v-7.5t-2 -8.5q-2 -3 -1 -7t-1 -8q-2 -5 -1.5 -11t-1.5 -11q-1 -14 -3 -28.5t0 -29.5q0 -4 1.5 -7t2.5 -8q13 3 26.5 7t27.5 11q7 -2 13.5 1.5
t12.5 5.5q7 2 13.5 4.5t13.5 4.5q17 4 32.5 9.5t32.5 10.5q8 2 14.5 -0.5t11.5 -6.5q5 -3 9 -6.5t8 -5.5q2 2 4.5 0.5t4.5 -2.5q-6 -8 -14.5 -12t-16.5 -9q-17 -9 -32 -14q-14 -7 -27 -12.5t-28 -8.5q-4 -1 -7 -1t-5 -2q-4 -3 -7 -2t-7 -2q-2 -3 -5.5 -1t-6.5 -3h-1h-14
q-4 -1 -7 -1.5t-7 -1.5q-10 -1 -19 2t-19 6q-4 1 -7 2l-6 2q-10 2 -17 6.5t-15 11.5q-6 5 -8.5 12.5t-4.5 15.5t-3 17t0 19q1 14 0 29q0 10 2.5 19t0.5 19q3 5 2.5 9.5t0.5 9.5t1 9t1 8q3 14 4.5 28t5.5 28q2 8 3 17l2 18q4 15 7 31q2 8 2.5 15t2.5 15q3 8 4.5 16.5
t3.5 16.5t4 16.5t4 17.5q2 15 6 30.5t7 29.5q4 14 7 29t9 29q3 0 5.5 -0.5t6.5 0.5q5 0 9.5 0.5t9.5 1.5t9.5 0t8.5 3h4q9 -2 18 2t18 4q2 5 7 3t9 2q5 1 11 2t13 1q3 0 6.5 1.5t6.5 2.5q5 0 8.5 -1.5t5.5 3.5h14.5t12.5 -7q2 -2 6 -3t7 -3q0 -5 -3 -5.5t-5 -1.5
q-11 -2 -22 -7t-22 -8q-5 -1 -9.5 -2t-9.5 -3q-7 -2 -14.5 -3.5t-15.5 -4.5q-5 -2 -9.5 -0.5t-7.5 -2.5q-7 2 -13.5 0t-11.5 -2q-7 -2 -13 -2.5t-13 -2.5l-3 -3v-25q2 -14 -0.5 -28.5t-1.5 -28.5q-3 -5 -3 -11v-12q-1 -5 -1.5 -11t-1.5 -12q-1 -5 -1 -10t-1 -10
q-2 -5 -1.5 -10t-1.5 -10q-3 -5 -1.5 -11.5t-3.5 -12.5q-1 -2 -0.5 -4.5t0.5 -6.5zM102 468h-3v-17q0 -2 1 -2t2 -1v20zM97 421h2q0 2 -0.5 5t-0.5 5h-1v-10zM94 398h2v8h-2v-8zM48 60h-3q1 -3 1 -8h2v8zM52 100h1v5h-1v-5zM51 85h-2q0 -4 1 -5h1v5z" />
    <glyph glyph-name="F" unicode="F" horiz-adv-x="212" 
d="M273 348v-21q-3 -2 -6.5 -4t-8.5 -2q-10 -1 -18.5 -3.5t-18.5 -3.5q-12 -1 -23.5 -2.5t-23.5 -3.5q-8 -2 -15.5 -1.5t-15.5 -1.5q-7 -2 -12.5 -1.5t-11.5 -1.5q-7 -2 -13 -2t-12 -1q-2 -10 -3.5 -19.5t-1.5 -19.5q2 -5 0.5 -11t-2.5 -11q-2 -5 -0.5 -10t-2.5 -10v-3
q-1 -11 -2 -21.5t-1 -21.5q-1 -5 -1.5 -8.5t-1.5 -7.5q0 -5 -0.5 -8t-2.5 -8q-2 -8 -1.5 -15.5t-1.5 -15.5q-1 -5 -1.5 -10t-0.5 -10q-1 -5 0 -10t-1 -10q-3 -7 -2.5 -14t-0.5 -14q-1 -14 -2.5 -28.5t-0.5 -28.5q-2 -5 -2 -8.5v-8.5q-2 -1 -2.5 -2t-2.5 -3l-4 4
q-2 -2 -3 -2.5t-2 -1.5q-2 1 -2 5h-10q-1 2 -2.5 4t-2.5 4l-3.5 -3.5l-3.5 -3.5q-4 4 -7.5 6.5t-8.5 6.5q2 11 -0.5 20t-2.5 19v39q0 7 2 13t2 14q-1 7 -1 14.5v14.5q0 3 -1 6t-1 6q2 5 0.5 8.5t-1.5 7.5v16v16v16q1 8 2 15.5t1 15.5q1 8 0 16t1 16q1 8 1 15t1 15q0 2 1 3.5
t2 3.5q-4 5 -3.5 9.5t0.5 9.5q3 3 3.5 7t2.5 9q2 11 3 21t6 21q2 5 1.5 11t0.5 11l6 26t6 25q3 14 6.5 27t6.5 26q1 7 3.5 13t5.5 12q-3 0 -6 0.5t-6 0.5q1 5 2.5 9t2.5 8q3 2 6.5 1.5t6.5 1.5q11 6 22 5q5 -2 9 -0.5t9 3.5q4 1 8.5 -0.5t8.5 2.5q0 1 1 1q3 0 6.5 -0.5
t6.5 0.5q3 0 6 1t6 1q14 0 26.5 3t26.5 1q11 5 22.5 3.5t22.5 -0.5h47q7 -6 15 -11h-8l2 -2q0 -1 1 -1q-7 -2 -14.5 -2.5t-14.5 -1.5q-3 -2 -11 -4q-2 0 -5.5 0.5t-5.5 -2.5h-3q-16 -1 -31.5 -2t-29.5 -2q-7 0 -13 -1t-12 -1q-5 -1 -11.5 0t-11.5 -1q-8 -3 -15.5 -2.5
t-15.5 -0.5q-6 -1 -11 -3t-11 -4q5 -5 4 -9.5t0 -9.5v-10t1 -10q2 8 1.5 15.5t1.5 15.5q5 -18 5 -32q-1 -11 -0.5 -23.5t0.5 -23.5q-1 -16 -3 -31.5t-1 -32.5q-4 -8 -2.5 -17t0.5 -18q4 2 5 2q8 2 16 2t15 2q8 3 15 2t15 2t16 2t16 0t15.5 0t15.5 1q11 2 23 3t25 -1zM75 260
q2 4 2.5 7.5t-2.5 10.5v-18zM54 36q5 8 0 18v-18zM92 446h-3q2 -2 2 -5.5v-6.5h1v12zM75 240h-3v-11h3v11zM52 -20h1v13h-1v-13zM88 398h3q-2 3 -2 8h-1v-8zM84 364q3 0 3 1q0 5 -2 7h-1v-8zM71 209h-2q1 -2 1 -8h1v8zM69 179h-3q0 -2 0.5 -4t0.5 -4h2v8zM58 86h3q-1 2 -1 8
l-2 -1v-7zM63 142h3v7h-3v-7zM83 339h-2v-6h2v6z" />
    <glyph glyph-name="G" unicode="G" horiz-adv-x="272" 
d="M217 471q5 -10 10 -15v-12q-1 -2 -2.5 -3t-1.5 -2q-2 -8 -2.5 -16.5t-1.5 -16.5q-2 -2 -4.5 -5t-4.5 -7q-6 3 -9 5q1 7 2 12.5t1 10.5q0 7 -1 13l-2 12q-4 4 -5 9q-2 0 -2 -1q-9 -5 -15 -12.5t-11 -15.5q-11 -17 -19 -34t-16 -35q-5 -13 -9.5 -25t-9.5 -25t-8.5 -25.5
t-8.5 -25.5q1 -8 -2 -14t-4 -14q-2 -6 -2.5 -13t-3.5 -12q0 -10 -4 -18.5t-2 -18.5q-3 -4 -2.5 -8t-1.5 -9q-1 -4 -0.5 -7.5t-1.5 -8.5t-1.5 -11t-0.5 -11q-3 -12 -2 -23.5t0 -23.5q-2 -5 -3.5 -9.5t0.5 -8.5t1.5 -7.5t1.5 -7.5q0 -3 -1 -6.5t1 -7.5q1 -11 3 -22t7 -22
q2 -2 3 -4q6 -2 10.5 0.5t9.5 5.5q22 18 39 44q16 24 28 47q6 13 10 26t7 27q1 5 2 8t0 7q0 4 1 7.5t1 7.5q2 5 1 8.5t-1 6.5q0 5 1 8t-1 6q0 3 -1 6.5t-2 5.5q-26 -15 -54 -30q-9 4 -17 5q-3 -4 -6.5 -2t-6.5 3q-3 5 -1.5 8.5t3.5 6.5q2 5 5.5 8.5t5.5 7.5q4 5 8 8t6 8t6 7
t8 5q10 11 22 21t24 19q8 5 16 8t16 7q6 3 12.5 4.5t12.5 3.5q5 2 9.5 -0.5t9.5 -4.5q4 -5 9 -7.5l11 -5.5q-4 -8 -9.5 -12.5t-8.5 -9.5q-9 -14 -22 -21q-7 -3 -12.5 -7t-11.5 -8q18 -28 13 -65q-1 -10 -3 -19.5t-4 -19.5q-4 -9 -5.5 -19t-5.5 -18q-6 -13 -11.5 -25.5
t-12.5 -24.5q-5 -9 -10.5 -18.5t-12.5 -17.5q-16 -23 -37 -36q-7 -5 -13.5 -7t-13.5 -4q-5 -1 -8.5 2t-8.5 1q-9 5 -19.5 7.5t-20.5 7.5q-8 7 -15 14t-12 16q-5 8 -7.5 16t-5.5 17q-1 5 -1.5 9.5t-1.5 9.5q-1 4 -1.5 6.5t-0.5 5.5q-1 2 -0.5 5.5t-0.5 5.5q-4 18 -3 36.5
t0 36.5q0 5 1.5 9.5t2.5 9.5v9.5t1 9.5q2 5 2 11.5t1 12.5q1 16 6 30q2 7 4 13t3 13q2 11 5.5 21t5.5 19q4 14 8.5 27.5t9.5 26.5q5 11 9.5 20l9.5 19q7 14 13.5 26.5t14.5 24.5q10 14 20 26t24 19q9 5 17.5 7.5t18.5 -2.5q8 0 14 -4t13 -8q2 -2 5 -3t5 -3q1 0 3 2zM57 97
q-1 -4 -1.5 -8t1.5 -8v16zM226 131h1v9h-1v-9zM59 126h-1v-9h1v9zM222 117h3q0 3 -2 6h-1v-6zM62 140h1v5h-1v-5zM65 162h-1v-6h1v6z" />
    <glyph glyph-name="C" unicode="C" horiz-adv-x="195" 
d="M200 80q2 3 4 3q-1 -10 -3.5 -19t-5.5 -18q-3 -8 -7 -14.5t-6 -14.5q-3 -8 -7 -14.5t-8 -14.5q-5 -8 -11 -15t-13 -15q-8 -10 -21 -17q-9 -4 -14.5 -4t-14.5 2q-6 1 -11.5 4t-12.5 2q-7 4 -14.5 7.5t-13.5 9.5q-11 11 -17 24t-10 27q-2 8 -4 17t-3 18q-2 8 -3 16.5
t-1 17.5q-1 9 -0.5 17.5t-0.5 17.5q0 5 0.5 9t-2.5 8v3q4 12 2.5 24.5t0.5 25.5q1 8 1 16.5t1 17.5q2 8 2 17t2 17t3 17t4 18q1 3 0.5 7t1.5 8q2 5 1.5 9.5t1.5 8.5q2 5 2 9t2 9l12 39q1 8 5 17q5 13 10.5 25.5t12.5 24.5q7 11 14 20.5t15 17.5q16 16 38 24q13 4 28 -2
q5 -3 11 -6t11 -7q3 -2 9 -10q-6 -6 -8 -9l-6.5 6.5t-6.5 7.5h-10q-2 -2 -5 -4t-5 -4q-12 -12 -20.5 -26t-15.5 -31q-6 -14 -10.5 -29t-8.5 -30q-2 -8 -4 -16.5t-4 -17.5q-2 -8 -3 -17t-3 -17q-2 -6 -2 -12t-1 -12q-2 -8 -2 -13q-1 -3 -0.5 -6.5t-2.5 -5.5v-1
q0 -8 -0.5 -16.5t-1.5 -16.5q0 -5 -1 -10t-1 -10t0.5 -10.5t-0.5 -10.5q-3 -12 -2.5 -24.5t0.5 -24.5q-1 -13 -1.5 -25.5t1.5 -25.5q1 -8 1 -16t1 -16q1 -5 1.5 -9.5t0.5 -9.5t1 -10l2 -10q2 -8 4.5 -16.5t4.5 -17.5q2 1 3.5 1t2.5 1q13 6 24 18q8 8 15 17t12 19q5 9 9 17.5
t9 17.5q5 8 9 17t9 17q2 5 3.5 8.5t3.5 7.5q3 6 6.5 12t5.5 11q4 -2 7 -4q0 -5 -0.5 -9.5t-1.5 -9.5q1 1 2 1t3 2q-2 -5 -3 -9.5t-3 -9.5q2 1 2.5 1.5t2.5 1.5q-1 -7 -4 -16l1 -1h1q0 1 -0.5 2t-0.5 2l-1 -2v-1zM57 168q-1 -6 -1.5 -12.5t1.5 -12.5v25zM59 205h-1v-13h1v13z
M56 70h1v10h-1v-10zM62 228h-2v-9h2v9zM64 246h-2q0 -3 1 -4h1v4zM66 265h-1v-5h1v5zM198 70h2q-1 2 -1 5h-1v-5zM207 91v4q0 1 1 1q0 -3 1 -5h-2zM207 89l-2 -6q0 1 -0.5 1.5t-0.5 2.5h1z" />
    <glyph glyph-name="I" unicode="I" horiz-adv-x="144" 
d="M48 488q-6 -5 -12 -7.5t-12 -5.5t-11.5 -6.5t-11.5 -7.5q-1 3 -1 7q9 12 20.5 20t23.5 15q5 2 8 4.5t5 8.5q4 0 12 4.5t11 4.5v1q10 6 20 10q5 2 10.5 4t10.5 4l10 4l10 4q6 2 11 3.5t11 3.5q5 2 11 2t11 1l4 -4q-4 -1 -10 -5q-8 -5 -19 -9q-13 -4 -24.5 -9.5
t-22.5 -10.5q-5 -2 -11 -4.5t-12 -5.5v-9q-3 0 -4 -1v-11q2 2 2 4t1 4q1 -6 2.5 -11t1.5 -10q0 -4 1 -7.5t1 -7.5t1 -7.5t1 -7.5q0 -5 -0.5 -9t0.5 -8q3 -10 2.5 -20t-0.5 -20q1 -25 0.5 -49.5t0.5 -49.5q0 -29 1.5 -57t0.5 -57q3 -17 2 -35.5t0 -35.5v-72q0 -5 -1 -9t-1 -9
q0 -11 1 -21.5t2 -21.5l10 2t11 3q8 -5 16.5 -10t18.5 -10q-5 -7 -12 -12.5t-13 -11.5q-10 -9 -20 -15t-21 -12q-5 -3 -15.5 -11t-16.5 -10t-12 -3.5t-11 -4.5q-2 0 -8 2q-10 4 -17 4q-2 -1 -3.5 0t-3.5 2q-1 4 -4 8q2 4 4 7.5t4 6.5q8 9 17 17q6 5 12.5 10t13.5 10
q1 7 -2 15q-2 4 -0.5 8t-1.5 8q-1 0 -0.5 1t-0.5 1v15.5t-2 15.5t-2.5 17t-3.5 17q-1 1 -1 3v15t-2 15t-1.5 15t-1.5 15q-2 11 -1 22t-1 22q-3 19 -2 37.5t0 37.5v74q0 6 1 12t1 12q1 6 0 12t1 12q2 8 1 15t1 14q2 8 1 15.5t3 15.5q-1 7 1 13t2 13q0 6 2 14q0 4 0.5 7t1.5 7
t1 8.5t1 9.5q0 1 -2 6zM92 229h-1v-24h1v24zM90 483h-2v-7q0 -5 1 -7h1v14zM94 148q-2 -10 0 -15v15zM95 -13h2q0 5 -1 7h-1v-7z" />
    <glyph glyph-name="T" unicode="T" horiz-adv-x="222" 
d="M143 -136q-2 1 -4.5 1t-6.5 1q-1 0 -1 1t-0.5 1t-0.5 1l-15 3q0 -1 -0.5 -1t-0.5 -1h-1q-2 5 -6.5 5t-6.5 5q-2 4 -3 7.5t-1 8.5q-1 11 -1 22.5t-2 22.5q-1 7 -0.5 13.5t-1.5 12.5t-1.5 12.5t-1.5 12.5t-1 12t0 12q-4 13 -2.5 26t-0.5 26q-2 20 -1.5 39t-0.5 39v80
q0 10 2 19.5t1 20.5t-1.5 20.5t1.5 20.5q2 10 1 19.5t1 19.5q2 8 1 16.5t1 16.5q2 6 2 12.5v13.5q0 5 2 8.5t1 8.5t-1 9t3 8v3q1 8 1 16.5t1 17.5q1 3 1.5 6.5t1.5 6.5q0 3 -0.5 6.5t2.5 5.5q-1 9 2 20q1 3 1 6t1 6q-8 -2 -16.5 -3.5t-16.5 -1.5q-6 -4 -12.5 -3t-12.5 -1
t-12.5 -1.5t-13.5 0.5q-3 0 -6 1l-6 2q-2 1 -5 1t-6 1v7l27 6l12 4l12 4q7 1 13 2.5t13 3.5q6 2 12.5 3t12.5 4q2 2 5 0.5t5 1.5q2 2 5 0.5t5 2.5q8 0 14 3.5t13 5.5q5 1 9 2t9 3q4 2 8.5 2.5t8.5 2.5q7 2 13 3.5t12 3.5q4 2 7.5 1.5t6.5 1.5q5 2 9.5 1.5t8.5 1.5q2 1 10 3
t17 3.5t16.5 3.5t9.5 4q8 -1 14.5 -0.5t13.5 -4.5q6 -5 12.5 -7.5t12.5 -6.5q3 -2 9 -8q-2 -5 -5.5 -6.5t-6.5 -2.5q-5 -1 -8.5 -2.5t-7.5 -0.5q-8 0 -14 -3q-4 -1 -7 -0.5t-7 -1.5q-3 -1 -11 -3t-18 -4t-18 -3.5t-11 -1.5q-5 -2 -10.5 -2t-10.5 -3h-5q-3 0 -6 -0.5t-7 -2.5
q-2 -2 -5.5 -1t-6.5 -1q-4 -2 -8.5 -1.5t-9.5 -1.5t-10.5 -2t-10.5 -1q-1 -1 -1.5 -2t-1.5 -2q2 -6 2 -9q-1 -5 0.5 -10t1.5 -10v-9.5t2 -9.5q1 0 0.5 -1t0.5 -2q0 -16 0.5 -31t1.5 -31v-61q0 -11 0.5 -21t-0.5 -21q-3 -29 -2.5 -58t-0.5 -58q4 -22 3 -43.5t0 -43.5v-87
q0 -6 -1 -11.5t-1 -11.5q-1 -6 0 -12t-1 -11t-1.5 -10.5t-0.5 -10.5q0 -5 -2 -13q-1 -3 -0.5 -6.5t-1.5 -5.5v-3q1 -13 -1.5 -25.5t-1.5 -25.5q0 -2 0.5 -5.5t-1.5 -5.5q2 -2 0.5 -4.5t-2.5 -5.5zM146 166q-1 -10 -1.5 -32.5t-0.5 -46t0.5 -43t1.5 -22.5v144zM146 348
q-2 -16 -2 -32t2 -23v55zM142 -26h2v17q-1 0 -2 1v-18zM140 -55q1 1 2 1q0 2 -0.5 4.5t-0.5 4.5h-1v-10zM139 -82q-1 0 -1 0.5t-1 0.5q0 -7 1 -10h1v9zM146 504h-2q0 -4 1 -7h1v7z" />
    <glyph glyph-name="at" unicode="@" horiz-adv-x="486" 
d="M406 60h7v-4q-4 -5 0 -12q-1 -3 -1 -6t-1 -8q2 2 2.5 2t1.5 1v-2q0 -1 1 -1q-8 -8 -14 -16.5t-16 -14.5q-6 -4 -11 -8.5t-10 -9.5q-7 -7 -17 -12q-10 -8 -22 -16q-19 -13 -45 -20q-18 -5 -33 -5q-7 1 -13.5 0.5t-13.5 -0.5q-4 0 -8 -0.5t-7 1.5q-4 2 -7.5 1t-6.5 1
t-7 1.5t-7 3.5q-10 0 -19 3.5t-19 6.5q-4 1 -8 2.5t-8 3.5q-12 5 -23 11t-21 14q-13 9 -18.5 14.5t-15.5 17.5q-8 9 -14 19t-11 21q-4 10 -7.5 20.5t-5.5 21.5q-2 8 -2.5 17t-2.5 17q-2 11 -1.5 21t-0.5 21q0 4 1 7.5t2 7.5q0 10 2 15t1.5 9.5t0.5 9.5q2 7 3.5 13.5
t3.5 13.5q2 11 5.5 21.5t7.5 20.5q5 14 11 27t14 27q5 8 10.5 16t10.5 16q1 2 4 5l19 19q13 14 28.5 25t32.5 19q23 11 43 14q3 4 7 3t8 1q3 2 7 1t8 0t7.5 2t8.5 1q8 -1 15.5 -1.5t15.5 -1.5t15 -2t13 -5q10 0 18.5 -4t16.5 -9q13 -6 25.5 -13t24.5 -16q5 -4 11 -8t10 -9
l14 -16t12 -18q5 -8 9 -16t6 -17q2 -8 3.5 -15t3.5 -15q1 -8 1.5 -15t0.5 -15q-1 -5 0 -9t-2 -8q-2 -4 -0.5 -8.5t-2.5 -7.5q0 -8 -2.5 -15.5t-4.5 -15.5q-1 -5 -2.5 -8l-3.5 -7q-5 -13 -11 -25l-12 -24q-7 -12 -14.5 -23.5t-16.5 -22.5q-3 -3 -5.5 -6.5t-5.5 -6.5t-6 -5.5
t-7 -5.5q-3 -2 -5.5 -5t-6.5 -5t-7 -3t-7 -3h-3q-8 3 -15 3.5t-15 4.5q-17 8 -26 27q-5 8 -6.5 16t-3.5 16t-1.5 16.5t-0.5 16.5q-4 -5 -7 -9.5t-7 -8.5q-11 -11 -21 -22.5t-21 -22.5q-6 -6 -12.5 -10t-13.5 -9q-3 -2 -11 -4t-11 -1.5t-14 4.5q-5 2 -11 2.5t-11 3.5
q-13 5 -18.5 14.5t-8.5 21.5q-3 14 -2 27t0 27q3 8 4 15t3 15t4.5 15t4.5 15q2 10 6 19.5t9 18.5q15 32 40 54q7 7 17 12q5 4 12 5.5t12 5.5q27 2 50 -12q2 -1 2.5 -1.5t2.5 -1.5q18 -7 24 -26l2 -4t3 -4q-1 -2 -3 -5t2 -6l-2 -4l-2 -4v-14l4 4q2 1 2.5 2t1.5 2l9.5 9.5
t7.5 10.5q1 2 3.5 2.5t4.5 2.5q8 -4 15.5 -7.5t15.5 -7.5q3 -5 1 -10t-3 -10q-2 -9 -5.5 -18t-5.5 -18q-2 -12 -5.5 -23.5t-5.5 -22.5l-9 -39q-5 -25 -2 -49q0 -3 1 -6t2 -7q2 1 3.5 1t3.5 2q4 2 7.5 4.5t7.5 5.5q17 15 28 34t21 39q10 18 16 40q3 9 6.5 18t1.5 20q3 5 3 9
v9t2 8.5t0 7.5q-1 5 -1 8.5t-1 8.5q-1 4 0 7.5t-3 6.5q0 15 -5 28t-12 25q-8 15 -18 28t-24 24q-8 5 -15 10t-15 9q-5 3 -10 5t-11 2q-3 -1 -5.5 0t-4.5 2h-11q-14 -2 -27.5 -3.5t-27.5 -6.5l-22 -10t-22 -11q-10 -5 -18 -12t-16 -15q-19 -16 -35 -42q-4 -8 -8.5 -15
t-8.5 -15q-5 -11 -9.5 -23.5t-9.5 -24.5q-5 -13 -7.5 -25.5t-6.5 -25.5q2 -5 0 -10.5t-3 -10.5q-2 -8 -1.5 -16t-1.5 -16q-1 -6 -1 -12v-13q0 -4 0.5 -7t1.5 -7q0 -4 -0.5 -8t0.5 -7q3 -10 5 -19.5t4 -19.5t5.5 -19t7.5 -18q6 -11 13 -20.5t15 -17.5t16.5 -14t19.5 -8
q5 -1 8.5 -2.5t7.5 -1.5q4 -1 7 -1.5t7 -1.5q3 0 6.5 0.5t6.5 -0.5q11 -3 20 -2t18.5 2t18.5 3l18 4t17 6q6 3 12 6.5t12 7.5q10 5 19 11l18 12q11 8 21 15.5t18 17.5l10.5 10.5t10.5 11.5zM253 317h-5q-2 -2 -4 -2q-23 -11 -39 -35q-8 -12 -12.5 -19t-7.5 -13.5t-5.5 -14
t-7.5 -19.5q-4 -11 -7 -23t-7 -23q-2 -8 -4 -16.5t-1 -17.5q0 -2 -0.5 -3t-0.5 -3q-3 -19 2 -34q3 2 5.5 2.5t4.5 2.5q19 13 36 30q8 8 15.5 16.5t15.5 16.5q0 1 1 1q5 8 11 15.5t12 15.5q5 6 9 12.5t9 12.5l6 10t7 10q0 46 -33 78zM52 156h2v9h-2v-9zM141 114q2 0 3 1
q-1 2 -1 6h-2v-7zM56 184h-2q1 -1 1 -4h1v4zM317 121h-2q0 -3 1 -4h1v4z" />
    <glyph glyph-name="numbersign" unicode="#" horiz-adv-x="496" 
d="M248 458q-2 -8 -3 -15.5t-3 -15.5q-1 -2 -2 -5.5t-2 -6.5q-1 -4 -1 -7t-1 -6q-1 -9 -5 -20q-2 -8 -3.5 -14.5t-3.5 -14.5l-4 -16l-4 -16v-3q14 2 27.5 5t28.5 5q1 3 2.5 6t3.5 8q2 6 4.5 13t5.5 14q3 9 7.5 18.5t6.5 19.5q2 2 3.5 5t2.5 6q5 8 8 16.5t7 16.5q8 16 17 31
q2 3 5 6l5 5q8 2 12.5 -3.5t11.5 -5.5q2 -10 -1 -19t-5 -19q-4 -11 -7.5 -20.5t-6.5 -20.5q-2 -5 -3 -9.5t-3 -9.5l-4 -10l-4 -10q-3 -13 -7 -23q-1 -1 -1 -4q1 0 2 -0.5t3 0.5q6 2 12.5 2.5t13.5 1.5q5 0 15 2q3 2 6.5 1.5t7.5 1.5q9 2 17.5 1t16.5 0l24 -12q-6 -8 -12 -10
q-7 0 -10 -2q-1 -1 -8 -1q-5 2 -10 3.5t-10 -0.5q-9 -2 -18.5 -3t-17.5 -4l-15 -3q-7 -2 -13 -3.5t-12 -2.5q-1 -1 -1 -1.5t-2 -1.5q-5 -17 -10 -35t-11 -35v-5q4 2 7 3t7 2q9 1 17.5 3t16.5 4q3 1 6 1t7 2t8.5 2h9.5q2 0 3.5 1.5t4.5 0.5q7 -2 13 -5.5t11 -7.5q3 -1 11 -5
l-6 -3t-5 -2q-12 -5 -24.5 -8.5t-24.5 -8.5q-5 -2 -10 -3.5t-10 -2.5q-5 -2 -9.5 -3.5t-9.5 -2.5q-7 -2 -13 -4t-14 -3q-2 -2 -4.5 -2t-5.5 -1q-5 -11 -7.5 -22.5t-6.5 -22.5q-5 -11 -7 -21t-5 -21q-2 -5 -3 -8.5t-2 -7.5q-2 -10 -4 -14q-2 -5 -2.5 -8.5t-1.5 -6.5
q-1 -5 -2 -8.5t-3 -7.5q0 -4 -1 -7.5t-2 -6.5q-2 -5 -2.5 -8.5t-1.5 -7.5q-2 -7 -3.5 -13t-3.5 -12q-2 -7 -3 -13t-3 -12q-4 -10 -7 -19.5t-6 -19.5q-2 -6 -3 -7t-4 -3h-1q-6 4 -11 4q-7 -2 -12 5q1 3 0 7t2 8q2 3 0.5 7t0.5 8q2 3 2 6.5t1 7.5q1 5 2 9.5t1 9.5q1 5 1.5 10
t2.5 9q2 8 3.5 16t3.5 16q1 5 2.5 11t2.5 11q1 6 1.5 11.5t2.5 11.5t3 12.5t3 12.5q3 10 5 20t5 19q2 7 2.5 13.5t2.5 14.5q-8 -2 -16.5 -4.5t-16.5 -5.5q-5 -1 -9.5 -2t-9.5 -3q-4 -2 -4 -6q-2 -7 -3 -13.5t-3 -12.5q-2 -9 -3 -18.5t-6 -18.5q0 -9 -2 -18t-4 -19
q-2 -8 -3 -15.5t-4 -15.5q0 -5 -2 -10.5t-3 -10.5q0 1 -2 -3q-5 2 -9.5 2.5t-8.5 5.5q-1 -1 -1 -2t-1 -2l-4 4l-2 -2q-3 3 -5 6v7.5t2 7.5q1 4 0 8.5t1 8.5q1 0 0.5 1t0.5 2v12t2 12q2 8 2.5 15t1.5 14q1 4 1 7.5t1 6.5q2 4 1.5 7.5t1.5 7.5t1 8t0 8q-18 -3 -35 -7t-35 2
q1 5 6 8q7 3 13.5 6.5t13.5 7.5q6 3 13 5.5t13 5.5q4 2 8.5 3t8.5 5q3 23 5.5 45t7.5 44q-2 0 -2.5 -0.5t-1.5 -0.5q-7 0 -12.5 -2.5t-12.5 -3.5q-6 -1 -11.5 -2.5t-10.5 -3.5q-8 -2 -15 -3l-14 -2q-8 -2 -16.5 -3.5t-16.5 -4.5q-5 -1 -8.5 -1.5t-8.5 -0.5q-4 0 -7.5 0.5
t-7.5 -1.5q-2 -1 -4.5 -0.5t-5.5 0.5q15 12 26 14q6 2 12 5t11 5q11 5 20 9t20 6q7 2 12.5 4t11.5 4q7 2 12.5 4t11.5 4q5 1 10 3t10 1q2 0 3 1t3 2q2 5 2.5 10t4.5 10q1 13 5 24.5t8 24.5q2 9 5.5 18t6.5 17q0 7 4 13q5 11 9 21.5t11 18.5q2 3 5.5 6.5t9.5 6.5
q7 -2 13.5 -5.5t14.5 -6.5zM184 199q4 1 7 1t5 1q8 5 17 6.5t17 6.5q6 1 9 3q6 21 11.5 40t10.5 39q-14 -4 -27.5 -7t-27.5 -7q-5 -21 -10.5 -41.5t-11.5 -41.5z" />
    <glyph glyph-name="copyright" unicode="&#xa9;" horiz-adv-x="502" 
d="M276 464h-19q-4 0 -10 -4l1 -2q0 -1 1 -1q10 1 18.5 -1.5t17.5 -4.5q7 -2 13.5 -4t13.5 -4q14 -5 27.5 -9t26.5 -11q9 -5 17.5 -10t16.5 -13l17 -17t15 -26q3 -8 5 -15t4 -15q2 -6 1.5 -12.5t1.5 -12.5q0 -3 1.5 -6.5t-0.5 -7.5q-2 -5 -1.5 -11t-0.5 -12l-2 -14t-3 -14
q-2 -8 -5 -16l-6 -16q-4 -10 -8.5 -19t-9.5 -18q-3 -6 -7 -12t-8 -11q-2 -4 -8 -12q-4 -5 -8.5 -9.5t-8.5 -9.5q-6 -8 -12 -14.5t-14 -12.5q-8 -7 -16.5 -14t-16.5 -14q-14 -10 -27.5 -17.5t-27.5 -15.5q-10 -5 -20 -8l-20 -6q-8 -3 -16.5 -4.5t-16.5 -3.5q-12 -2 -24 -1.5
t-23 0.5t-26 5q-7 2 -13.5 4t-13.5 4t-13 6l-12 8q-5 3 -9.5 7t-8.5 8q-9 8 -15 17.5t-11 23.5q-5 5 -5.5 11t-2.5 12q-3 9 -3 18q-2 20 0 38q0 4 2 12q1 2 0 5t2 5q0 7 1.5 12.5t2.5 11.5q2 9 5 17.5t6 17.5q6 17 14.5 33.5t17.5 33.5q7 12 14.5 23.5t16.5 22.5
q5 6 9.5 11.5t9.5 11.5q11 14 23.5 25.5t24.5 23.5q11 11 26 21q9 7 18.5 12t18.5 10q10 5 19 5.5t19 0.5l12 -6t11 -6q1 0 1 -4zM232 450q-7 -5 -14.5 -10t-13.5 -12q-13 -12 -25.5 -24t-23.5 -26q-8 -8 -15 -17.5t-14 -18.5q-11 -14 -19.5 -29t-16.5 -30q-13 -25 -23 -49
q-6 -16 -9 -29q-2 -9 -5 -17.5t-3 -17.5q-3 -4 -1.5 -8t-0.5 -7q-2 -5 -2 -8.5v-7.5q0 -5 -0.5 -10t0.5 -10q0 -5 0.5 -10.5t1.5 -10.5q2 -6 3 -11.5t3 -10.5q5 -12 11.5 -23t17.5 -19q3 -3 6.5 -5.5t8.5 -3.5q6 -2 9 -2t5.5 -1.5t5.5 -0.5q9 1 18 0t18 2q5 2 10.5 1.5
t10.5 1.5q8 2 15.5 4t14.5 7q14 2 25 8.5t22 12.5q15 10 29 20.5t27 23.5q7 6 13.5 12.5t11.5 14.5q5 7 11 13t11 13q7 11 13.5 22t12.5 23q4 8 6 15.5t7 15.5q0 7 2.5 12.5t3.5 12.5q0 5 1.5 10t2.5 10q1 6 1.5 11.5t0.5 10.5q1 11 -0.5 21.5t-3.5 21.5q-2 10 -7.5 24
t-10.5 21q-2 4 -5 6.5t-5 6.5t-9 9q-4 2 -6 4.5t-6 4.5q-18 10 -37.5 16t-39.5 11q-5 1 -8.5 2t-8.5 0q-2 4 -6 3t-7 1q-2 2 -6 1t-8 -1zM210 165q8 2 16 3.5t16 3.5q13 3 24 12q10 -4 16 -16l3 2v-3q-9 -12 -25 -17q-9 -5 -19 -6q-9 -2 -14 0q-6 2 -11.5 3t-11.5 2
q-26 7 -40 23q-9 10 -12 24q-3 16 -1 35q0 7 3 13.5t5 13.5q2 4 3.5 8t3.5 8t4.5 8t5.5 7q5 6 10 11.5t10 10.5q4 5 8.5 8t9.5 5q20 9 39 2q9 -3 20 -10q2 -1 2 -2t2 -3q-5 -1 -9.5 -0.5t-9.5 -0.5q-6 -5 -12.5 -9t-11.5 -12q-3 -5 -7 -8t-6 -8q-5 -10 -10 -19t-7 -19
q-2 -5 -3 -10l-2 -10q-1 -6 -0.5 -12.5t0.5 -12.5q2 -10 4 -15q1 -4 7 -10z" />
    <glyph glyph-name="registered" unicode="&#xae;" horiz-adv-x="458" 
d="M413 226v-16q0 -15 -3.5 -28.5t-9.5 -27.5q-9 -22 -22 -41q-8 -13 -21 -26q-8 -8 -15.5 -16t-16.5 -15q-11 -8 -22.5 -14.5t-24.5 -11.5q-10 -5 -20 -7.5t-20 -5.5q-8 -3 -15 -3q-7 1 -12.5 -1t-12.5 -1h-12t-12 -1q-4 0 -7.5 1t-6.5 2q-4 1 -7.5 0t-5.5 2q-8 0 -16 2.5
t-16 4.5q-17 4 -35 12.5t-32 17.5q-23 17 -35 45q-4 8 -5.5 16t-3.5 16q-2 9 -2 18t-1 18q0 4 1 7l2 6t0 6.5t2 6.5q0 6 1.5 11.5t3.5 10.5q2 9 4.5 17.5t5.5 16.5t7 15.5t8 15.5q8 14 16.5 27.5t17.5 27.5q17 24 37.5 45t41.5 41q8 8 17.5 14.5t19.5 13.5q5 2 8 5l6 6
q12 12 30 8q6 -2 12 0q8 0 15 -3.5t14 -7.5q2 -1 2 -2.5t1 -2.5q5 -4 9 -7.5t9 -6.5q4 -4 8 -6.5t8 -6.5q21 -20 41 -41l16 -18t13 -20l12 -21q5 -10 8.5 -21t7.5 -22q2 -5 2.5 -10.5t2.5 -11.5q2 -8 1.5 -16.5t0.5 -16.5zM95 46h2q11 -5 22 -7t23 -2q4 0 5 -1q4 -2 8 -2
t7 1q5 2 10 1.5t10 0.5t10.5 1t10.5 2q11 3 22 5.5t21 9.5q8 1 14 5t12 7q9 4 18 13q12 11 23 22.5t19 25.5q8 11 13 22.5t10 23.5q2 5 2.5 9t2.5 9l2 8l2 8q1 5 1 9.5t1 9.5q2 9 -1 18.5t-1 19.5q-2 2 -2 5.5v6.5q-2 8 -2 12l-3 12q0 7 -2 13l-4 12q-1 7 -3.5 12.5
t-4.5 11.5q-5 13 -12 24q-8 11 -17 21.5t-18 20.5q-5 5 -9.5 9t-9.5 7q-7 5 -12.5 9.5t-12.5 9.5l-15 -7.5t-13 -8.5q-9 -7 -17.5 -13t-16.5 -14l-29 -29q-4 -3 -7.5 -6t-6.5 -8q-8 -11 -16.5 -21.5t-16.5 -21.5q-7 -10 -13 -19.5t-12 -19.5q-8 -14 -14.5 -28.5t-11.5 -29.5
q-3 -8 -5.5 -17t-4.5 -17t-2.5 -16t-2.5 -16q-1 -5 -0.5 -11t0.5 -12q1 -5 1 -11t2 -11t3 -10t3 -10t4.5 -10t5.5 -10q6 -9 14 -17q2 -3 5.5 -5.5t8.5 -5.5zM406 209h-2v-4h2v4zM264 146v-5q-6 -2 -11.5 -0.5t-11.5 3.5q-14 2 -26.5 9.5t-26.5 12.5q-8 4 -14 7.5t-14 7.5
q-1 -4 -1 -8t-2 -8q-2 -5 -2 -9t-2 -8t-2 -8v-8q-2 -8 -4 -16.5t-1 -16.5q-3 -4 -2.5 -8.5t-0.5 -9.5q-1 -1 -2 -1.5t-2 -2.5q2 -2 2.5 -3t2.5 -3q-4 1 -7 0.5t-8 -0.5q-2 3 -5.5 6t-5.5 6v44q0 5 0.5 8.5t1.5 7.5q1 5 0.5 8.5t1.5 7.5v4t0.5 7.5t2.5 7.5q1 4 0 7.5t2 6.5v3
q1 7 1 13.5t2 13.5q2 10 3 19.5t5 18.5q3 8 4.5 15t3.5 15v4l6 10t6 11q6 -1 12 0.5t12 3.5q13 3 27 -3q5 -3 10 -5.5t10 -4.5q12 -7 16 -18q5 -11 0 -24q-4 -10 -14 -22q-2 -2 -4 -5.5t-5 -5.5q-8 -6 -11 -9t-6.5 -4.5t-6.5 -3.5q-11 -8 -26 -15q-1 0 -3 -2l51 -27
q11 -5 20.5 -11t19.5 -11zM171 224q17 15 27 32t15 39q-2 3 -8 11q-11 -2 -17 -3t-10 -9q1 -17 -2 -34t-5 -36zM174 285q1 0 1 0.5t1 0.5q0 2 -0.5 3t-0.5 3q-1 0 -1 -1v-6z" />
    <glyph glyph-name="percent" unicode="%" horiz-adv-x="366" 
d="M51 0q-8 -3 -12.5 2t-10.5 1q-2 1 -3.5 1.5t-3.5 2.5q0 1 -0.5 1t-0.5 1q-1 5 0.5 8.5t3.5 8.5q5 11 11 22.5t11 22.5t9.5 22t9.5 23q3 11 8.5 20.5t10.5 19.5q7 13 13 25t13 24q9 16 18 31.5t19 30.5q6 9 11.5 18t10.5 18q11 20 24.5 37.5t24.5 37.5q10 11 18 23.5
t18 23.5q9 12 18.5 23.5t20.5 22.5q2 2 3.5 2.5t3.5 2.5q4 3 12 0q6 -3 11.5 -6.5t10.5 -6.5q-4 -14 -10.5 -25t-14.5 -23q-7 -12 -14 -23.5t-15 -23.5q-9 -17 -18.5 -33.5t-18.5 -33.5q-6 -11 -12.5 -22.5t-12.5 -22.5q-7 -11 -12.5 -22t-12.5 -21q-4 -5 -6.5 -11.5
t-6.5 -12.5q-5 -8 -10.5 -17t-10.5 -18q-8 -12 -17 -24.5t-17 -25.5q-4 -5 -7.5 -11t-8.5 -11q-9 -10 -16 -21t-15 -22zM99 453q0 4 1 7l4 -2q2 -2 3 -5t3 -5q5 1 5.5 -2.5t2.5 -5.5l9 -15q2 -3 2.5 -6.5t2.5 -7.5q1 -4 2.5 -7.5t1.5 -7.5q2 -14 0 -26q0 -5 -1 -9.5t-3 -9.5
q-6 -11 -10.5 -22.5t-12.5 -22.5q-11 -14 -24 -19q-5 -2 -9.5 -3.5t-10.5 0.5q-5 2 -11.5 1.5t-11.5 -0.5q-15 2 -25 8q-5 4 -7 9t-6 10q2 6 -1.5 11.5t1.5 11.5q1 21 13 43.5t20 34.5q6 9 13 16t15 14l6 4l6 4q9 6 18 2h4zM55 302q5 5 8 8.5t6 7.5q7 7 9 15q1 5 4 9t1 9
q5 12 6.5 24.5t2.5 25.5q1 4 0.5 8t-0.5 8l-4 4q-2 -4 -8 -12q-8 -9 -13 -19.5t-10 -21.5q-2 -7 -4.5 -14t-2.5 -15q-5 -8 -2.5 -16t3.5 -16q0 -1 4 -5zM134 388h-2q0 -3 1 -4h1v4zM248 184h11q5 -3 9.5 -5.5t9.5 -5.5l-3 -3q2 -1 4 -5q7 -6 12.5 -13.5t10.5 -15.5
q8 -14 12 -28q0 -1 0.5 -1.5t0.5 -2.5q1 -18 -8 -38q-4 -8 -8 -15t-9 -14q-5 -5 -9.5 -10.5t-10.5 -9.5q-5 -4 -11.5 -6t-14.5 3q-3 2 -6.5 1.5t-6.5 0.5q-6 1 -13 5q-8 7 -13 15t-6 19q0 3 -1 6t-1 7q-1 5 0 10.5t2 11.5l2 10l2 10q4 19 15 36q4 8 8.5 15.5t11.5 13.5
q2 2 5 4.5t5 4.5zM265 148q-2 -3 -2.5 -5.5t-2.5 -5.5q-2 -5 -3.5 -9.5t-3.5 -9.5q-3 -10 -6.5 -18.5t-3.5 -19.5q-4 -7 -2 -14.5t-2 -14.5q1 -4 1.5 -8t1.5 -9q14 7 19 22q5 12 7.5 23.5t2.5 24.5v17q1 12 -6 27z" />
    <glyph glyph-name="equal" unicode="=" horiz-adv-x="440" 
d="M400 310q-4 -4 -6 -4q-10 -2 -19.5 -5t-20.5 -2h-5t-5 -2q-7 -1 -14 -2.5t-15 -3.5q-7 -1 -13.5 -0.5t-13.5 -1.5q-5 -1 -10.5 -1t-10.5 -1q-3 0 -6 -1t-7 -1q-3 0 -6.5 0.5t-5.5 -0.5q-6 -2 -11.5 -2h-11.5q-5 0 -8.5 -2t-8.5 -1t-9 1t-8 -3h-1q-9 2 -18 -0.5t-18 -1.5
q-9 0 -17.5 -2t-16.5 -1q-6 -2 -12 -1t-11 -1q-8 -2 -14.5 -1.5t-13.5 -1.5q-6 -1 -12 -1.5t-11 0.5q-8 2 -15 2.5t-14 3.5h-4l-6 6q6 7 14 10t16 5q8 3 17 4.5t18 4.5q4 2 8.5 2t9.5 1q6 0 14 2t14.5 2.5t13.5 2.5q5 1 9 0.5t8 1.5t8 1.5t7 0.5q5 2 9 1.5t8 1.5t8 1t8 1
q5 2 9.5 1.5t9.5 0.5q5 2 9.5 2h9.5q8 2 13 3q3 0 6 -0.5t6 2.5q1 1 2.5 0.5t3.5 -0.5q9 0 17.5 -1t16.5 1q12 2 23.5 1.5t23.5 0.5q18 1 33 -9q13 -7 22 -10zM385 216v-7h-11q-7 0 -13 -1.5t-12 -2.5q-8 -1 -16 -3.5t-16 -1.5q-3 0 -6 -1.5t-7 -1.5q-2 1 -5.5 1t-5.5 -3h-2
q-8 0 -15.5 -0.5t-15.5 -1.5t-16.5 -2t-16.5 0q-5 -3 -11 -2.5t-11 -0.5q-5 0 -8.5 -0.5t-8.5 -1.5q-4 -1 -8 0t-8 -2h-2q-9 -1 -18 -1.5t-17 -1.5q-5 0 -13 -2h-7.5t-5.5 -2q-7 2 -13 -0.5t-12 -2.5q-4 1 -7.5 0t-7.5 -2q-4 0 -8 0.5t-8 -2.5q-6 1 -12 0t-12 2q-2 1 -5 0.5
t-5 0.5l-4 2l-4 2q0 2 1 2q4 5 10 7.5t12 4.5q8 3 17 5.5t19 4.5l27 6q8 2 15 3t14 3q4 2 7.5 2t7.5 1q9 1 18 2.5t18 2.5q4 1 8 1t8 1q5 2 8.5 1.5t7.5 0.5q5 2 10 1.5t10 1.5t10 1t9 1q7 3 13.5 2.5t14.5 1.5q6 2 13 1t14 -1h29q16 1 32 -8q5 -2 10.5 -5t10.5 -5z" />
    <glyph glyph-name="sterling" unicode="&#xa3;" horiz-adv-x="363" 
d="M6 218q-3 3 -5 4q20 8 40.5 12t41.5 8q2 5 3 9.5t2 9.5q2 7 3.5 13.5t3.5 13.5q2 6 3.5 12.5t3.5 13.5q2 8 3.5 15t3.5 15q2 10 8.5 30.5t11.5 32.5q5 11 9.5 21t12.5 19q3 5 5.5 9.5t7.5 7.5t8.5 7t8.5 6q4 2 7.5 3.5t7.5 1.5q8 1 15 1t13 -3q8 -5 16.5 -8.5t16.5 -9.5
q2 -2 3.5 -4t3.5 -4q1 -10 0.5 -13t-5.5 -13q-2 1 -3.5 1.5t-3.5 2.5l-2 -2q-1 1 -2 1.5t-2 1.5q-2 -2 -3 -4l-2 -4q-4 2 -7 3q2 7 -0.5 13.5t-4.5 13.5q-9 0 -16 -9q-5 -8 -10.5 -15t-8.5 -15q-4 -9 -7.5 -18t-5.5 -18q-3 -8 -4.5 -16t-4.5 -16q-2 -4 -2 -8v-9
q-1 -8 -2.5 -17t-3.5 -17q-2 -11 -3.5 -21t-4.5 -20v-3q7 0 13.5 -1t12.5 1q8 2 16.5 1.5t16.5 0.5q7 1 13 1.5t13 0.5q7 1 13.5 0.5t13.5 -0.5q4 2 7 2q2 0 3.5 -1t3.5 0q3 0 5 -1.5t4 -2.5q6 -4 16 -7v-2l-2 -1q-11 0 -21.5 -2t-21.5 -1q-6 -2 -12 -1t-12 -1
q-5 -2 -11 -1.5t-11 -1.5t-10.5 -1.5t-10.5 -0.5q-4 0 -7 -1.5t-7 -0.5q-7 1 -15 -2q-3 -1 -7 -0.5t-8 0.5q-4 -8 -5 -11q0 -9 -2.5 -17t-4.5 -16q-5 -16 -9.5 -31.5t-9.5 -30.5q-5 -12 -9.5 -23.5t-9.5 -22.5q-3 -8 -7.5 -15t-7.5 -15q1 -5 5 -4.5t6 -1.5q3 -2 7 -1.5
t6 -1.5q3 -3 6 -2.5t5 -1.5q5 -2 10 -2t10 -1h8.5t8.5 -2q4 -2 10 0q3 2 11 2q14 0 27 2t36 9q9 1 16.5 4t15.5 6q17 7 26 17q2 3 4 9q2 2 2.5 5t2.5 5h10q5 -5 13.5 -7.5t13.5 -9.5v-5q4 -5 3 -9.5t-3 -7.5q-2 -4 -4.5 -7.5t-7.5 -6.5t-10.5 -6.5t-10.5 -6.5
q-15 -7 -28 -11q-10 -4 -19.5 -6.5t-18.5 -5.5q-5 -2 -9 -2.5t-9 -2.5q-6 -2 -12 -2h-13h-7.5t-7.5 2q-3 2 -7 1t-7 2q-14 0 -26 5t-26 7q-8 1 -15 4t-15 5q-3 2 -6.5 3.5t-7.5 2.5q-3 1 -6 0.5t-7 -0.5q-3 -5 -8.5 -7t-10.5 -4q-8 2 -14.5 5t-14.5 2q-5 4 -10 6.5t-6 10.5
q3 4 6 7.5t5 6.5q8 2 14 4q2 4 4.5 7.5t4.5 8.5q3 7 10.5 26t9.5 30q2 8 4 14.5t4 14.5t4 17t4 17q1 8 3 14.5t4 14.5q-5 0 -10 1t-10 -2q-1 -1 -4 -1h-13.5t-12.5 -2q-3 -1 -7 -1t-8 3q-1 2 -3.5 1t-4.5 -1zM156 313h2q0 1 -0.5 2t-0.5 2h-1v-4z" />
    <glyph glyph-name="germandbls" unicode="&#xdf;" horiz-adv-x="333" 
d="M194 475q-5 0 -6 -1q-7 -3 -14.5 -9.5t-12.5 -12.5q-7 -6 -12 -13.5t-10 -15.5q-6 -10 -12 -19.5t-9 -20.5q-2 -5 -4 -9t-4 -9q-4 -8 -7 -16l-6 -16q-2 -8 -5 -17t-5 -18q-2 -7 -3.5 -13l-3.5 -14q-2 -6 -3 -12.5t-3 -13.5q-2 -5 -2.5 -10t-2.5 -10q-2 -4 -2.5 -8.5
t-1.5 -9.5q-2 -8 -3 -15t-3 -14q-2 -8 -2.5 -15.5t-3.5 -15.5q-2 -4 -1.5 -8t-0.5 -8q-2 -5 -1.5 -11t-1.5 -11t-1.5 -10t-1.5 -10t-1 -9.5t-1 -9.5q-2 -6 -1 -11.5t-1 -10.5q-2 -6 -1.5 -11t-1.5 -10q-2 -6 -1 -12t-1 -12t-1 -12.5t-1 -12.5q-2 -7 -2 -13.5v-13.5
q-1 -5 -1.5 -9.5t-2.5 -9.5q-1 2 -1 3t-1 2q-2 -2 -2.5 -4.5t-2.5 -4.5h-5q0 -3 -0.5 -5.5t-0.5 -4.5q-1 3 -7 7q-2 10 -2.5 21.5t-2.5 23.5q-2 17 -1.5 33t0.5 33q-1 16 -0.5 32t-0.5 33q0 8 2 14.5t1 14.5q-1 7 -1.5 14t1.5 15t1.5 15.5t0.5 15.5q2 10 2 16q1 5 0 9t1 8
q2 6 2 12v12q0 4 1.5 7t0.5 8v7.5t2 7.5q2 2 1 5t0 5q0 2 2 10v6t2 6t1 6t1 6t0.5 7t2.5 6q-1 9 2 17.5t5 17.5q4 13 8 25.5t9 24.5q3 8 7 16l8 16t9 15l10 14q8 12 18 20q6 6 13 10.5t15 6.5q15 4 31 3q16 -2 29 -9t27 -13q7 -4 14 -7t14 -8q8 -5 12.5 -12.5t7.5 -15.5
q2 -6 4 -11.5t1 -12.5q-1 -3 1 -6t1 -7q-1 -5 -2 -9t0 -9q0 -10 -3 -17q-1 -5 -1.5 -9t-2.5 -9t-3 -8.5t-3 -7.5q-6 -15 -13 -28.5t-15 -27.5q-6 -11 -12.5 -20.5t-11.5 -20.5q-2 -4 -4.5 -7.5t-5.5 -7.5q-4 -6 -7.5 -12.5t-5.5 -15.5q4 -4 8 -6q9 -5 18 -9.5t18 -9.5
q6 -3 12 -7t11 -9q8 -7 15.5 -14.5t12.5 -16.5q6 -8 11 -16.5t7 -18.5q2 -6 4.5 -11.5t0.5 -12.5q5 -9 2 -15q-2 -4 -1 -7.5t-1 -6.5q-2 -4 -2.5 -7.5t-2.5 -6.5q-2 -4 -4.5 -7.5t-5.5 -7.5q-14 -17 -38 -28q-5 -2 -9.5 -3t-9.5 -1q-14 -1 -23 0.5t-23 6.5q-4 2 -8 1.5
t-7 2.5q-10 1 -17.5 5t-15.5 9t-16.5 15t-13.5 19q-3 5 -3.5 9t-2.5 9q-1 2 0 4.5t2 4.5t1.5 5t1.5 5q6 8 9 11h10q3 -5 9.5 -6t9.5 -7l2 2q2 -2 4 -3v-12q-1 -22 16 -39l4 -4q6 2 12 3.5t12 3.5q15 4 28 16q12 12 18 29q3 8 5 16.5t0 17.5q-2 12 -6.5 23.5t-12.5 21.5
q-3 3 -7 9q-9 10 -20 16.5t-22 12.5q-6 2 -11.5 5t-10.5 9q-8 10 -4 20q3 8 5.5 15t7.5 14q4 5 6.5 10.5t6.5 10.5q6 8 10 16.5t9 17.5t8 18.5t6 20.5q1 3 2 5.5t0 5.5q0 3 1 5.5t2 5.5q3 12 2.5 24t-0.5 24q0 8 -3 16.5t-5 16.5q-2 6 -5.5 10.5t-5.5 9.5zM28 -47h1v19h-1
v-19zM258 388h2q-1 1 -1 4h-1v-4zM30 2h2q0 1 -0.5 2t-0.5 2h-1v-4z" />
    <glyph glyph-name="asciitilde" unicode="~" horiz-adv-x="374" 
d="M131 234q-14 -5 -26.5 -12.5t-24.5 -15.5q-8 -5 -16.5 -11.5t-16.5 -12.5q-5 -4 -9 -7.5t-9 -6.5q-5 5 -9.5 1.5t-9.5 -0.5l1.5 -3l1.5 -3h-7q-1 2 -5 8l2 1q1 10 6.5 17t10.5 14t11 13l11 11q8 8 17.5 15t18.5 14q4 2 8.5 4t9.5 2q2 0 3.5 0.5l4.5 1.5q2 -2 4 -2
q9 0 17 -3t16 -7q13 -6 25.5 -12.5t24.5 -14.5q15 -10 33 -7q16 3 28 15q8 7 15 14t14 15q5 5 9.5 11.5t9.5 13.5q6 8 8 11q6 2 10.5 -0.5t8.5 -5.5q6 -5 13 -6q2 -5 1 -9t-3 -7q-5 -11 -8 -21.5t-8 -20.5q1 -5 -2 -9t-6 -7q-8 -10 -18 -17t-23 -10q-14 -1 -28 0
q-9 2 -18.5 5t-18.5 5q-17 5 -32 12.5t-29 17.5q-4 2 -8 4.5t-8 4.5z" />
    <glyph glyph-name="eight" unicode="8" horiz-adv-x="297" 
d="M121 318q-2 5 -3.5 9.5t-3.5 9.5q-2 8 -4.5 17t-0.5 17q1 6 1.5 12t2.5 11t3.5 10t3.5 11q8 20 20.5 34t26.5 28q27 22 59 6q7 -3 13.5 -7.5t14.5 -6.5q8 -3 12.5 -9t7.5 -13q3 -6 3 -17t-2 -19t-3.5 -15t-4.5 -15t-5 -15.5t-6 -15.5q-5 -8 -6.5 -15.5t-4.5 -15.5
q-3 -6 -5.5 -12.5t-5.5 -14.5q-2 -6 -4 -13t-5 -14q-2 -4 -3.5 -8.5t-3.5 -9.5q-2 4 -2 5q-2 -4 -4 -7q8 -11 15 -22t15 -22q18 -26 26 -55q14 -48 -18 -87q-5 -5 -9.5 -10.5t-10.5 -10.5q-13 -11 -27 -21t-30 -16q-23 -12 -45 -17q-3 0 -7 -1t-8 -1t-7.5 -1.5t-7.5 -0.5
q-32 3 -60 15q-14 7 -21.5 18t-12.5 25q-3 7 -3 17q1 5 1 11v13q-1 9 1.5 18t4.5 19q6 26 17.5 49.5t23.5 46.5q4 9 9.5 17.5t10.5 16.5q6 10 11.5 19.5t13.5 19.5q2 2 4 5t4 7q5 5 9.5 10.5t9.5 10.5zM138 288q0 -4 -1 -5q-9 -12 -18 -21q-3 -4 -6.5 -8t-6.5 -8
q-9 -16 -19 -30.5t-18 -31.5l-12 -28t-11 -28q-2 -5 -3.5 -9t-2.5 -9q-2 -5 -2 -9.5t-2 -9.5q-2 -7 -2 -14t-2 -13q-2 -5 -0.5 -10t2.5 -10q1 -4 0.5 -8.5t1.5 -7.5q2 -5 4.5 -8.5t4.5 -6.5q4 -8 9 -10t13 -3t14.5 1t14.5 2q3 0 6.5 1.5t7.5 2.5q14 5 27 11.5t25 14.5
q10 6 17 13t15 14q7 7 13 15.5t10 18.5q9 21 8 41q-2 6 -2 9q0 9 -3.5 15.5t-6.5 14.5q-6 16 -14.5 29.5t-18.5 27.5q-5 7 -11 14.5t-11 15.5q-3 3 -5 6.5t-4 6.5t-4.5 6.5t-6.5 7.5zM221 451h-3q-34 -31 -50 -72q-2 -7 -3 -13l-2 -12q-2 -13 1.5 -25t9.5 -25l6.5 -13
t9.5 -13q1 -2 1.5 -3.5t3.5 0.5v7t2 7q0 11 4 20.5t5 20.5q0 5 1 9.5t3 9.5t1.5 10t2.5 10q-1 11 3 21.5t2 21.5v3q3 8 3.5 18t-1.5 18zM31 87q-1 0 -1 -0.5t-1 -0.5q0 -2 0.5 -3t0.5 -3h1v7zM154 356h-2q0 -2 0.5 -3t0.5 -3h1v6zM219 259h-2q0 -4 1 -5h1v5zM34 105
q1 0 1 0.5t1 0.5q0 2 -1 3h-1v-4zM32 95h1v4h-1v-4z" />
    <glyph glyph-name="yen" unicode="&#xa5;" horiz-adv-x="348" 
d="M151 212q-11 -2 -18 -3q-7 -2 -13.5 -3.5t-12.5 -3.5q-3 -1 -6 -1t-7 -1q-3 -1 -6.5 -2t-7.5 0q-2 -4 -6 -2.5t-6 -2.5q-11 0 -24 -5q-8 -2 -16.5 -1.5t-17.5 -0.5q-2 2 -4.5 4t-1.5 6q7 8 16.5 13t19.5 9q12 5 24.5 9t25.5 8l30 9q4 1 7.5 1.5t8.5 1.5q-2 4 -5 7.5
t-5 7.5q-7 10 -10 20q-2 5 -4 9t-4 9q-3 8 -5.5 15.5t-6.5 15.5q-3 7 -4.5 13.5t-6.5 12.5q-1 12 -5.5 23t-5.5 23q-5 8 -6.5 16t-3.5 16q-4 10 -6.5 20t-6.5 20q-2 3 -1.5 6.5t-1.5 6.5q-2 5 4 8q1 0 2 0.5t3 -0.5q14 -6 28 -14q3 -2 7 -10q5 -11 11 -22t8 -24
q5 -8 7.5 -17t6.5 -17q3 -8 6 -17t6 -17l12 -33q2 -8 5 -16.5t6 -16.5q2 -3 3 -6.5t3 -6.5q2 2 4.5 3t4.5 3q2 -3 4.5 -2.5t5.5 0.5q10 14 20 29l20 30l18 28l18 28q7 11 13.5 22t13.5 22t13.5 22t14.5 22q5 6 9 11.5t9 11.5q5 8 10 14.5t11 13.5q6 8 14 4q3 -2 5.5 -3
t5.5 -3l12 -6q0 -3 -1 -5q-5 -10 -10 -19.5t-9 -19.5q-2 -8 -5.5 -16t-7.5 -16q-5 -8 -9.5 -16t-9.5 -16q-5 -9 -11 -17.5t-11 -17.5q-8 -11 -14.5 -21.5t-14.5 -21.5q-8 -13 -16 -25.5t-16 -25.5q-4 -7 -8.5 -13.5t-9.5 -13.5q5 0 9.5 -1t9.5 2l2 1q8 0 16.5 0.5t16.5 1.5
q5 1 9.5 1.5t9.5 0.5q7 1 14 -2q8 -4 15 -7t16 -8q-6 -3 -8 -3q-5 -1 -9.5 -1t-9.5 -2q-5 -1 -9 -1.5t-9 -2.5q-8 1 -14 -1.5t-14 -3.5q-15 -1 -31 -8q-3 -2 -7 -0.5t-6 -2.5q-8 0 -15.5 -2.5t-15.5 -2.5v-29l-3 -51h9.5t9.5 2t10.5 1.5t10.5 0.5l18 4l18 4q7 2 13 3t11 1
q8 -5 16.5 -8.5t16.5 -7.5q-1 -4 -4.5 -6t-7.5 -3q-8 -2 -15 -5t-15 -6q-11 -4 -21.5 -8.5t-22.5 -6.5q-9 -4 -16 -5q-8 -1 -15.5 -3t-15.5 -4v-10q0 -7 1 -14t-1 -13q-2 -8 -1.5 -14.5t-0.5 -13.5t0 -14t0 -14q-3 -15 -2 -30t-1 -30q-3 -23 -1 -51q0 -8 1.5 -16.5
t-0.5 -16.5q0 -1 -3 -4q-1 1 -2 1t-3 1l-4 -2q-2 4 -2 5l-3 -3q-2 2 -4.5 2.5t-4.5 2.5l-4 -2q-2 1 -4.5 2.5t-5.5 2.5q-5 2 -6.5 6t-1.5 9q1 11 -1 22.5t-1 22.5v11t-1 12q0 6 -0.5 12.5t-1.5 12.5q0 7 1 13t-1 12q-3 11 -2 21t0 21q-1 5 -1.5 10t-0.5 10q-1 5 -0.5 10
t0.5 11q-6 -1 -11 -1.5t-10 -1.5q-8 -2 -16 -4.5t-16 -4.5q-9 -2 -18.5 -4t-18.5 -5q-10 -2 -15 -2q-10 -1 -20 0q-5 1 -9 2t-9 3q2 6 6 8.5t8 4.5q14 7 27 12.5t27 10.5q8 3 15.5 6t15.5 6q9 3 18 5.5t17 5.5q3 1 5.5 2t5.5 3v12q-1 11 1.5 22.5t0.5 23.5q3 6 2.5 12.5
t0.5 14.5zM199 209h-2v-15v-7.5t2 -6.5v9v20zM194 18q-1 0 -1 1v-19h1v18zM197 92q-2 0 -2 -1v-6q1 1 2 1v6z" />
    <glyph glyph-name="two" unicode="2" horiz-adv-x="329" 
d="M69 336q-6 1 -8 -6q-1 0 -3 2q-2 -4 0 -6t2 -5q3 -2 6.5 -3t5.5 -5q-4 1 -6.5 1.5t-5.5 1.5q-3 4 -6 7t-6 7v21q0 14 7 28q5 9 9.5 18.5t9.5 17.5q3 6 7 10.5t8 9.5q5 5 8.5 10t8.5 10l9.5 9.5t9.5 8.5q9 8 17.5 14.5t18.5 11.5q21 11 41 1q17 -8 34 -17q14 -7 19 -23
q3 -10 4.5 -19t-0.5 -19q-2 -12 -3.5 -24.5t-7.5 -23.5q-1 -8 -4 -15t-5 -15q-3 -8 -5.5 -15t-5.5 -14q-4 -9 -7.5 -17.5t-7.5 -16.5q-5 -12 -11.5 -23.5t-11.5 -23.5q-4 -10 -8 -19t-9 -17q-8 -15 -16 -30.5t-16 -30.5q-5 -8 -8.5 -16t-8.5 -16q-8 -15 -16 -29.5t-16 -29.5
q-5 -8 -9.5 -17t-10.5 -20q4 3 6 3q14 6 27 12.5t27 11.5q8 4 16.5 7.5t17.5 6.5q6 2 12 3t12 3l24 6q5 1 10.5 2.5t11.5 0.5q11 0 19 -6q4 -2 7.5 -4t8.5 -4q6 -1 4 -9q-5 -2 -9.5 -5t-9.5 -6q-3 -2 -7 -3.5t-7 -4.5q-4 -4 -8.5 -6t-8.5 -5q-1 -2 -2.5 -1.5t-2.5 -0.5
q-13 -6 -25.5 -11t-25.5 -10q-9 -3 -18.5 -6t-18.5 -8q-8 -4 -16.5 -6t-16.5 -6q-5 -2 -10 -3t-10 -3q-3 -1 -6 -1t-7 -1q-8 -2 -14.5 0.5t-14.5 4.5q-1 0 -2 1t-2 1q-6 -2 -10.5 0.5t-9.5 4.5q-3 1 -5.5 4t-5.5 5q-2 10 2 17l8 14q3 6 6.5 11.5t6.5 11.5q8 14 15.5 29
t15.5 29q13 22 24 44t22 45l13.5 27t12.5 27q5 11 9.5 20.5t9.5 20.5q3 7 6.5 13.5t5.5 14.5t5 14.5t5 13.5q5 11 9.5 22t7.5 23q3 11 6 20.5t5 20.5q1 5 2 9t2 9q2 5 1 9.5t-1 9.5v20q-1 1 -1 1.5t-1 1.5q-1 -1 -1 -0.5t-1 -0.5q-11 -6 -21 -13t-19 -15q-7 -5 -13 -11
t-13 -12q-9 -9 -17 -18.5t-16 -20.5q-12 -16 -20 -32q-4 -8 -5 -13q-2 4 -4 7v-9zM250 439h-2v-9v-4.5t2 -5.5v19zM71 336v-4h-1q-1 1 -1 4h2z" />
    <glyph glyph-name="Thorn" unicode="&#xde;" horiz-adv-x="345" 
d="M100 227q4 5 7 10l6 10q7 13 14.5 24.5t15.5 23.5q15 22 31 40q8 11 18 20t19 19q5 4 9.5 7t9.5 5q8 5 16 4.5t16 -3.5q8 -4 16.5 -8t16.5 -8q10 -6 13 -17q2 -5 3 -11l2 -12l2 -10t0 -10q0 -3 -1 -6.5t-1 -7.5t0.5 -7.5t-0.5 -6.5q-2 -7 -3 -13.5t-3 -12.5
q-3 -11 -8 -25l-9 -24q-2 -7 -5.5 -13t-6.5 -13q-2 -7 -6 -13t-8 -11q-20 -30 -51 -43q-8 -4 -12 -4q-5 -1 -10 -2.5t-10 -0.5h-31q-5 0 -9.5 -0.5t-9.5 0.5q-5 2 -9 1t-9 1q-4 2 -8 2t-8 2q-2 2 -4.5 1.5t-5.5 0.5q-2 -3 -3.5 -7t-2.5 -9q-2 -7 -3.5 -13.5t-1.5 -13.5
q0 -3 -1 -5.5t-2 -5.5q0 -4 -2 -12q0 -7 -2 -10q-1 -4 -1 -8t-1 -9q-2 -8 -3 -16t-3 -16q-1 -6 -1.5 -12.5t-4.5 -12.5q-1 -2 -0.5 -4t0.5 -3q-2 -4 -3 -6.5t-2 -5.5q0 -4 -2.5 -4t-4.5 -2q-8 2 -14.5 5t-14.5 1l-1 2q-4 2 -6.5 3.5t-5.5 3.5q0 9 2.5 17.5t0.5 16.5
q3 5 2.5 11t-0.5 12q0 4 1.5 7.5t1.5 7.5q-1 4 -1 7.5t3 7.5v2q0 9 0.5 18t1.5 18q0 3 1 6.5t1 6.5q1 3 0 6.5t3 6.5v2q0 8 0.5 14.5t1.5 14.5q0 3 1 6t1 6q1 2 1 5t1 5q2 5 2 9t1 9q1 9 2.5 18t2.5 19q2 8 3 16.5t3 16.5q2 5 1.5 10t1.5 10q2 8 3 15t3 14q2 4 1.5 8t1.5 8
q2 3 2 6.5t1 7.5v8t2 7t1.5 7t3.5 6q-1 10 2 19t5 18q2 11 4.5 20.5t5.5 19.5l4 16l4 16q3 9 4.5 18.5t7.5 17.5v4l3.5 3.5l3.5 3.5q9 -1 16 -4.5t13 -8.5q1 -7 2 -13t1 -13q1 -11 -1.5 -22t-0.5 -22q0 -2 -1.5 -5t-1.5 -6q1 -6 -1 -11q-2 -3 -1 -6.5t0 -6.5
q-2 -10 -3.5 -19.5t-3.5 -19.5q-3 -5 -2.5 -9.5t-1.5 -9.5t-1.5 -10t-1.5 -10t-2.5 -10.5t-1.5 -10.5l-2 -10t-3 -10q-1 -4 -1 -8t-1 -8q-2 -5 -2 -11t-1 -12q0 -3 -2 -7q1 0 1 -1zM101 143q26 -3 42 5q11 5 21.5 12t20.5 15l15 18q7 7 12 14.5t10 15.5q3 7 6 13t6 13
q2 8 5 14.5t5 13.5q5 17 7.5 29t3.5 24q0 2 0.5 3t0.5 3q2 4 1.5 8t-1.5 9q-4 -3 -7 -5t-5 -4q-7 -8 -14 -14.5t-13 -14.5q-5 -5 -10 -10.5t-9 -11.5q-8 -12 -17.5 -23.5t-17.5 -23.5q-9 -13 -17.5 -25.5t-16.5 -25.5q-3 -5 -5 -9.5t-6 -8.5q-5 -8 -8.5 -16.5t-8.5 -17.5z
M302 287h1v5h-1v-5zM129 482h-2q0 -3 1 -4h1v4zM95 267h2q-1 1 -1 4q-1 0 -1 -1v-3zM125 441h1v5h-1v-5zM92 253h2v4h-2v-4zM90 239h2q0 3 -1 4h-1v-4zM87 213h-2q0 -1 0.5 -2t0.5 -2h1v4z" />
    <glyph glyph-name="five" unicode="5" horiz-adv-x="348" 
d="M57 -43l-4 2t-5 3q-8 -1 -21 6q-2 1 -2 2.5t-1 3.5q5 3 9.5 6t9.5 7h6q9 4 16.5 7t15.5 7l40 22t40 24q6 8 14.5 13.5t13.5 14.5q3 5 7 8t7 8q7 9 12 19t7 21t2 13.5t-1 8.5q-2 11 -8.5 16t-14.5 9q-5 2 -11 2.5t-11 1.5q-11 2 -21 3.5t-21 4.5q-17 4 -33 8t-33 9
q-15 6 -28.5 13.5t-24.5 21.5q-5 8 -9.5 16.5t-3.5 18.5q0 3 -2 7q0 2 -0.5 3.5t0.5 2.5q2 5 1.5 9t0.5 9q2 8 3.5 15t3.5 15q5 12 10 24.5t11 23.5t12.5 21.5t14.5 21.5q10 14 20.5 27.5t23.5 25.5q3 2 5.5 4t5.5 4h16q10 -10 26 -5q4 2 8.5 2t9.5 1q5 0 9 2t9 0q3 4 7 3
t8 1t8 1.5t9 1.5t11 1.5t11 1.5q10 2 20 1.5t21 0.5h40q8 0 14 -3t11 -7q5 -3 10.5 -4.5t10.5 -5.5q0 -2 1 -5q-3 -1 -5.5 -2t-4.5 -1q-9 1 -18 -1.5t-17 -6.5q-3 -2 -6 -2t-5 -1q-6 -2 -11.5 -2t-11.5 -1q-3 0 -6 -0.5t-7 -1.5q-3 0 -6.5 0.5t-6.5 -2.5h-1q-8 2 -15.5 0
t-15.5 -3q-9 -1 -17.5 -0.5t-16.5 -1.5q-7 -2 -13.5 -2h-13.5h-25q-4 1 -8 3l-4 -4q-3 -6 -5.5 -11.5t-5.5 -10.5q-5 -9 -9.5 -17.5t-8.5 -16.5q-7 -15 -14 -29.5t-12 -30.5q-1 -5 -2.5 -8.5t-2.5 -8.5t-1.5 -9t-2.5 -9q-2 -8 -1.5 -15t0.5 -14q-1 -10 2.5 -18.5t8.5 -18.5
q3 -7 9 -7q8 -1 14.5 -2.5t13.5 -2.5q5 -1 9 -1t7 -2q5 -2 9 -1t7 -3q10 1 18.5 -2t17.5 -5t17.5 -6t16.5 -8t15.5 -8t15.5 -8q11 -5 19 -12.5t15 -17.5l2 -4t1 -4v-18t-4 -18q-3 -8 -8 -15.5t-10 -15.5q-10 -15 -27 -29q-11 -10 -23 -19t-26 -16q-5 -2 -8.5 -5t-8.5 -5
q-24 -11 -48 -18q-13 -4 -25 -7.5t-24 -7.5q-2 -2 -5 -1.5t-6 -1.5q-2 -2 -5 -2t-7 -1zM281 118h2q0 2 -0.5 4.5t-0.5 4.5h-1v-9zM62 291h2v6h-2v-6z" />
    <glyph glyph-name="plus" unicode="+" horiz-adv-x="394" 
d="M198 219q0 -6 -0.5 -12.5t0.5 -13.5q1 -8 -1 -16t-1 -16q-4 -5 -3 -10.5t-1 -10.5t-1 -11t0 -11q-2 -8 -1.5 -17t-1.5 -17t-1.5 -15t-0.5 -14q-1 -5 -1.5 -10t-1.5 -11q-7 -5 -12 -1.5t-12 5.5l-2 -2q-8 2 -11 8q-4 6 -4 12q0 7 -2 13.5t0 14.5q-3 5 -2.5 10.5t-0.5 10.5
q0 4 -1.5 7t-0.5 8v7.5t-2 7.5v2q-1 9 -1 17.5t-2 17.5q-2 8 -1.5 15.5t-0.5 15.5l-4 4q-3 -3 -5 -3q-8 0 -14.5 -2t-14.5 -4q-7 -1 -13.5 -2.5t-13.5 -2.5l-9 -3q-3 0 -6 -1t-6 -1q-4 0 -12 -2q-6 -2 -12 -0.5t-12 3.5q-1 0 -5 4q5 4 9 7.5t9 6.5q17 8 35 14.5t35 12.5
q10 3 19.5 6t18.5 6l2 12t1 12q1 5 0 11.5t1 11.5q2 6 1.5 11.5t0.5 11.5q0 5 2 13q1 3 0.5 6.5t1.5 6.5v5q1 4 0.5 7t1.5 6t1 6.5t2 6.5q-1 5 1 10.5t1 10.5q4 4 6 5q4 0 10 -2l21 -12q5 -4 7 -11q2 -6 3 -11.5t3 -11.5q1 -6 0.5 -12t1.5 -11q2 -16 1.5 -32t0.5 -33
q8 2 11 3q5 2 10.5 2t10.5 2t11 2t11 1q4 1 7 1.5t6 0.5q4 1 7.5 0.5t5.5 2.5q10 -2 19.5 0.5t19.5 1.5q5 0 9 -2q8 -5 16 -9t17 -9q-3 -2 -5 -3.5t-4 -1.5q-15 -2 -29 -7t-28 -7q-5 -3 -11 -3.5t-11 -3.5q-4 -2 -8.5 -2h-8.5l-10 -2l-10 -2l-18 -3l-15 -3zM186 185
q-4 -7 0 -13v13zM181 121h-2v-10q1 0 2 -1v11zM183 155q-1 1 -2 1q1 -3 1 -9h1v8zM179 62h-2v-7h2v7z" />
    <glyph glyph-name="zero" unicode="0" horiz-adv-x="345" 
d="M149 509h8q1 -1 1.5 -2t2.5 -2q5 -2 9.5 -3.5t7.5 -6.5q5 0 9 -2.5t8 -4.5q25 -11 44 -27q15 -12 24 -30q10 -16 14 -32q3 -15 7 -26q5 -23 4.5 -45.5t-0.5 -45.5q0 -14 -4 -25q-2 -4 -2 -8t-1 -8q-2 -13 -5.5 -25t-6.5 -24q-2 -6 -4.5 -12.5t-4.5 -12.5t-4.5 -12.5
t-5.5 -12.5q-5 -13 -11.5 -26t-13.5 -26q-6 -11 -12 -21t-14 -21q-18 -26 -40 -45q-11 -10 -25 -16q-7 -2 -17.5 -2t-19.5 2q-5 2 -11 3t-12 3q-30 9 -49 37q-10 18 -16 42q-2 4 -1.5 8t-1.5 8t-1.5 8t-0.5 8q0 5 0.5 9.5t-1.5 9.5q-4 7 1 12v5q1 5 0.5 8.5t0.5 7.5v16.5
t2 16.5q1 4 1 7.5t1 7.5t3 14q2 8 3 15t3 15t3.5 15t3.5 15q4 2 3 5.5t2 6.5q2 2 2 5.5t1 6.5q2 3 2 6t2 6t2.5 6t2.5 6q2 6 4.5 11.5t4.5 11.5q8 22 18.5 42.5t21.5 40.5q4 8 8 15.5t9 14.5q3 4 4.5 8t3.5 8q1 13 12 18q5 2 9.5 6.5t11.5 6.5zM170 486l-3 -9q-3 -11 -8 -25
q-2 -5 -4 -10.5t-4 -10.5t-3.5 -10.5t-3.5 -10.5q-3 -8 -5.5 -14.5t-5.5 -13.5q-4 -10 -7.5 -20t-7.5 -20q-5 -14 -9 -27.5t-9 -27.5q-2 -9 -4.5 -18.5t-4.5 -19.5l-4 -12t-1 -12q-5 -13 -6.5 -26.5t-5.5 -26.5q-1 -4 -1 -8t-1 -9q-1 -4 -0.5 -8t-1.5 -9t-1 -9t0 -9
q0 -5 -1 -9t-1 -9q1 -9 0 -18t2 -19q1 -2 0.5 -5t0.5 -5q0 -3 0.5 -5.5t1.5 -5.5q2 -7 3.5 -13.5t5.5 -13.5l6 -9q8 -1 15 1.5t14 6.5q17 8 27 20q6 6 12.5 12t11.5 14q4 6 8.5 11.5t8.5 12.5q8 13 15 26t12 27q2 5 3.5 9t3.5 9q4 11 8 23t8 23q2 6 3 12t2 11t1 10.5t2 10.5
q1 3 1 6.5t1 6.5q0 4 1 7t1 7q0 11 0.5 21t-0.5 21q0 11 0.5 21.5t-2.5 21.5q-1 3 0 7t-1 6q-2 4 -1.5 7.5t-1.5 6.5q-2 2 -2 6t-1 7q-2 14 -7 26t-12 24q-3 6 -9 12q-8 8 -17.5 14.5t-21.5 10.5zM58 111q-2 -8 -2 -15t2 -14v29zM60 143q-2 -3 -2 -5.5t2 -7.5v13zM61 155h2
q-1 2 -1 6h-1v-6zM63 173h1v5h-1v-5zM67 191h-2q0 -3 1 -4h1v4z" />
    <glyph glyph-name="three" unicode="3" horiz-adv-x="291" 
d="M170 222q-4 1 -7 1t-6 1h-7q-14 -2 -26 4q-4 2 -9 2.5t-10 2.5q-2 1 -5 1.5t-5 2.5q0 1 -5 1q-2 1 -2.5 2t-2.5 3q-7 7 -7.5 10t4.5 13q4 8 9 16l10 16q14 22 28.5 44t29.5 43q11 17 21.5 33.5t18.5 34.5q3 5 5 11l4 12q0 1 2 5q-12 -3 -19 -9q-8 -5 -16 -10.5t-16 -10.5
q-6 -4 -14 -10q-8 -7 -16.5 -13.5t-16.5 -13.5q-12 -11 -23.5 -22.5t-23.5 -22.5q-2 -2 -3.5 -5t-3.5 -5q-4 5 -6.5 2.5t-5.5 -4.5l-2 2q-5 -4 -6.5 -9t-3.5 -11q0 4 -1 6q-1 0 -1.5 0.5t-1.5 0.5q-1 1 -1 2q2 10 4.5 19.5t8.5 17.5q6 9 11.5 17t12.5 16q11 14 23 25.5
t24 22.5q11 11 23.5 20.5t26.5 15.5q8 7 16.5 9.5t17.5 6.5q3 1 9.5 -0.5t11.5 -4.5q11 -5 21 -9.5t20 -9.5q2 -3 3.5 -6l3.5 -7q1 -8 -1.5 -17t-6.5 -17q-2 -7 -5.5 -13.5t-6.5 -12.5q-5 -10 -11 -19.5t-12 -19.5t-12 -19.5t-12 -18.5q-12 -18 -23.5 -36t-24.5 -36
q-3 -5 -5.5 -9.5t-5.5 -9.5q7 -2 13 -4.5t13 -3.5q5 -2 9 -4t9 -4q10 -7 20 -11q14 -8 24 -19q1 -1 3.5 -5t5 -9l4.5 -9t2 -5q-1 -8 1.5 -15.5t0.5 -15.5q-2 -6 -2 -12t-2 -12q-2 -5 -3.5 -11t-3.5 -11q-2 -6 -5 -11.5t-5 -10.5q-4 -11 -10 -20.5t-11 -20.5q-2 -4 -8 -10
q-6 -9 -14 -17q-5 -4 -9 -8t-9 -7q-9 -5 -18.5 -10t-21.5 -5q-5 -2 -10 -2h-10h-8t-8 2t-8 1t-8 2h-5q-9 0 -17 2l-16 4q-7 1 -13 3.5t-13 4.5q-2 2 -3 4t-3 4q2 2 3 4.5t3 2.5q8 2 16 6l16 8q2 1 5 0.5t5 0.5l9 -12l2 2l2 -4q17 0 35 10q15 10 30 26q5 7 10.5 14t10.5 15
q3 6 6.5 11.5t6.5 11.5q6 11 10 21.5t8 21.5q2 4 2 8t1 8t0.5 7t2.5 6v3q-3 11 -4.5 21.5t-9.5 19.5q-1 0 -1 3zM233 139h-1v-5h1v5zM47 332h-4v1q1 0 2 0.5t2 0.5v-2z" />
    <glyph glyph-name="trademark" unicode="&#x2122;" horiz-adv-x="343" 
d="M243 254q1 8 -1.5 15.5t-4.5 15.5q0 2 -0.5 3.5t-0.5 3.5q0 8 -0.5 16.5t0.5 16.5q1 7 1.5 13t2.5 12l2 10t1 10q0 1 2 7q0 1 -2 3q2 8 3 13q-7 -3 -9 -8t-6 -10t-7 -9t-6 -9q0 -1 5 -2l-15 -12q4 -2 6 -4q-3 -2 -4 -1q-5 2 -9.5 3t-8.5 3q-6 2 -12 4.5t-13 5.5
q0 -2 -0.5 -3t-0.5 -3v-21q1 -6 -0.5 -12t-1.5 -12q0 -7 0.5 -13.5t-0.5 -12.5q-2 -6 -2 -12t-1 -12h-12q-2 -3 -4 -7l-6 3q-1 1 -1 2q0 13 0.5 25.5t-0.5 25.5q0 7 -0.5 13t-1.5 13v25q1 8 1.5 16t1.5 16q2 2 3.5 3t5.5 -1q5 -3 10.5 -6.5t10.5 -8.5q5 -4 8.5 -8t9.5 -6
q11 3 16.5 10t11.5 15q5 8 10 15t10 15q3 6 6.5 11.5t7.5 11.5q2 2 3 5t3 5q3 -1 5.5 -1t5.5 -2q4 -2 8.5 -4.5t9.5 -4.5q4 -1 6 -4t3 -6q3 -8 3 -16q1 -45 0 -90q0 -10 -1 -20t-3 -20q-1 -3 -3.5 -6t-1.5 -7q-6 -5 -7 -12.5t-6 -13.5q-4 0 -6 1l-4 2t-5 1q-8 2 -10 3.5
t-6 7.5zM288 356q1 5 1.5 10t-1.5 10v-20zM287 324h-2v-9h2v9zM163 356h-1v-5h1v5zM283 292h1v4h-1v-4zM187 428q-9 -1 -16 -1.5t-15 -1.5q-2 -1 -5.5 -1t-5.5 -2q-8 -2 -15 -1.5t-15 -0.5h-5q4 -11 3 -22.5t0 -22.5v-46q0 -4 -1 -7t-2 -7q0 -3 0.5 -6t-1.5 -7t-2 -8t-1 -8
q-2 -8 -2 -15t-1 -15q0 -5 -2 -13v-13q-5 -1 -14 1q-8 4 -13 3q-5 0 -9.5 4t-5.5 9t-1 10t-1 10t-1.5 8.5t-0.5 8.5q-1 5 0 9.5t-1 9.5q-3 14 -1.5 27t-0.5 27q2 5 1.5 9t1.5 9t1.5 9t0.5 9q2 3 1.5 6.5t1.5 5.5q2 3 1.5 6t0.5 7q-8 -3 -15 -2.5t-14 0.5q-8 -1 -14.5 0.5
t-13.5 1.5q-2 1 -4 3q4 5 9 7l10 4q4 1 8 1t7 2q4 2 7.5 1.5t7.5 1.5q5 2 10.5 1.5t10.5 1.5q7 2 13.5 2h13.5q2 0 4.5 2t5.5 1q11 -4 23 -3t23 0q9 0 17 -6q3 -2 6 -2.5t6 -2.5l1.5 -1.5zM103 346q-1 -5 -1.5 -10t1.5 -10v20zM104 388h1v18h-1v-18zM101 310h-2v-5h2v5z
M98 291h-2q1 -1 1 -4h1v4zM96 264q-1 0 -2 -1q0 -1 0.5 -1.5t0.5 -1.5h1v4z" />
    <glyph glyph-name="cent" unicode="&#xa2;" horiz-adv-x="292" 
d="M139 298q6 4 5.5 9t3.5 9q2 11 6 22l8 22q1 4 3.5 7t4.5 7q2 1 5 1.5t5 1.5q3 -2 5.5 -4.5t5.5 -2.5t3.5 -3.5t4.5 -2.5v-7.5t-2 -8.5q-2 -4 -1 -8t-1 -8q-2 -5 -2 -9.5t-1 -9.5q-2 -6 -2 -10q-1 -3 -0.5 -5.5t0.5 -4.5q5 -2 9 -4.5t9 -4.5q12 -6 18 -18l3 -6v-11
q-7 -2 -10 1q-1 -1 -3 -5q-1 1 -2 1.5t-2 1.5q-5 8 -11 15t-14 13q-1 -1 -2 -1t-1 -1q-11 -54 -21.5 -106.5t-20.5 -105.5q32 23 55 53.5t46 62.5v10q6 2 10 -1t9 -5q4 -2 7.5 -4t5.5 -8q-1 -3 -5 -11q-5 -11 -11.5 -21t-14.5 -21q-8 -12 -17 -24l-18 -24q-12 -15 -24 -26
q-9 -8 -19.5 -14.5t-24.5 -8.5q-3 0 -6 -1.5l-5 -2.5q-3 -15 -5.5 -29.5t-5.5 -30.5l-1.5 6t-0.5 5q-1 -2 -1.5 -3.5t-0.5 -3.5q-4 1 -10 3l-2 -2q-5 1 -8 5v56q-15 3 -29 8t-27 13q-14 9 -22 20.5t-13 24.5q-3 8 -3 19t2 23q1 6 2.5 12t2.5 13q1 6 5 13q4 6 6.5 12.5
t6.5 12.5q5 11 11.5 20t12.5 19q6 9 14 17l15 15t16 13q18 13 39 21q1 1 2.5 0.5t2.5 -0.5zM127 238q-1 0 -1 0.5t-1 0.5l-6 -8t-7 -8q-9 -10 -15.5 -21t-13.5 -23q-4 -7 -7.5 -13.5t-5.5 -14.5q-4 -11 -7.5 -22.5t-3.5 -23.5q1 -11 0 -21q0 -12 6 -22q2 -4 4.5 -8t4.5 -8
q5 -3 10.5 -2.5t10.5 -0.5q2 2 4 7q1 9 0.5 18t1.5 19q2 7 2 14t1 15v2q3 3 2 6t0 6q2 8 2 12q0 5 2 9.5t1 9.5q4 4 2 8.5t2 8.5q-1 5 0.5 8.5t2.5 8.5q1 7 2 13t3 12q2 5 2.5 9t1.5 9zM50 107h-2v-8h2v8zM119 -21h-2q1 -2 1 -7l1 1v6zM120 -9h2q0 3 -1 4h-1v-4z" />
    <glyph glyph-name="braceleft" unicode="{" horiz-adv-x="198" 
d="M220 -103q8 -1 13 -6t9 -11q-4 -9 -8.5 -16.5t-13.5 -12.5q-8 -5 -15 -5q-8 -2 -17 0.5t-17 4.5q-20 5 -37 13q-8 5 -14.5 9t-13.5 9q-6 5 -11.5 9.5t-10.5 10.5q-9 11 -16.5 22t-12.5 25q-2 7 -5 13.5t-5 14.5q-2 6 -3.5 12t-2.5 13q-2 9 -2.5 18t-2.5 18t-1.5 18
t-0.5 18q0 9 -0.5 18t1.5 18q1 7 1 13.5t1 13.5q0 4 1 7.5t1 7.5t-0.5 8t2.5 7v1q-1 13 1.5 25t0.5 25q-1 6 -1.5 12t-2.5 11q-1 2 -2.5 3t-2.5 3q-7 2 -13.5 3t-13.5 6q-1 1 -1.5 3t-2.5 4q2 2 2.5 4t2.5 4q10 11 17 23t14 25q7 14 13 28t10 28q5 8 7 15.5t5 15.5t6 15.5
t6 15.5q5 11 8.5 21.5t8.5 21.5q3 8 6.5 15.5t6.5 15.5q4 11 10 20t12 19q17 24 41 32q18 6 35 2q9 -2 17.5 -5.5t16.5 -8.5q3 -2 6 -3.5t5 -3.5v-8l-12 3q-2 -4 -2 -5q-5 6 -9 9h-14q-7 -3 -13.5 -7t-11.5 -10q-9 -9 -13 -17q-5 -11 -10 -20.5t-9 -20.5q-10 -21 -18 -47
q-4 -11 -8.5 -22.5t-9.5 -22.5q-4 -10 -7.5 -19t-7.5 -19l-14 -32t-15 -32q-5 -8 -9 -15.5t-11 -14.5q-2 -2 -3.5 -5t-3.5 -5q3 -2 6 -2.5t5 -2.5q5 -3 10.5 -5.5t8.5 -9.5q2 -5 5 -10t4 -11q1 -5 1.5 -9t0.5 -9q0 -6 0.5 -12t-0.5 -12t0 -12t-1 -12t-1 -12.5t0 -11.5
q-2 -9 -2 -17.5v-17.5q-1 -8 -0.5 -17t0.5 -17t-0.5 -15.5t0.5 -15.5q1 -20 6 -39q2 -14 6 -26t9 -25q4 -11 9.5 -21t12.5 -20q4 -6 9 -9.5t10 -8.5q6 -6 18 -7t20 4q5 4 10.5 8t8.5 10q1 2 3 4zM81 85q4 9 0 15v-15zM85 133q-2 -8 0 -11v11zM88 160h-2v-8h2v8z" />
    <glyph glyph-name="braceright" unicode="}" horiz-adv-x="211" 
d="M-51 534q-8 1 -13 6t-9 11q4 9 8.5 16.5t13.5 12.5q8 5 15 5q8 2 17 -0.5t17 -4.5q20 -5 37 -13q8 -5 14.5 -9t13.5 -9q6 -5 11.5 -9.5t10.5 -10.5q9 -11 16.5 -22t12.5 -25q2 -7 5 -13.5t5 -14.5q2 -6 3.5 -12t2.5 -13q2 -9 2.5 -18t2.5 -18t1.5 -18t0.5 -18
q0 -9 0.5 -18t-1.5 -18q-1 -7 -1 -13.5t-1 -13.5q0 -4 -1 -7.5t-1 -7.5t0.5 -8t-2.5 -7v-1q1 -13 -1.5 -25t-0.5 -25q1 -6 1.5 -12t2.5 -11q1 -2 2.5 -3t2.5 -3q7 -2 13.5 -3t13.5 -6q1 -1 1.5 -3t2.5 -4q-2 -2 -2.5 -4t-2.5 -4q-10 -11 -17 -23t-14 -25q-7 -14 -13 -28
t-10 -28q-5 -8 -7 -15.5t-5 -15.5t-6 -15.5t-6 -15.5q-5 -11 -8.5 -21.5t-8.5 -21.5q-3 -8 -6.5 -15.5t-6.5 -15.5q-4 -11 -10 -20t-12 -19q-17 -24 -41 -32q-18 -6 -35 -2q-9 2 -17.5 5.5t-16.5 8.5q-3 2 -6 3.5t-5 3.5v8l12 -3q2 4 2 5q4 -6 9 -9h14q7 3 13.5 7t11.5 10
q9 9 13 17q5 11 10 20.5t9 20.5q10 21 18 47q4 11 8.5 22.5t9.5 22.5q4 10 7.5 19t7.5 19l14 32t15 32q5 8 9 15.5t11 14.5q2 2 3.5 5t3.5 5q-3 2 -6 2.5t-5 2.5q-5 3 -10.5 5.5t-8.5 9.5q-2 5 -5 10t-4 11q-1 5 -1.5 9t-0.5 9q0 6 -0.5 12t0.5 12t0 12t1 12t1 12.5t0 11.5
q2 9 2 17.5v17.5q1 8 0.5 17t-0.5 17t0.5 15.5t-0.5 15.5q-2 19 -6 39q-2 14 -6 26t-9 25q-4 11 -9.5 21t-12.5 20q-4 6 -9 9.5t-10 8.5q-6 6 -18 7t-20 -4q-5 -4 -10.5 -8t-8.5 -10q-1 -2 -8 -9zM88 346q-4 -9 0 -15v15zM84 298q2 8 0 11v-11zM81 271h2v8h-2v-8z" />
    <glyph glyph-name="thorn" unicode="&#xfe;" horiz-adv-x="264" 
d="M146 15q-8 -2 -18 -4h-6.5t-7.5 2q-3 2 -6.5 1t-7.5 2q-2 2 -5.5 0.5t-5.5 1.5q-8 -1 -15.5 2.5t-15.5 1.5q-3 -9 -3 -19q0 -3 -1 -5.5t-1 -5.5q-1 -2 -0.5 -4.5t-1.5 -4.5l-1 -2q-1 -8 -1 -16t-1 -16q-2 -10 -2 -15q-1 -3 0 -7t-3 -7v-1q2 -6 0 -12t-2 -12
q0 -11 -1.5 -21t-3.5 -21q-8 -1 -15.5 2.5t-15.5 4.5q-4 3 -4 13v51t1 51q0 5 0.5 10t1.5 10q0 5 -1 9.5t1 9.5q2 7 1.5 14t0.5 14q0 1 2 7v0q-2 2 -2.5 5.5t-1.5 6.5q-1 2 -0.5 4.5t0.5 4.5q2 2 3.5 2.5t3.5 2.5v7t2 8t1 8t1 7q-1 6 1 12t2 11t2 13q1 3 0.5 6.5t1.5 5.5
q-1 5 0.5 9t1.5 8q1 4 1.5 6.5t1.5 5.5t0.5 6t1.5 6q2 2 1 5t1 7q2 2 2 6t1 7q1 5 2 10.5t2 11.5q2 5 2.5 10t2.5 10q2 8 2 13q1 7 3.5 13t2.5 13q3 2 1.5 6.5t2.5 6.5q1 10 3 19.5t4 19.5q1 8 2.5 15.5t4.5 15.5q2 6 2 9h10q5 -3 11 -7v-20h2q0 4 0.5 8t0.5 9l2 -2
q0 -11 0.5 -22t1.5 -22q1 -10 -1.5 -19.5t-0.5 -19.5q-3 -5 -2 -10.5t-1 -10.5q-2 -8 -2.5 -17t-3.5 -18q-2 -2 -1 -5t0 -5q0 -2 -1 -4t-1 -4q1 -6 -1 -11.5t-1 -10.5q0 -3 -1.5 -5.5t-1.5 -5.5q1 -4 -1 -10q-2 -5 -2 -11t-1 -11q-2 -5 -2.5 -11t-1.5 -11t-2 -11t-1 -12
q0 -2 1 -5q2 8 5 14.5t6 12.5q2 8 6 14.5t7 14.5q5 8 9 17t9 17q7 13 15 25.5t16 25.5q4 5 7.5 11t8.5 11q2 3 6 6t7 5q14 3 27 -7l6 -4l6 -4q6 -5 6 -12q1 -7 2.5 -13.5t0.5 -13.5q-1 -5 -0.5 -11t0.5 -12q-1 -5 -1.5 -9.5t-0.5 -9.5q-1 -5 0 -10t-1 -10t-1.5 -9.5
t-0.5 -9.5q0 -4 -1.5 -8t-0.5 -9q-5 -3 -2.5 -8t-2.5 -8q1 -8 -2 -15t-5 -15q-3 -11 -8.5 -21t-12.5 -19q-8 -10 -16.5 -17t-17.5 -12zM69 42q10 -3 18 0.5t16 6.5q3 1 8.5 5t11.5 9t10.5 10t6.5 8q7 11 13 21.5t10 21.5q3 9 6 17.5t5 16.5q2 6 3 12.5t3 12.5q2 4 2 8t1 8
q0 4 -0.5 7.5t2.5 6.5q-1 10 0.5 19t1.5 19q0 2 -1 3.5t-2 3.5q-12 -13 -22 -30q-3 -5 -5.5 -9.5t-5.5 -9.5q-6 -11 -12 -20.5t-12 -20.5q-4 -7 -7.5 -13.5t-6.5 -13.5t-6 -13.5t-6 -14.5q-2 -7 -5.5 -13.5t-6.5 -14.5q-5 -11 -10 -21.5t-10 -21.5zM213 205h2q0 2 -1 4
l-1 -1v-3z" />
    <glyph glyph-name="less" unicode="&#x3c;" horiz-adv-x="306" 
d="M211 39q-2 -2 -3.5 -2.5t-3.5 -2.5q-3 1 -7 2t-7 3q-5 2 -9.5 2.5t-9.5 2.5q-8 5 -15 10t-15 10q-11 6 -20.5 13t-19.5 15q-3 4 -6.5 7t-7.5 6q-4 4 -8 7t-8 7l-18.5 18.5t-17.5 19.5q-8 9 -15.5 18.5t-12.5 20.5q-5 8 -5.5 15.5t0.5 15.5q1 5 3.5 8.5t4.5 7.5q2 3 4 5.5
t4 5.5q10 10 19 19.5t19 19.5q15 16 31 31q8 8 16 15t17 14q1 0 3 2q13 11 25.5 22t26.5 21q5 3 8.5 5.5t8.5 5.5h11q2 -5 7 -5.5t6 -5.5q-1 0 5 2q-1 -7 -4 -11q-5 -6 -9.5 -12.5t-9.5 -11.5q-13 -13 -25.5 -26t-26.5 -25q-9 -8 -17.5 -16t-16.5 -16q-4 -4 -7 -7.5t-6 -7.5
q-4 -4 -7.5 -7t-5.5 -8q-2 -4 -5.5 -7t-6.5 -6q-5 -6 -9 -12t-7 -13q-2 -9 1 -17.5t7 -17.5q2 -3 4 -5t4 -5q2 -5 6 -9t9 -8q18 -19 37 -37q10 -11 21 -20.5t22 -18.5q11 -8 21 -17.5t21 -19.5z" />
    <glyph glyph-name="greater" unicode="&#x3e;" horiz-adv-x="264" 
d="M11 39q11 10 21 19.5t21 17.5q11 9 22 18.5t21 20.5q19 18 37 37q5 4 9 8t6 9q2 3 4 5t4 5q4 9 7 17.5t1 17.5q-3 7 -7 13t-9 12q-3 3 -6.5 6t-5.5 7q-2 5 -5.5 8t-7.5 7q-3 4 -6 7.5t-7 7.5q-8 8 -16.5 16t-17.5 16q-14 12 -26.5 25t-25.5 26q-5 5 -9.5 11.5t-9.5 12.5
q-3 4 -4 11q6 -2 5 -2q1 5 6 5.5t7 5.5h11q5 -3 8.5 -5.5t8.5 -5.5q14 -10 26.5 -21t25.5 -22q2 -2 3 -2q9 -7 17 -14t16 -15q16 -15 31 -31q10 -10 19 -19.5t19 -19.5q2 -3 4 -5.5t4 -5.5q2 -4 4.5 -7.5t3.5 -8.5q1 -8 0.5 -15.5t-5.5 -15.5q-5 -11 -12.5 -20.5
t-15.5 -18.5q-8 -10 -17.5 -19.5l-18.5 -18.5q-4 -4 -8 -7t-8 -7q-4 -3 -7.5 -6t-6.5 -7q-10 -8 -19.5 -15t-20.5 -13q-8 -5 -15 -10t-15 -10q-5 -2 -9.5 -2.5t-9.5 -2.5q-3 -2 -7 -3t-7 -2q-2 2 -3.5 2.5t-3.5 2.5z" />
    <glyph glyph-name="dollar" unicode="$" horiz-adv-x="288" 
d="M147 448q5 16 8.5 31.5t8.5 29.5q2 6 5 10.5t6 9.5q1 3 8 5q5 -3 10 -5.5l11 -5.5q-1 -3 -1 -6.5t-2 -6.5t-1 -7t-1 -6q-2 -4 -1.5 -7.5t-0.5 -7.5q-2 -8 -2 -14q-1 -3 0 -6.5t-3 -7.5q2 -1 3.5 -2t3.5 -1q12 -1 32.5 -8t29.5 -15q2 -2 3 -4t3 -4q-4 -1 -7 -1.5t-7 -0.5
q-8 9 -23 14q-3 0 -6.5 0.5t-6.5 0.5q-7 -1 -13.5 -2t-13.5 -3q1 -8 -1.5 -16.5t-0.5 -16.5q-2 -5 -2 -9t-1 -9q-2 -5 -1.5 -9.5t-0.5 -9.5q-2 -4 -1.5 -8t-1.5 -8q-1 -4 -0.5 -8t-1.5 -8q-2 -5 -1.5 -8.5t-0.5 -8.5q-2 -4 -1.5 -8t-1.5 -8q-1 -4 -1 -7.5t-1 -7.5t-1 -7.5
t-1 -6.5q-2 -5 -2 -9.5v-9.5l-3 -6q14 -8 27 -17.5t24 -21.5q8 -9 14.5 -18.5t9.5 -21.5q2 -4 2 -6q1 -3 0.5 -6.5t1.5 -5.5q1 -1 0 -4q-2 -7 -3 -14.5t-5 -14.5q-11 -22 -29 -33q-14 -8 -28 -12q-2 -1 -7 -1q-3 -1 -6.5 -0.5t-6.5 -1.5q-2 -2 -7 0q-2 3 -5.5 2t-5.5 0
l-3 -3q-2 -7 -2.5 -13.5t-2.5 -13.5v-1q-1 -7 -1.5 -14t-1.5 -15q0 -5 -2 -15q-1 -3 0 -7t-2 -7v-2q-1 -8 -1.5 -14.5t-0.5 -14.5l-3 -9q0 -6 -2 -9q0 6 -1 9h-1v-13q-4 3 -8 5q-2 0 -3.5 -0.5t-3.5 -0.5l-6 6q0 14 -1 28.5t1 28.5q3 21 1.5 41.5t0.5 41.5q-27 4 -53 19
q-13 8 -24 16.5t-18 22.5q-3 13 6 24q5 6 11 10t14 6q1 -1 1.5 -2t1.5 -2q0 -5 -3.5 -10t-2.5 -12q2 2 5 4q-2 -3 -2 -5t-1 -4q-2 -7 -2 -8q2 -7 5 -12q17 -20 43 -23q2 0 4.5 -1t4.5 -1q2 -1 4.5 -0.5t5.5 0.5v3q1 18 1 36t2 36q1 8 0.5 14.5t1.5 14.5q1 5 1.5 10.5
t0.5 11.5q0 2 1 5t1 5q1 3 0.5 5.5t-0.5 5.5q1 2 3 8q-7 4 -13.5 7.5t-13.5 6.5q-21 11 -38 24q-7 5 -11 11t-8 13q-5 7 -5 12q1 3 -0.5 5.5t0.5 6.5q2 2 1 5t0 6q1 2 2.5 4.5t1.5 4.5q0 6 3.5 11t6.5 10q6 10 14.5 17.5t16.5 15.5q14 11 30.5 20t34.5 14q4 2 8 3t8 3z
M113 273q1 6 1 12.5t2 12.5q1 3 1 5.5t1 5.5q0 2 1 5t1 5q1 5 1 9.5t2 8.5q2 8 3 14.5t3 14.5q2 6 2.5 13t3.5 13q2 4 1.5 7t0.5 7q-5 -3 -8.5 -5.5t-6.5 -4.5q-5 -4 -9.5 -7.5t-9.5 -8.5q-4 -5 -7.5 -10t-7.5 -10q-19 -22 -16 -50q0 -8 5 -15q7 -7 14 -13.5t16 -10.5
q0 -1 3 -2q1 2 3 4zM143 94q22 8 33 21.5t15 34.5q2 7 1 13t-3 12q-3 11 -10 20t-16 17q-1 -2 -2 -4.5t-1 -5.5l-3 -24v-3q-3 -3 -2 -6.5t0 -6.5q0 -4 -1.5 -6.5t-0.5 -6.5q1 -5 -1.5 -11t-1.5 -11q-3 -8 -3.5 -16t-3.5 -17zM119 -57h1v10h-1v-10zM122 -25h-2q0 -2 0.5 -3
t0.5 -3h1v6zM152 210q0 -1 -2 -1q1 -1 1 -3h1v4zM29 141q-1 0 -2 -1q0 -1 0.5 -1.5t0.5 -1.5h1v4zM158 259h2q0 1 -0.5 1.5t-0.5 2.5l-1 -1v-3zM123 -6h2q0 2 -0.5 2.5t-0.5 1.5h-1v-4zM145 159h-1v-4h1v4z" />
    <glyph glyph-name="nine" unicode="9" horiz-adv-x="306" 
d="M235 488q5 -2 9 -3t9 -3q4 -2 7.5 -4.5t8.5 -4.5q4 -2 9 -3.5t7 -6.5q2 -8 -1.5 -17t-5.5 -17q-5 -16 -11.5 -31.5t-11.5 -32.5l-12 -30q-3 -8 -6 -15.5t-6 -15.5l-6 -18t-7 -18q-3 -9 -5.5 -18t-6.5 -18q-5 -9 -7 -18.5t-6 -18.5q-4 -8 -7 -17.5t-5 -18.5
q-5 -14 -10 -28.5t-10 -28.5q-4 -11 -7.5 -21.5t-7.5 -21.5q-2 -9 -5.5 -18t-5.5 -18q-3 -13 -7.5 -25t-7.5 -24q-1 -5 -2.5 -9.5t-6.5 -7.5l-4 2l-2 -2q-1 2 -2 2.5t-2 1.5q-2 1 -6 1q0 2 -0.5 2.5t-0.5 2.5q-2 -4 -3 -5q-1 1 -1 2t-1 3l-3 -6q-4 3 -7.5 5.5t-7.5 4.5v9
t1 9q1 6 1.5 12t2.5 12q1 4 0.5 8t1.5 7q0 8 2 15t3 14q2 11 4.5 21.5t4.5 21.5q2 7 2.5 14t2.5 15q2 9 3.5 18.5t5.5 17.5q0 6 1.5 11.5t3.5 10.5q2 9 4.5 18t5.5 17q2 5 2.5 9.5t2.5 9.5q3 4 4 9t3 10l6 18q2 4 3.5 8t0.5 9q-4 -6 -8.5 -10t-8.5 -9q-8 -8 -17 -14.5
t-17 -13.5q-5 -5 -16.5 -9.5t-17.5 -5.5q-2 0 -4.5 -0.5t-4.5 1.5q-5 3 -9.5 2.5t-8.5 3.5q-11 0 -17.5 6t-10.5 15q-1 0 -1 1v13q-2 11 1 21t6 21q4 14 10 25.5t13 23.5q5 9 10.5 17t13.5 15q6 5 11.5 11t12.5 11q9 5 19 6q5 2 7.5 2t10.5 -2q11 -1 19.5 -6t18.5 -8
q7 -3 12 -8l10 -10q6 5 9.5 11t8.5 13q8 13 13.5 26.5t13.5 26.5q5 7 13 17zM138 405q-14 1 -24 -9q-7 -9 -16 -16q-8 -7 -13 -15.5t-10 -17.5q-8 -14 -14.5 -28t-11.5 -29q-2 -8 -4.5 -15.5t-0.5 -16.5l7 3.5t6 3.5q8 5 14.5 10.5t14.5 11.5q15 12 26 24q8 10 16.5 19.5
t16.5 20.5q5 5 9 11t9 11q-4 11 -11 18z" />
    <glyph glyph-name="slash" unicode="/" horiz-adv-x="336" 
d="M27 -83l-15 3q-1 -1 -2 -1q-2 1 -8 5q1 5 0 9t2 8v3t-2 6t0 6t1.5 5.5t0.5 5.5l6 18q3 8 6 15t7 15q5 12 11 24t11 25q3 7 6.5 13t6.5 14q8 19 16.5 37t18.5 37q9 18 18.5 36t18.5 36l10 22t11 22q8 12 14 24.5t13 25.5l12 22l12 22q5 10 11 20t11 20q6 11 12 20.5
t12 19.5q15 25 33 51q5 8 9.5 15t12.5 13h9q4 -3 10 -7q0 -2 -1.5 -4.5t1.5 -4.5q0 2 0.5 3l1.5 3q2 -5 0.5 -8.5t-3.5 -6.5q-7 -17 -15 -33t-16 -33q-6 -14 -12.5 -26.5t-13.5 -26.5q-6 -14 -12.5 -27.5t-12.5 -27.5q-7 -14 -13.5 -28t-12.5 -28l-8 -16l-8 -16
q-4 -9 -8 -17.5t-8 -17.5l-9.5 -19l-9.5 -19q-6 -15 -13 -29.5t-13 -28.5l-10 -22l-10 -22q-8 -16 -15 -32t-14 -33q-5 -11 -10 -21t-10 -21l-6 -10t-8 -10q-7 -7 -13.5 -14t-12.5 -14z" />
    <glyph glyph-name="question" unicode="?" horiz-adv-x="329" 
d="M89 81q-8 2 -14.5 4t-13.5 4q-4 6 -6 11q2 3 1 6.5t1 8.5q2 3 1 7.5t1 8.5q2 3 1.5 7t1.5 8q2 5 1.5 9.5t1.5 7.5q2 5 1 9.5t3 7.5q-2 4 0 7t3 7q0 4 4 12q3 11 8.5 21.5t12.5 20.5q4 6 8.5 11.5t9.5 11.5q7 9 14.5 16.5l15.5 15.5q5 5 9 9.5t9 9.5q4 5 8.5 10t8.5 10
q5 8 9.5 16t9.5 17t8.5 19t5.5 20q2 8 1.5 16t-1.5 16q-1 6 -4 11.5t-5 10.5q-1 2 -2.5 3t-3.5 3h-11q-11 1 -21 -1.5t-20 -6.5q-13 -4 -25 -9.5t-23 -12.5q-18 -10 -37 -24q-9 -7 -16.5 -14.5l-15.5 -15.5q-4 1 -8 4q-1 -2 -2 -2.5t-2 -2.5l-1 2l-7 -7v-6q-2 1 -3.5 1.5
t-3.5 1.5q-2 11 1.5 21t8.5 19q8 14 18 25t21 20q27 24 59 34q9 1 16 5q5 2 9 1t7 3q8 -1 16 -0.5t16 -0.5q16 -2 29 -9t27 -13l12 -6t12 -7q11 -8 19 -18t11 -23q2 -9 4 -18.5t-3 -19.5q0 -8 -2.5 -16.5t-6.5 -16.5q-5 -11 -10 -21.5t-13 -20.5q-4 -4 -6.5 -8.5t-6.5 -8.5
q-8 -8 -14.5 -15t-14.5 -14q-9 -8 -17.5 -15.5t-17.5 -15.5q-12 -12 -21 -25.5t-17 -28.5q-5 -11 -11.5 -22t-11.5 -22q-5 -9 -8.5 -18.5t-7.5 -18.5q-5 -14 -10 -26zM274 399q4 11 0 18v-18zM273 391h-2q1 -1 1 -4h1v4zM99 20l3 3q-1 -5 -1 -8t-2 -5q-5 -9 -8 -18.5
t-7 -18.5q-2 -5 -5 -8.5t-6 -7.5q-3 1 -5.5 1t-4.5 2q-2 1 -4 1t-5 1q0 1 -3 -2q-10 0 -12 11v6.5t2 7.5q4 8 9 14.5t10 14.5q3 5 7 8.5t7 8.5q8 2 12.5 -3.5t12.5 -7.5z" />
    <glyph glyph-name="four" unicode="4" horiz-adv-x="348" 
d="M54 242q17 11 31 25l28 28q5 8 11 13t11 12q4 6 8.5 10.5t9.5 10.5q7 9 14.5 18.5t14.5 19.5q6 8 11.5 14.5t10.5 14.5q11 15 20.5 30.5t18.5 32.5q3 7 6.5 13t7.5 13h15q7 -7 17 -10.5t19 -10.5q-1 -5 -1 -8.5t-2 -7.5q-2 -6 -3.5 -11.5t-3.5 -11.5q-2 -5 -3.5 -11
t-3.5 -11l-18 -51q-4 -11 -7.5 -21.5t-7.5 -21.5l-8 -22t-7 -22q-3 -9 -6 -18.5t-5 -19.5q-3 -12 -7 -23.5t-6 -23.5q-3 -12 -8 -28q-2 -5 -3 -10.5t-3 -11.5q-2 -8 -4 -15.5t-4 -15.5q-2 -10 -5.5 -19.5t-5.5 -19.5q-1 -7 -3.5 -13t-5.5 -12q-5 -11 -8.5 -22.5t-7.5 -22.5
q-2 -5 -2.5 -9t-2.5 -7q-2 -4 -1.5 -7t-1.5 -6t-3 -7t-3 -8q-4 -2 -5 -2q-3 1 -5.5 1t-5.5 1q0 2 -1 4q-11 1 -24 3q-3 2 -6.5 4t-8.5 4q0 6 -0.5 11.5t1.5 9.5q2 5 1 9.5t3 8.5q-1 9 1.5 17.5t3.5 16.5t2 15t3 15q3 14 5.5 29t7.5 29q2 8 3.5 15t4.5 15q2 8 3 15t5 14
q1 6 3 11.5t4 11.5t4 11.5t3 11.5q2 12 7 23.5t7 24.5q4 3 4.5 7.5t3.5 8.5q-1 1 -2 1q-2 -2 -2.5 -3.5t-2.5 -3.5q-6 -8 -11.5 -15t-11.5 -15q-5 -7 -11.5 -13.5l-12.5 -12.5q-7 -8 -14 -14.5t-15 -11.5q-4 -3 -8 -5t-9 -5h-13q-3 0 -7 2q-6 2 -11 4t-10 1q-9 2 -14 7
l-10 10q-1 3 -3 11q-1 3 0 6t-2 6q4 7 2 14t2 14q2 4 1.5 7.5t0.5 8.5q2 10 4.5 19.5t5.5 20.5q2 7 4.5 14t4.5 15q4 14 8.5 26.5t9.5 25.5q5 14 10 27t12 26q2 3 3.5 6t3.5 5h10q5 -3 10.5 -6t9.5 -8q-2 -4 -2 -5q-1 -11 -4 -21t-5 -20q-2 -11 -5 -20.5t-5 -20.5
q-2 -9 -5 -18.5t-5 -18.5q-2 -7 -4 -13t-2 -12q-1 -6 -2 -12.5t-3 -11.5t-1.5 -9.5t-2.5 -9.5q1 -4 -1 -7.5t-2 -8.5v-17z" />
    <glyph glyph-name="seven" unicode="7" horiz-adv-x="327" 
d="M28 450q2 1 3.5 1.5t5.5 1.5q4 0 10 1.5t12 3.5q9 2 17.5 4.5t17.5 4.5q7 2 13.5 4t13.5 4t13.5 3t12.5 5q8 0 14 3t13 4q7 2 13 4.5t13 4.5q5 2 10.5 2.5t10.5 2.5h2q3 -4 7 -3t8 -1q6 -4 12.5 -7t12.5 -7t12.5 -6t12.5 -4q6 -8 5 -16t-3 -16q-4 -11 -8.5 -22t-8.5 -22
q-6 -16 -13 -31t-12 -31q-5 -8 -8 -17t-7 -18q-5 -12 -10 -23.5t-10 -23.5q-2 -5 -4.5 -10t-4.5 -10q-2 -9 -6 -18l-8 -18t-8 -17.5t-8 -17.5t-7.5 -18.5t-7.5 -18.5q-5 -15 -11.5 -29t-11.5 -28q-2 -5 -3.5 -8.5t-3.5 -8.5q-6 -12 -11.5 -24t-11.5 -24q-2 -4 -4.5 -7
t-4.5 -7q-4 -11 -9.5 -22t-9.5 -23q-1 -5 -3.5 -8.5t-4.5 -8.5q-5 -12 -10 -23.5t-10 -22.5q-2 -6 -4 -9h-11q0 2 -2 4q-4 -2 -7 -3q0 2 -0.5 2.5t-0.5 2.5q-2 -1 -4.5 -1t-5.5 -1q-3 2 -6.5 5t-7.5 5q5 14 7 27.5t8 25.5q0 11 4 20.5t6 19.5q1 7 3.5 13.5t2.5 13.5
q3 2 2.5 4t0.5 4q0 2 1 4.5t1 4.5q0 8 2.5 15.5t4.5 15.5q3 13 8 24l4 12l4 12q4 11 8 21.5t8 21.5q2 6 5 12t5 12q1 5 3 9.5t4 9.5q5 12 10.5 24.5t10.5 24.5q6 12 11 24.5t11 24.5l15 33q2 6 4.5 11.5t4.5 11.5t5 11t5 11q3 9 7 17t9 16q5 13 11 25.5t12 25.5q0 2 2 4
q-5 2 -10 0.5t-10 -3.5q-7 -1 -13.5 -2.5t-13.5 -3.5t-14 -2.5t-15 -3.5q-3 -2 -7 -1.5t-8 -0.5q-6 -2 -12.5 -2t-12.5 -1h-7.5t-6.5 -2h-3q-8 2 -13 2q-3 0 -6 0.5t-5 2.5q-4 2 -8 1t-6 3q-5 -1 -6.5 2t-5.5 6zM280 458h-2q1 -2 1 -4h1v4z" />
    <glyph glyph-name="six" unicode="6" horiz-adv-x="261" 
d="M195 476q5 -2 10 -4.5t10 -5.5v-10q-3 -8 -6 -15t-8 -14q-5 -8 -10 -17l-10 -18q-8 -11 -13.5 -23.5t-12.5 -25.5q-5 -8 -9 -16.5t-8 -17.5q-7 -15 -13.5 -29.5t-11.5 -30.5q-2 -7 -5 -13.5t-5 -14.5q-1 -2 -1 -3.5t-1 -3.5q8 2 15 -1t15 -1q13 -3 25.5 -7t24.5 -10
q11 -5 22 -15q8 -7 10.5 -15.5t4.5 -18.5q1 -5 2 -9t0 -9q-1 -4 -1 -7.5t-1 -6.5q-1 -4 0 -7.5t-2 -5.5q0 -6 -1.5 -12t-3.5 -12q-2 -5 -2.5 -9t-2.5 -9q-5 -9 -9 -18t-9 -17q-5 -11 -11.5 -20.5t-14.5 -17.5l-15 -18q-6 -5 -11.5 -9.5t-11.5 -7.5q-9 -5 -20 -7.5t-22 2.5
q-5 2 -11.5 3t-11.5 3q-7 2 -12 4.5t-10 6.5q-11 7 -17 17.5t-11 21.5q0 8 -3 14.5t-2 13.5q-4 14 -3 27t1 27q0 6 2 16q1 4 0 7.5t2 7.5q1 1 0.5 2.5t-0.5 2.5q1 5 1 10t2 10q1 5 1.5 9t2.5 9q1 6 2 11.5t3 11.5q2 12 5.5 23.5t6.5 23.5q3 9 6.5 18t6.5 19q2 4 4 7t1 8
q9 18 17.5 36t17.5 35q5 8 9.5 15t9.5 15t9 15t9 14q7 8 13 17t14 17q5 5 8.5 10t8.5 10q3 2 6.5 5t6.5 5q5 3 9.5 2.5t8.5 -0.5zM75 -35q4 2 8 3t8 3q14 5 23 13q7 5 13 10.5t11 11.5t9.5 13t8.5 14q3 5 6 10.5t5 10.5q3 11 7.5 22.5t3.5 23.5q3 4 2.5 7.5t0.5 7.5q0 4 1 8
t1 8q0 16 -5 36q-3 23 -25 29q-8 2 -16.5 4t-17.5 1q-4 -1 -8 -0.5t-7 0.5l-7 -3.5t-4 -6.5t-2.5 -9.5t-2.5 -9.5q-2 -9 -5 -17t-2 -17q-5 -9 -6 -18.5t-3 -18.5q-2 -3 -2 -7t-1 -8v-7.5t-2 -7.5q1 -9 -1.5 -18t-1.5 -19q2 -11 0 -20q0 -13 3 -24.5t8 -24.5zM53 38
q1 4 1.5 7.5t-1.5 7.5v-15zM56 67h1v7h-1v-7zM62 104h-2q0 -3 1 -4h1v4zM58 86h2q0 2 -0.5 2.5t-0.5 1.5h-1v-4z" />
    <glyph glyph-name="one" unicode="1" horiz-adv-x="199" 
d="M82 385q1 -6 -4 -7h-2q-2 -1 -2 -5v-2h-3q-2 -2 -5 -3.5t-5 -5.5q-4 -6 -7.5 -12t-8.5 -13q0 -1 -4 -3h-2q-3 0 -2.5 -1.5t0.5 -3.5h-2q-8 -11 -15 -23t-15 -24q-5 0 -3 7q1 2 2 4.5t2 5.5q10 24 24 45l12 22t13 22q5 8 8.5 15l7.5 15q13 24 25 47q3 8 7 15.5t6 15.5
q2 4 4.5 7.5t4.5 7.5q7 -2 12.5 -3.5t10.5 -4.5q4 -3 12 -7q2 -1 6 -1q4 -4 5 -6q5 -4 5 -12v-33q0 -5 -1 -8.5t-1 -8.5q-1 -4 -0.5 -7.5t-2.5 -7.5v-2v-8t-2 -8t-1 -8t-1 -9v-3q0 -10 -2 -15q-2 -4 -1 -8t-2 -7v-2q-1 -8 -1 -15t-2 -14q-1 -5 -0.5 -10.5t-1.5 -10.5
t-1 -10.5t-1 -10.5q-2 -6 -1.5 -12.5t-1.5 -11.5q-2 -7 -1 -13.5t-1 -12.5q-2 -8 -1 -14.5t-1 -14.5t-1.5 -17t-1.5 -17q-2 -11 -1 -20.5t-1 -19.5q-2 -12 -1 -24.5t-1 -24.5q-3 -17 -2 -34.5t-1 -34.5q-2 -14 -1 -27t-1 -26q-2 -2 -4.5 -4t-4.5 -5l-1.5 3t-2.5 3
q-2 -2 -6 -3q-1 2 -2 3.5t-3 3.5l-2 -2q-2 1 -3.5 2t-3.5 -2q-5 2 -4 5.5t0 6.5q-2 -3 -3 -5.5t-3 -6.5q0 3 -0.5 5t-0.5 5l-4 -6h-8q-2 2 -2.5 3.5t-2.5 3.5q-1 -1 -1.5 -1t-1.5 -2q-4 2 -6.5 5.5t-5.5 5.5v100q3 12 1.5 24.5t0.5 24.5q2 9 1.5 18.5t1.5 18.5q1 7 0.5 13.5
t1.5 13.5t1.5 13.5t0.5 12.5q2 6 2 11.5v10.5q1 4 2 7t1 7q-2 9 2 14q-2 7 0.5 13.5t2.5 13.5q-1 3 0 6l2 6q0 2 -0.5 5t2.5 5v4v6.5t2 7.5q2 2 1 6t2 6q-2 5 0 10t2 10q1 5 2 9t2 9t2.5 10t0.5 10q-2 -2 -4 -3t-4 -3h1q0 3 -1 4h-1q0 -3 1 -4zM122 113h-2v-13v-7.5t2 -6.5
v27zM124 152h-1q0 -3 -0.5 -5.5t0.5 -5.5q0 -3 -0.5 -6t1.5 -5v22zM127 184q-4 -11 0 -17v17zM129 214q-1 -5 -1.5 -9t1.5 -9v18zM134 260q-4 -8 0 -13v13zM130 224q1 3 1.5 6.5t-1.5 6.5v-13zM137 291q2 7 0 10v-10zM135 270q2 7 0 11v-11zM159 462q-1 -2 -1.5 -5t1.5 -8
v13zM141 320l-2 -6t2 -6v12zM157 435h-1v-9h1v9zM143 336h-2q0 -6 1 -9h1v9zM120 65h-2v-9h2v9zM155 416h-2v-6h2v6zM151 394h2q0 2 -0.5 3t-0.5 3h-1v-6zM150 384h-2q0 -2 0.5 -3t0.5 -3h1v6zM146 362h1v6h-1v-6zM144 346h2q0 2 -0.5 3t-0.5 3h-1v-6zM76 378h2q0 -5 -2 -5
v5zM71 371h3v-4q-1 0 -1 -0.5t-1 -0.5q0 3 -1 5zM39 329v5h2q0 -4 -2 -5z" />
    <glyph glyph-name="parenleft" unicode="(" horiz-adv-x="166" 
d="M123 -150l-4.5 -1.5t-3.5 -0.5q-6 -3 -12 0.5t-13 1.5q-10 3 -14 9.5t-8 13.5q-8 15 -13.5 30.5t-10.5 31.5q-4 10 -7 23q-2 7 -3.5 12.5t-3.5 11.5q-2 8 -4 15.5t-4 15.5q-2 7 -3.5 14t-3.5 13q-2 4 -1 8t-3 7q2 5 -0.5 9.5t-1.5 9.5q0 4 -1 7l-2 6q0 4 0.5 7t-2.5 6v4
q1 15 -1.5 30.5t-0.5 31.5q1 11 2 22.5t0 23.5q0 3 1 6t2 7q0 3 -0.5 6t1.5 7q2 2 1 6t0 7q2 8 2.5 16.5t4.5 16.5q-2 5 -0.5 9t2.5 9q2 10 4 19.5t4 19.5q2 11 5.5 20.5t5.5 20.5q2 8 5 16t5 16q12 33 27 66l9 18q8 17 17.5 32.5t20.5 31.5q2 3 4.5 5.5t4.5 5.5q2 4 6.5 6
t8.5 4t8 0l8 -4q5 -3 11 -5.5t11 -6.5q-6 -17 -13 -32t-14 -31q-6 -13 -11.5 -26t-10.5 -26q-7 -17 -12.5 -32.5t-10.5 -32.5q-2 -6 -3.5 -12t-3.5 -12l-4 -16t-3 -16q-3 -2 -2.5 -4t0.5 -4l-2 -4t0 -4q0 -5 -2.5 -9.5t-0.5 -9.5q-4 -3 -2.5 -7.5t-2.5 -7.5v-4
q0 -7 -1.5 -13.5t-2.5 -12.5l-2 -12t-1 -13q0 -5 -2 -15q-1 -4 0 -7.5t-2 -7.5v-2q-1 -11 -1.5 -22t-0.5 -22q0 -8 -2 -16.5t-1 -17.5q1 -8 0.5 -17t-0.5 -17q0 -6 1 -12t1 -12q1 -6 0 -12.5t1 -11.5q2 -7 1.5 -13.5t0.5 -13.5q1 -5 1 -9t2 -8q1 -5 0.5 -9t3.5 -8
q0 -7 1 -13t3 -13q3 -11 6 -21t5 -21q2 -8 4.5 -14.5t3.5 -14.5q1 -5 3 -9l4 -8q1 -2 5 -4q3 -3 7 -5zM59 147h-1v-67h1v67zM60 168h2v12q-1 1 -2 1v-13zM66 224h-2q1 -2 1 -8h1v8zM63 195h2q-1 3 -1 9h-1v-9zM71 257h-1v-7h1v7zM69 241h-2v-7h2v7zM83 321h-2q0 -3 1 -4h1v4
zM80 310q0 -1 -2 -1q1 -1 1 -3h1v4zM74 280l2 1q0 2 -1 3h-1v-4zM78 298h-2q0 -1 0.5 -2t0.5 -2h1v4zM73 271h-1v-5h1v5z" />
    <glyph glyph-name="parenright" unicode=")" horiz-adv-x="195" 
d="M43 579l4.5 1.5t3.5 0.5q6 3 12 -0.5t13 -1.5q10 -3 14 -9.5t8 -13.5q8 -15 13.5 -30.5t10.5 -31.5q4 -10 7 -23q2 -7 3.5 -12.5t3.5 -11.5q2 -8 4 -15.5t4 -15.5q2 -7 3.5 -14t3.5 -13q2 -4 1 -8t3 -7q-2 -5 0.5 -9.5t1.5 -9.5q0 -4 1 -7l2 -6q0 -4 -0.5 -7t2.5 -6v-4
q-1 -15 1.5 -30.5t0.5 -31.5q-1 -11 -2 -22.5t0 -23.5q0 -3 -1 -6t-2 -7q0 -3 0.5 -6t-1.5 -7q-2 -2 -1 -6t0 -7q-2 -8 -2.5 -16.5t-4.5 -16.5q2 -5 0.5 -9t-2.5 -9q-2 -10 -4 -19.5t-4 -19.5q-2 -11 -5.5 -20.5t-5.5 -20.5q-2 -8 -5 -16t-5 -16q-12 -33 -27 -66l-9 -18
q-8 -17 -17.5 -32.5t-20.5 -31.5q-2 -3 -4.5 -5.5t-4.5 -5.5q-2 -4 -6.5 -6t-8.5 -4t-8 0l-8 4q-5 3 -11 5.5t-11 6.5q6 17 13 32t14 31q6 13 11.5 26t10.5 26q7 17 12.5 32.5t10.5 32.5q2 6 3.5 12t3.5 12l4 16t3 16q3 2 2.5 4t-0.5 4l2 4t0 4q0 5 2.5 9.5t0.5 9.5
q4 3 2.5 7.5t2.5 7.5v4q0 7 1.5 13.5t2.5 12.5l2 12t1 13q0 5 2 15q1 4 0 7.5t2 7.5v2q1 11 1.5 22t0.5 22q0 8 2 16.5t1 17.5q-1 8 -0.5 17t0.5 17q0 6 -1 12t-1 12q-1 6 0 12.5t-1 11.5q-2 7 -1.5 13.5t-0.5 13.5q-1 5 -1 9t-2 8q-1 5 -0.5 9t-3.5 8q0 7 -1 13t-3 13
q-3 11 -6 21t-5 21q-2 8 -4.5 14.5t-3.5 14.5q-1 5 -3 9l-4 8q-1 2 -5 4q-3 3 -7 5zM107 282h1v67h-1v-67zM106 261h-2v-12q1 -1 2 -1v13zM100 205h2q-1 2 -1 8h-1v-8zM103 234h-2q1 -3 1 -9h1v9zM95 172h1v7h-1v-7zM97 188h2v7h-2v-7zM83 108h2q0 3 -1 4h-1v-4zM86 119
q0 1 2 1q-1 1 -1 3h-1v-4zM92 149l-2 -1q0 -2 1 -3h1v4zM88 131h2q0 1 -0.5 2t-0.5 2h-1v-4zM93 158h1v5h-1v-5z" />
    <glyph glyph-name="exclam" unicode="!" horiz-adv-x="146" 
d="M42 78q-1 1 -1.5 1t-1.5 1q-1 -5 -1.5 -6t-5.5 -3l-3 -9q-1 -1 -2 -1q-1 2 -1.5 4t-1.5 4q-1 0 -1 -0.5t-1 -0.5v11q0 10 2 15q2 4 1 7.5t1 7.5q2 5 1.5 9.5t1.5 9.5q2 7 1.5 13.5t1.5 12.5q2 7 1.5 13t0.5 13q0 3 1 6t1 7v6t2 7q2 2 0.5 6t0.5 7q2 5 1 9.5t1 8.5
q2 5 1.5 9t0.5 8q2 11 4 21t3 21q2 3 1.5 7t1.5 7q1 3 0.5 6.5t1.5 6.5q2 7 3 13.5t3 13.5q2 3 2 6.5t1 7.5q2 11 4 20.5t4 20.5q2 10 4.5 19t3.5 18q1 8 3.5 15t3.5 15q4 2 3 5.5t1 6.5q2 2 2 5.5t1 6.5q1 4 5 12l6 15q7 1 12 -2q7 -6 19 -11q0 -8 0.5 -16.5t-0.5 -16.5
q-2 -9 -3 -18t-4 -18q-1 -2 -0.5 -5t0.5 -5t-1 -4t-1 -4q0 -7 -3 -13q-1 -3 -0.5 -6t-0.5 -6q-2 -4 -2 -8t-1 -8q-2 -8 -2.5 -15.5t-2.5 -14.5q-2 -5 -2 -9.5t-2 -9.5t-1.5 -10t-1.5 -10q-4 -11 -5 -21t-4 -21q-2 -7 -2.5 -13.5t-2.5 -13.5q-3 -13 -6 -25.5t-7 -25.5
q-3 -8 -5 -16.5t-5 -16.5l-4 -12t-4 -13q-3 -10 -5.5 -19t-5.5 -19q-2 -8 -3 -13q-2 4 -2 6q-2 -4 -2.5 -7t-2.5 -5zM50 104h2q0 2 -1 4q0 -1 -1 -1v-3zM48 94h1v5h-1v-5zM46 6q-1 -7 -1.5 -13t-1.5 -13q-2 -4 -5 -7l-4 -4l-4 -4q-7 2 -8 2q-3 0 -4.5 2t-4.5 0q-2 -1 -4.5 0
t-4.5 1q0 3 -1 4q-3 5 -1 10.5t4 10.5q4 6 8 11.5t8 11.5zM41 0h2q0 2 -0.5 2.5t-0.5 1.5h-1v-4zM47 83v-7h-1q0 2 -0.5 3t-0.5 3q1 0 1 0.5t1 0.5z" />
    <glyph glyph-name="bracketleft" unicode="[" horiz-adv-x="128" 
d="M34 528q-2 1 -4 1.5t-5 2.5q-1 1 -3 7l1 2l4 4l4 4t4.5 2.5t4.5 2.5t3.5 4.5t3.5 4.5q7 -5 13.5 -3t12.5 4q2 0 3.5 0.5t3.5 0.5q9 0 18 2.5t18 2.5q4 4 8 2.5t8 0.5t8 1.5t8 -0.5q8 0 15 -4q3 -2 7 -3.5t8 -3.5q2 -1 2.5 -1.5t2.5 -1.5q-4 -6 -9.5 -6.5t-10.5 -2.5
q-13 -3 -25.5 -6t-26.5 -8t-35 -10v-9q0 -5 1 -10.5t-1 -10.5t-2 -10v-10q-1 -5 0 -10t-1 -10q-2 -8 -1 -15t-1 -15q-1 -6 -1 -12t-1 -11q-2 -7 -1.5 -13.5t-1.5 -12.5t-1 -12t-1 -12q-2 -8 -1 -15t-1 -14q-2 -6 -1.5 -12.5t-1.5 -11.5q-2 -8 -1 -14.5t-1 -13.5
q-2 -8 -1 -15.5t-1 -15.5q-2 -10 -1.5 -19t-1.5 -18q-2 -11 -1 -22.5t-1 -22.5q-3 -19 -1.5 -37.5t-0.5 -36.5q-2 -15 -2 -29.5v-29.5q-1 -14 -0.5 -29t0.5 -29v-60q0 -6 1.5 -12t3.5 -11q0 -3 5 -5q10 -2 19.5 -3.5t19.5 -3.5q9 -2 17 -7t17 -8q-2 -6 -8 -4q-5 2 -10.5 2
h-10.5q-5 1 -10.5 0.5t-10.5 1.5t-10 2.5t-10 2.5q-5 1 -9 2l-8 2q-10 2 -16 7.5t-12 12.5q-2 2 -2 4.5t-1 5.5q-2 5 -3 10.5t-2 10.5q-3 26 -2 52.5t0 52.5q-3 11 -2.5 22.5t0.5 23.5q-1 11 -0.5 23t0.5 24q-1 11 1 22t1 22t-1.5 22t1.5 22t1.5 21t1.5 21q2 10 1 19.5
t1 19.5q2 8 1 15.5t1 15.5q2 7 2 13.5v13.5q1 4 2 7.5t1 7.5q-1 4 -1 8t3 7v2q1 8 1 16t1 16q1 4 1.5 7t1.5 7q0 4 -0.5 7.5t2.5 6.5v3q1 8 1 15.5t2 14.5t1.5 13.5t1.5 13.5q2 8 2.5 16t0.5 16zM39 106h2q0 4 -1 6h-1v-6zM51 308h2q0 1 -0.5 2t-0.5 2h-1v-4zM45 218h-1v-5
h1v5zM42 172q1 1 2 1q-1 1 -1 3h-1v-4zM67 494h1v4h-1v-4z" />
    <glyph glyph-name="bracketright" unicode="]" horiz-adv-x="169" 
d="M82 -99q2 -1 4 -1.5t5 -2.5q1 -1 3 -7l-1 -2l-4 -4l-4 -4t-4.5 -2.5t-4.5 -2.5t-3.5 -4.5t-3.5 -4.5q-7 5 -13.5 3t-12.5 -4q-2 0 -3.5 -0.5t-3.5 -0.5q-9 0 -18 -2.5t-18 -2.5q-4 -4 -8 -2.5t-8 -0.5t-8 -1.5t-8 0.5q-8 0 -15 4q-3 2 -7 3.5t-8 3.5q-2 1 -2.5 1.5
t-2.5 1.5q4 6 9.5 6.5t10.5 2.5q13 3 25.5 6t26.5 8t35 10v9q0 5 -1 10.5t1 10.5t2 10v10q1 5 0 10t1 10q2 8 1 15t1 15q1 6 1 12t1 11q2 7 1.5 13.5t1.5 12.5t1 12t1 12q2 8 1 15t1 14q2 6 1.5 12.5t1.5 11.5q2 8 1 14.5t1 13.5q2 8 1 15.5t1 15.5q2 10 1.5 19t1.5 18
q2 11 1 22.5t1 22.5q3 19 1.5 37.5t0.5 36.5q2 15 2 29.5v29.5q1 14 0.5 29t-0.5 29v60q0 6 -1.5 12t-3.5 11q0 2 -5 5q-10 2 -19.5 3.5t-19.5 3.5q-9 2 -17 7t-17 8q2 6 8 4q5 -2 10.5 -2h10.5q5 -1 10.5 -0.5t10.5 -1.5t10 -2.5t10 -2.5q5 -1 9 -2l8 -2q10 -2 16 -7.5
t12 -12.5q2 -2 2 -4.5t1 -5.5q2 -5 3 -10.5t2 -10.5q3 -26 2 -52.5t0 -52.5q3 -11 2.5 -22.5t-0.5 -23.5q1 -11 0.5 -23t-0.5 -24q1 -11 -1 -22t-1 -22t1.5 -22t-1.5 -22t-1.5 -21t-1.5 -21q-2 -10 -1 -19.5t-1 -19.5q-2 -8 -1 -15.5t-1 -15.5q-2 -7 -2 -13.5v-13.5
q-1 -4 -2 -7.5t-1 -7.5q1 -4 1 -8t-3 -7v-2q-1 -8 -1 -16t-1 -16q-1 -4 -1.5 -7t-1.5 -7q0 -4 0.5 -7.5t-2.5 -6.5v-3q-1 -8 -1 -15.5t-2 -14.5t-1.5 -13.5t-1.5 -13.5q-2 -8 -2.5 -16t-0.5 -16zM77 323h-2q0 -4 1 -6h1v6zM65 121h-2q0 -1 0.5 -2t0.5 -2h1v4zM71 211h1v5h-1
v-5zM74 257q-1 -1 -2 -1q1 -1 1 -3h1v4zM49 -65h-1v-4h1v4z" />
    <glyph glyph-name="bar" unicode="|" horiz-adv-x="128" 
d="M17 -177l-3 4q-2 2 -2 4.5t-1 5.5q-2 5 -3 10.5t-2 10.5q-2 13 -2 35.5v47.5v47.5v35.5q-3 11 -2.5 22.5t0.5 23.5q-1 11 -0.5 23t0.5 24q-1 11 1 22t1 22t-1.5 22t1.5 22t1.5 21t1.5 21q2 10 1 19.5t1 19.5q2 8 1 15.5t1 15.5q2 7 2 13.5v13.5q1 4 2 7.5t1 7.5
q-1 4 -1 8t3 7v2l2 32l3 14q0 4 -0.5 7.5t2.5 6.5v3q1 8 1 15.5t2 14.5t1.5 13.5t1.5 13.5t2.5 14.5t0.5 15.5l42 -2v-6q0 -5 1 -10.5t-1 -10.5t-2 -10v-10q-1 -5 0 -10t-1 -10q-2 -8 -1 -15t-1 -15l-2 -23q-2 -7 -1.5 -13.5t-1.5 -12.5t-1 -12t-1 -12q-2 -8 -1 -15t-1 -14
q-2 -6 -1.5 -12.5t-1.5 -11.5q-2 -8 -1 -14.5t-1 -13.5q-2 -8 -1 -15.5t-1 -15.5q-2 -10 -1.5 -19t-1.5 -18q-2 -11 -1 -22.5t-1 -22.5q-3 -19 -1.5 -37.5t-0.5 -36.5q-2 -15 -2 -29.5v-29.5v-24v-35.5v-35.5v-24v-60v-3zM39 106h2q0 4 -1 6h-1v-6zM51 308h2q0 1 -0.5 2
t-0.5 2h-1v-4zM45 218h-1v-5h1v5zM42 172q1 1 2 1q-1 1 -1 3h-1v-4zM67 494h1v4h-1v-4z" />
    <glyph glyph-name="asterisk" unicode="*" horiz-adv-x="201" 
d="M101 409q8 -3 15.5 -6t14.5 -7q8 -4 15.5 -7t14.5 -9q-7 -3 -13 -1.5t-11 3.5q-6 1 -11.5 2.5t-11.5 3.5q-5 2 -10.5 3.5t-11.5 3.5q0 -7 2.5 -12.5t4.5 -12.5h-4q-5 2 -9 2h-8q-3 -4 -6 -7t-5 -6q-5 -2 -9 0l-8 4q-2 -2 -3 -2q-5 1 -7 4t-3 6q2 11 6 20l8 18
q-13 5 -25.5 10.5t-23.5 12.5q-1 1 -0.5 1.5t-0.5 2.5q12 1 24 -3q4 -2 8.5 -2.5t9.5 -2.5q-1 9 -4 17t-3 16q7 2 14 -3q7 -4 13 -8q4 -5 9 -12q10 13 19 25t19 25q4 -2 7 -4.5t7 -3.5q4 -2 3 -5t2 -5q1 0 -1 -7q-14 -26 -27 -54z" />
    <glyph glyph-name="cedilla" unicode="&#xb8;" horiz-adv-x="116" 
d="M67 -62q9 -4 17.5 -7.5t13.5 -11.5q1 -4 1.5 -7.5t0.5 -8.5q1 -4 1 -8t1 -9q1 2 1 4.5t1 6.5q2 -8 0.5 -14.5t-4.5 -11.5q-5 -7 -10 -11t-16 -6q-4 -1 -7 -2.5t-7 1.5q-2 2 -5.5 1.5t-7.5 1.5t-9.5 2.5t-10.5 2.5q-15 5 -24 19q-1 2 -1 4t-1 4q1 1 3 5q18 -5 33 -18
q8 -1 16 2t15 8q6 4 9 10t5 12q2 5 -0.5 9t-4.5 9q-19 -1 -38 8l-3 6q2 7 4.5 13.5t4.5 12.5q7 21 18 43q6 6 9 10q8 -6 12 -10q4 -9 4.5 -12t-2.5 -10q-2 -7 -5 -13t-6 -13q-2 -5 -4 -10.5t-4 -11.5z" />
    <glyph glyph-name="tilde" unicode="&#x2dc;" horiz-adv-x="176" 
d="M105 415q4 4 7.5 8t5.5 9q1 3 7 7q5 5 13 10q7 -3 14 -6.5t14 -6.5v-20l-2 -2q-4 -11 -11.5 -15t-18.5 -5q-14 -1 -26 2.5t-25 8.5q-5 1 -15 5q-4 -4 -10 -5q-2 0 -4 -1.5t-4 -3.5l-12 -12q-3 -3 -9 -7q-7 3 -14 3.5t-13 5.5q-2 6 1 9.5t6 7.5q2 4 5 6.5t6 6.5
q8 11 24 11q10 1 19 -2t17 -8q6 -3 11.5 -5t13.5 -1z" />
    <glyph glyph-name="dieresis" unicode="&#xa8;" horiz-adv-x="163" 
d="M55 412l-3 -1.5l-3 -1.5q-1 0 -2.5 2t-3.5 -3q-2 2 -2.5 4t-2.5 4q0 -2 -2 -2t-2 2q-2 -2 -3 -2l-2 4q-1 0 -5 -2q0 2 -2 4q-2 -2 -4 -5q-2 2 -3 3.5t-2 3.5l-4 -2q-2 2 -3.5 5t-4.5 7q4 8 9.5 17t17.5 15q4 -2 8.5 -3.5t9.5 -4.5q4 -3 9 -4t10 -5q1 -5 -3 -15
q-2 -5 -3.5 -10t-3.5 -10zM143 436q-3 -8 -4 -16t-6 -15q-5 -2 -9 -0.5t-8 3.5q-5 2 -9 2t-8 1q-1 2 -2 3.5t-2 3.5q3 9 9.5 15t12.5 12q8 2 13 -3t13 -6z" />
    <glyph glyph-name="ring" unicode="&#x2da;" horiz-adv-x="147" 
d="M44 496q13 3 22.5 -2.5t20.5 -10.5q-1 -2 -1 -2.5t-2 -2.5q2 -1 2.5 -2.5t2.5 -1.5q6 -2 11 -5.5t10 -7.5q5 -3 8 -8t6 -9v-5q2 -11 -2 -19.5t-11 -16.5q-5 -7 -11 -12.5t-14 -9.5q-5 -2 -9 -3t-8 -3q-10 -2 -18 3q-5 2 -9.5 3t-9.5 3q-7 2 -10.5 5.5t-8.5 7.5
q-6 6 -10 19q-2 6 -1.5 12t-0.5 12q0 2 1 5t2 5q5 10 10.5 19t14.5 17q4 4 7.5 6t7.5 4zM62 469q-5 -7 -9 -13t-6 -14q-2 -5 -3.5 -9t-2.5 -9q-1 -8 -0.5 -15.5t6.5 -14.5q14 5 18 8t12 14q12 17 10 37q-3 7 -6 12q-7 6 -19 4z" />
    <glyph glyph-name="acute" unicode="&#xb4;" horiz-adv-x="134" 
d="M28 370q-7 1 -13.5 2t-12.5 2q-2 6 1 9t5 6q6 9 14 16.5t16 15.5q5 5 8.5 9.5t8.5 9.5l9 9t9 8q5 3 10 5.5t10 5.5q9 2 15.5 -1.5t13.5 -8.5q-1 -4 -7 -12q-17 -17 -41 -33q-3 -2 -5.5 -5t-4.5 -5z" />
    <glyph glyph-name="grave" unicode="`" horiz-adv-x="169" 
d="M93 370l-36 33q-2 2 -4.5 5t-5.5 5q-24 16 -41 33q-6 8 -7 12q7 5 13.5 8.5t15.5 1.5q5 -3 10 -5.5t10 -5.5q5 -4 9 -8l9 -9t8.5 -9.5t8.5 -9.5q8 -8 16 -15.5t14 -16.5q2 -3 5 -6t1 -9q-6 -1 -12.5 -2t-13.5 -2z" />
    <glyph glyph-name="caron" unicode="&#x2c7;" horiz-adv-x="140" 
d="M121 478q-19 -22 -37 -44l-36 -44q-5 2 -8.5 3t-7.5 1q-7 1 -13 5t-8 10q-2 8 -5 15.5t-2 15.5q-4 8 -2.5 16.5t-0.5 16.5q4 6 11 2q8 -5 14 -10.5t8 -15.5q2 -6 4.5 -12t4.5 -12q8 8 17 15.5t17 15.5q6 8 12.5 14t12.5 13q1 2 1.5 2.5t1.5 2.5q5 -3 8.5 -5.5t7.5 -4.5z
" />
    <glyph glyph-name="circumflex" unicode="&#x2c6;" horiz-adv-x="147" 
d="M-1 400q19 22 37 44l36 44q5 -2 8.5 -3t7.5 -1q7 -1 13 -5t8 -10q2 -8 5 -15.5t2 -15.5q4 -8 2.5 -16.5t0.5 -16.5q-4 -6 -11 -2q-8 5 -14 10.5t-8 15.5q-2 6 -4.5 12t-4.5 12q-8 -8 -17 -15.5t-17 -15.5q-6 -8 -12.5 -14t-12.5 -13q-1 -2 -1.5 -2.5t-1.5 -2.5
q-5 3 -8.5 5.5t-7.5 4.5z" />
    <glyph glyph-name="AE" unicode="&#xc6;" horiz-adv-x="502" 
d="M68 41q0 -2 1 -3.5t-2 -2.5q-1 1 -1 4h-2v-4q-2 -1 -2 -5l-5.5 -5.5t-3.5 -6.5q-2 -4 -4 -7.5t-3 -7.5q-1 -6 -4 -11t-5 -10q0 -5 -3 -11q-5 -12 -15 -19q0 1 -1 2l-2 -4h-16l3 18q2 8 5 15t6 15t5.5 14.5t5.5 14.5q2 4 4 7.5t3 8.5t3 8t4 8q6 16 14 31t13 32q4 13 8 25
t9 25l8 22l8 22q6 11 9 22q2 5 4 9.5t4 9.5q7 14 13 28.5t13 28.5q9 20 19 40l20 40q7 15 20 30q5 8 11 15t11 15q-3 2 -5.5 2.5t-4.5 2.5q3 5 7 7.5t9 4.5t9 5t8 8h9q7 -1 16 2t18.5 5t18.5 4t18.5 4t18.5 5q4 1 7.5 1.5t8.5 1.5h6t7 2q2 1 6 0t6 2q5 -1 10 0.5t10 2.5
q14 0 23 4h4q10 0 15 2q4 2 7.5 1.5t7.5 0.5q7 2 14 1.5t14 -0.5q5 -3 9.5 -5.5t10.5 -5.5q-11 -2 -20 -4l-18 -4q-11 -3 -21.5 -5t-21.5 -5q-6 -2 -12 -3t-12 -3l-24 -6q-4 -1 -7.5 -1t-7.5 -2q-4 -1 -8 -1t-8 -2t-8 -1.5t-8 -1.5t-8.5 -1.5t-7.5 -1.5q-4 -2 -8 -1.5
t-7 -1.5q-4 -2 -7.5 -1t-6.5 -1l-3 -3q1 -1 1 -2q0 -6 2 -11.5t1 -11.5v-27q-1 -7 -0.5 -13.5t-1.5 -13.5q-2 -6 -0.5 -13t-0.5 -14q-1 -7 -0.5 -13.5t-1.5 -13.5q-1 -5 -0.5 -10t-1.5 -10t-1.5 -10.5t-0.5 -10.5q-2 -6 -2 -12t-1 -12q7 2 12.5 3.5t11.5 3.5q7 2 14 3t14 4
q4 2 8 2t8 2q6 2 12 2.5t12 2.5q5 2 11 3t11 3q4 2 8.5 2t8.5 2q5 2 9 2.5t8 2.5t8 2.5t9 2.5q2 2 7 -1q4 -2 7.5 -4t7.5 -4q5 -3 8 -2q1 -5 -5 -7q-5 -2 -10.5 -4.5t-11.5 -4.5q-5 -2 -9 -3.5t-9 -3.5q-5 -1 -8.5 -2.5t-8.5 -3.5q-14 -4 -26 -9t-26 -8l-30 -9
q-6 -2 -12.5 -3.5t-13.5 -3.5t-13.5 -3.5t-14.5 -3.5l-1 -1q0 -1 -1 -1q-2 -8 -3 -15.5t-3 -14.5q-1 -4 -1 -7.5t-1 -7.5l-2 -12t-2 -13q-2 -6 -3 -12l-2 -12q-1 -8 -2.5 -14.5t-2.5 -14.5l-2 -10l-2 -10q-2 -5 -2.5 -9.5t-2.5 -9.5q-1 -3 -1 -6.5t-1 -7.5q-2 -4 -1.5 -9
t-1.5 -9q-3 -4 -1.5 -8.5t-2.5 -7.5q-1 -10 -2.5 -19.5t0.5 -20.5l10 4t10 3q5 0 9 1.5t9 3.5q8 2 15 4t15 4q11 2 21.5 6t21.5 7q4 3 8.5 3.5t9.5 2.5t9.5 2.5t8.5 2.5q5 3 9.5 3.5t9.5 2.5q3 3 8 -1q5 -3 11 -5.5t13 -6.5l-5 -5q-5 0 -9.5 -2.5t-9.5 -4.5l-18 -6
q-6 -2 -11.5 -4t-11.5 -4q-12 -5 -23.5 -10t-23.5 -9q-11 -4 -22 -7.5t-22 -5.5q-7 -1 -13.5 -2t-13.5 -2q-4 -1 -7.5 0t-7.5 2q-6 2 -12.5 3.5t-12.5 3.5q-9 3 -15.5 10.5t-7.5 18.5q-1 9 -3 18.5t0 19.5t1.5 19.5t1.5 19.5q1 6 1 11.5t1 11.5q0 3 1 6t1 7v6t2 7q2 2 0.5 6
t-0.5 7q2 4 2 7t1 6q0 3 -0.5 6t1.5 6t1 6.5t0 6.5q2 5 1.5 10t0.5 10q2 5 2 10v10l3 3l-3 3q-5 -4 -11 -2t-11 -3q-6 1 -11.5 1.5t-11.5 1.5q0 1 -3 3q11 11 25 15.5t27 11.5q3 5 2.5 10.5t1.5 10.5q1 5 0.5 10t1.5 10t1.5 9t0.5 9q0 4 1.5 7t0.5 6q0 4 2 12q2 3 1 7t-1 9
q-2 -3 -3 -5l-2 -4q-9 -16 -18 -32.5t-18 -33.5q-12 -20 -20 -38q-6 -15 -13.5 -29.5t-14.5 -30.5l-24 -51q-6 -14 -12 -29t-13 -29q-2 -4 -3.5 -8t-5.5 -8q0 1 1 1q0 1 -0.5 2t-0.5 2h-1q0 -3 1 -5zM280 408q2 14 2 27.5t-2 19.5v-47zM279 387h-1v-16h1v16zM277 357
q-1 -2 -1.5 -5t1.5 -8v13zM275 332h-2v-8h2v8zM271 303h1v9h-1v-9zM269 282l1 1v8h-1v-9zM224 0h-1v-9h1v9zM268 271h-2v-7h2v7zM256 188h-2q1 -2 1 -6h1v6zM259 211l2 1v6q-1 0 -2 -1v-6zM245 122h-1v-5h1v5zM248 143h2q0 1 -0.5 1.5t-0.5 2.5h-1v-4zM252 168h2v4h-2v-4z
M257 198h2q0 1 -0.5 1.5t-0.5 2.5q-1 0 -1 -1v-3z" />
    <glyph glyph-name="OE" unicode="&#x152;" horiz-adv-x="421" 
d="M229 497q0 -2 0.5 -2.5t0.5 -1.5q3 1 5.5 1t4.5 1q12 5 24 8.5t25 5.5l16 4l16 4q11 2 21 5t21 3q7 -6 22 -11q-11 -6 -21 -9t-19 -8q-10 -4 -19 -8t-19 -8q-11 -3 -21 -5.5t-20 -5.5q-11 -3 -21 -5l-20 -4q1 -16 -1.5 -31t-1.5 -30q-3 -11 -1.5 -21.5t-0.5 -21.5
q-2 -10 -2 -19v-18t-1.5 -17t-1.5 -17q1 -8 1 -16.5v-16.5q13 3 25 6.5t25 6.5q12 3 24.5 6.5t24.5 6.5q13 3 25 6.5t24 6.5q6 1 12 2.5t13 3.5q5 -2 10.5 -6t12.5 -6q-4 -6 -10 -8.5t-12 -4.5q-19 -6 -37 -12l-36 -12q-11 -3 -21 -7t-21 -7q-11 -4 -22.5 -6.5t-23.5 -5.5
q-4 -1 -7.5 -2t-7.5 -1q-3 -11 -2.5 -21.5t-1.5 -21.5q-2 -10 -1 -19.5t-1 -19.5q-2 -9 -1.5 -18.5t-0.5 -18.5v-37q1 -5 1.5 -10t1.5 -10q0 -5 1 -10.5t2 -10.5t2.5 -9.5t3.5 -9.5q2 -4 4.5 -7.5t5.5 -7.5h39q7 4 13.5 3t13.5 1q5 2 11.5 1.5t11.5 1.5q7 2 14 2.5t14 3.5
q2 1 6 -1q6 -3 11.5 -5.5t10.5 -5.5q-7 -5 -15 -6.5t-16 -3.5q-9 -3 -18 -4.5t-18 -4.5t-19 -3q-5 1 -8 -0.5t-7 -1.5q-9 0 -17.5 1.5t-17.5 3.5q-4 1 -8 1.5t-8 2.5q-5 2 -9 1.5t-9 1.5q-20 3 -36 10q-8 3 -17.5 6t-17.5 6q-14 5 -27 11.5t-24 15.5q-8 6 -15.5 12.5
t-13.5 14.5q-8 10 -14.5 19.5t-11.5 20.5t-9 21t-8 21q-2 5 -2 9t-2 9t-3 9.5t0 9.5q-3 8 -2 17t0 18v36q0 3 1 6t1 5q1 3 0.5 6t1.5 6q2 4 2 8t1 8q2 8 4 16.5t4 16.5t4.5 15.5t5.5 15.5q1 1 0.5 1.5t0.5 1.5q4 8 7.5 15.5t7.5 15.5q8 14 15 26.5t16 24.5q8 10 16.5 19.5
t17.5 17.5q10 8 20.5 16t22.5 13q7 4 13.5 6.5t14.5 2.5q3 0 5.5 1t4.5 1q8 0 17.5 -2t18.5 -7zM190 471q-10 -8 -19 -15.5t-17 -15.5q-5 -5 -9 -10t-8 -11q-2 -3 -5.5 -6t-5.5 -6q-5 -7 -9 -13.5t-8 -13.5q-5 -8 -9 -15t-8 -15q-4 -6 -6.5 -12.5t-5.5 -12.5q-3 -7 -5.5 -14
t-5.5 -15q-3 -7 -4.5 -13.5t-3.5 -13.5t-3 -13t-3 -12q-1 -5 -1 -9t-2 -9q-1 -5 -1 -14q0 -4 -2 -7t-1 -8q2 -11 0 -20q-1 -9 1 -18t2 -18v-2q3 -7 3.5 -13.5t2.5 -12.5q3 -8 5 -15t5 -14q6 -12 12.5 -23.5t15.5 -21.5q8 -9 15.5 -15t18.5 -12q14 -8 27.5 -12.5t27.5 -10.5
q4 2 7.5 -1t7.5 -1q-4 5 -7.5 9t-5.5 9q-7 13 -9 23q-2 5 -2 9t-2 9t-1.5 9.5t-1.5 9.5q-2 4 -1 8t1 8q-1 5 -1.5 8.5t-0.5 7.5q-1 25 -1 49v49q0 4 1 5q3 5 2 9t-3 9q-3 1 -6 0t-5 4q4 3 7 5.5t7 5.5v14.5t2 14.5q2 11 1 22t1 22q2 8 1 16.5t1 16.5q2 7 1.5 14t1.5 14
q1 6 0.5 12t1.5 12q2 5 1 11t1 12q2 5 1.5 11.5t0.5 11.5q2 8 2.5 16.5t2.5 17.5zM41 204h-1v-9h1v9zM209 305q1 0 2 1q0 1 -0.5 1.5t-0.5 1.5h-1v-4zM208 261h-2q1 -1 1 -4h1v4z" />
    <glyph glyph-name="ampersand" unicode="&#x26;" horiz-adv-x="363" 
d="M263 236q2 4 3 7l12 -3q2 -2 5 -3.5t6 -3.5q2 -2 4.5 -2.5t4.5 -2.5q8 -3 11 -9t5 -14q2 -6 0.5 -12.5t-3.5 -13.5q-5 -20 -13.5 -37.5t-17.5 -35.5q-14 -25 -33 -52q-6 -9 -13.5 -16.5l-15.5 -15.5q-9 -8 -19 -14.5t-21 -13.5q-3 -2 -11 -4q-1 -1 -1.5 -2t-2.5 -3v-18
q0 -4 -1 -7.5t-1 -8.5q-1 -5 0 -9t-1 -8q-2 -5 -1.5 -9t-0.5 -8q0 -5 -2 -13v-6.5t-2 -6.5q-1 -2 -0.5 -5.5t0.5 -5.5l-5 -5q-4 2 -7.5 3t-7.5 3l-2 -2l-2 2l-2 -2q-3 2 -6.5 3.5t-6.5 3.5q1 7 0 13t2 13q-1 9 2.5 17.5t2.5 17.5q3 5 2 9.5t1 9.5q2 4 1 8.5t1 9.5
q-11 -1 -20.5 2.5t-19.5 6.5q-6 2 -12.5 2.5t-11.5 4.5q-6 0 -10.5 4.5t-10.5 5.5q-7 8 -14.5 14.5t-12.5 16.5q-1 3 -2.5 5.5t-2.5 5.5q-2 2 -2 4.5t-2 4.5q-2 3 -1 6.5t-2 5.5q0 8 -2.5 16.5t-0.5 16.5q2 11 3.5 21.5t6.5 21.5q6 16 13.5 30.5t18.5 28.5q8 11 18 20t19 19
q5 5 10 8l10 6q4 4 7 6q-6 5 -11.5 9t-10.5 9q-7 8 -11 16t-4 19q0 30 21 51q7 7 14 13.5t16 11.5q8 5 16 7.5t16 6.5q2 2 5.5 2t6.5 1h15l2.5 5t1.5 6q1 4 1 7.5t2 7.5q1 5 1 9t1 9q2 5 2.5 10.5t2.5 10.5q2 7 3.5 13.5t3.5 14.5q1 2 3.5 5t4.5 6q5 -3 10.5 -6t10.5 -5
q1 -8 -2 -16q-1 -5 -0.5 -8.5t-1.5 -8.5q-2 -3 -1 -7t-1 -8q-2 -5 -2 -10t-1 -10q0 -3 -2 -9q-1 -2 -0.5 -4t-1.5 -4q-1 -3 -0.5 -6t0.5 -7l18 -9q5 -2 9 -4.5t8 -5.5q12 -8 14 -19q0 -2 -0.5 -4t0.5 -4t2 -5t1 -6q2 -14 -10 -28q-3 -4 -12 -11q-8 2 -13 3q-1 1 -3 5
q4 2 4.5 6t2.5 8q4 7 5 13.5t1 14.5q1 5 -1 10l-4 10q-2 4 -6.5 7t-10.5 3q-2 0 -5 3q-6 -2 -4.5 -7t-3.5 -7q-4 -2 -11 2q-7 3 -14 0q-9 -3 -16 -8.5t-12 -12.5q-6 -8 -11 -16t-7 -18q-2 -5 -2.5 -9.5t-1.5 -9.5v-18l2 -4q4 -10 17 -17q15 -6 30 -15q-4 -6 -8 -7
q-14 -8 -25.5 -16.5t-21.5 -19.5l-15 -15t-13 -17q-18 -27 -26 -58q-4 -15 -3.5 -30.5t-0.5 -30.5q3 -10 5.5 -20t9.5 -18q1 -1 1 -2t1 -2q10 -1 18.5 1.5t17.5 6.5q10 4 19 9.5t17 12.5q13 10 23.5 21t21.5 22q9 9 17 22q3 5 6.5 9t5.5 9t5.5 8.5t6.5 8.5l12 22t11 23
q2 5 3.5 10.5t2.5 10.5q1 10 -7 18zM56 76q1 4 1.5 8t-1.5 8v-16zM58 103h1v7h-1v-7zM122 312h2q0 3 -1 4h-1v-4z" />
    <glyph glyph-name="eth" unicode="&#xf0;" horiz-adv-x="294" 
d="M87 578q4 6 11 4q8 -4 14.5 -7t13.5 -8q6 -4 10.5 -9.5t8.5 -11.5q5 -8 8.5 -15t8.5 -15q2 -5 4.5 -8.5t4.5 -7.5q5 -11 10.5 -22t10.5 -22l3 -9q8 5 16 8t16 8t17.5 10t17.5 10t17 8.5t17 7.5q3 -2 6.5 -2.5t6.5 -3.5q2 -2 5.5 -3t7.5 -3q-28 -20 -55.5 -38.5
t-55.5 -37.5q3 -7 6 -13t5 -12q4 -9 6.5 -18.5t5.5 -18.5q2 -5 3.5 -11t3.5 -12q2 -8 3 -15t3 -15q2 -4 1.5 -8.5t1.5 -9.5q0 -14 2 -27.5t0 -27.5q-1 -8 -1.5 -15.5t-0.5 -15.5q-2 -10 -2 -15q0 -4 -2 -7t-1 -7q-2 -6 -3 -13t-3 -13q-2 -7 -4 -13t-4 -13q-5 -13 -9 -25.5
t-11 -24.5q-6 -10 -11.5 -20t-13.5 -20q-6 -8 -12.5 -14t-13.5 -13q-10 -8 -20 -14q-5 -3 -10.5 -5.5t-10.5 -3.5q-8 -1 -15 -3.5t-14 2.5q-8 0 -14 3t-12 4q-10 1 -17.5 5t-15.5 9q-4 2 -6 4.5t-4 5.5q-8 9 -13 23q-2 4 -3.5 7.5t-1.5 7.5q0 7 -2 13.5t-1 13.5q1 6 0 13
t1 13q2 11 3.5 21t4.5 21q2 8 4.5 16.5t5.5 16.5t6 15.5t8 14.5q4 5 6.5 10.5t5.5 10.5q4 6 7.5 12t8.5 11l24 24q8 8 17.5 12.5t18.5 8.5q5 2 10 4.5t10 4.5t9.5 4t9.5 1q3 0 5 1q5 2 7 1.5t7 -2.5q-1 7 0 13.5t-2 12.5q-1 2 -0.5 3.5t0.5 3.5q0 6 -2 11.5t-1 11.5
q-3 3 -1.5 6.5t-0.5 6.5q-2 4 -2 13q-5 3 -10 -2q-9 -6 -19 -11t-19 -10q-13 -8 -26.5 -14.5t-26.5 -14.5q-5 -3 -11 -5.5t-11 -5.5q-1 1 -1 4q-4 -3 -8.5 -2.5t-8.5 -1.5q-5 -3 -8 4q5 8 11.5 13.5t12.5 11.5q4 1 5.5 3.5t3.5 4.5q6 3 10 7q16 13 32.5 24.5t33.5 22.5
q7 5 13.5 8t12.5 7l3 3q-4 10 -7.5 19.5t-6.5 19.5q-3 8 -6 15l-6 14q-5 11 -10 21t-9 21q-2 5 -5.5 10t-5.5 10q-3 5 -7 10t-9 10zM57 0q4 1 6.5 1t4.5 1q14 5 24 15t19 21q18 19 31 47q5 11 9.5 20.5t7.5 20.5q2 4 4 10q2 8 4 11q2 2 1 5t2 5q1 8 3 16l4 16t2.5 16t1.5 16
q1 15 0.5 30.5t-0.5 31.5q-5 -2 -8.5 -3t-6.5 -3q-16 -8 -29.5 -18t-26.5 -22q-11 -10 -20.5 -21t-18.5 -22q-4 -6 -8.5 -11.5t-6.5 -12.5q-5 -11 -9 -22.5t-6 -23.5q-1 -9 -2.5 -17.5t-1.5 -17.5v-18q-1 -8 0 -15t3 -14q0 -4 2 -12zM239 211q2 14 2 28.5t-2 20.5v-49z
M238 199q-2 -7 0 -11v11zM236 179q-1 0 -1 -0.5t-1 -0.5q0 -4 1 -6h1v7zM232 161h2q0 1 -0.5 2t-0.5 2h-1v-4z" />
    <glyph glyph-name="currency" unicode="&#xa4;" horiz-adv-x="267" 
d="M154 102q6 -4 11 -3q12 0 24 -6q5 -4 13 -7v-3h-7q-10 1 -20 0t-20 -3q-11 -2 -23 -4t-23 -6q-7 -3 -13.5 -5t-13.5 -4q-9 -4 -17.5 -8t-16.5 -8q-3 -2 -5.5 -3t-5.5 -3q-5 -2 -6 -2t-6 2l-4 -2h-2q0 1 -0.5 1t-0.5 1q-8 -4 -12 -5q-2 6 0 10.5t5 8.5q6 8 13 13t15 10
q4 2 7 4t8 5l-4 2q-6 4 -12.5 7.5t-11.5 8.5q-15 16 -21 42q-6 19 -5 37q2 9 3 18t4 18q3 8 6 16.5t8 16.5q6 9 13 17.5t13 17.5q-6 3 -12.5 6t-13.5 8q-6 4 -10 9.5t-8 10.5q-1 1 -0.5 3.5t-0.5 4.5q2 -1 4 -1t4 -1q8 -2 13.5 -6.5t11.5 -9.5q8 -7 19 -10q5 -1 10.5 -2
t10.5 2q2 2 2 0q8 -3 17 0q4 2 8 2.5t9 1.5q4 2 8 3t8 3q17 8 35 16.5t36 17.5q5 -3 10.5 -6t11.5 -7q-3 -3 -7 -5q-11 -8 -21.5 -15.5t-21.5 -15.5q-3 -2 -6.5 -4t-6.5 -4t-7 -3t-8 -3l9 -6q8 -5 16 -9t15 -11q8 -8 11.5 -16t6.5 -18q4 -17 1 -37q-2 -12 -6.5 -23.5
t-11.5 -22.5q-6 -11 -13.5 -19.5t-15.5 -16.5zM63 97q14 -2 27 3.5t20 11.5q12 11 21 23t14 28q3 8 5.5 16.5t2.5 16.5q2 20 -1 37t-14 31q-4 5 -10 8.5t-13 2.5q-2 0 -4.5 -1t-4.5 -1t-4 1t-4 1h-19q-7 -5 -15 -13t-12 -16q-5 -11 -9.5 -22t-5.5 -23q-4 -3 -2.5 -6.5
t-0.5 -6.5q-2 -5 -2 -14q1 -5 1 -10.5t1 -10.5l2 -12t3 -11q4 -10 8.5 -19t15.5 -14zM30 188h-2v-4h2v4zM194 192h-1v-4h1v4z" />
    <glyph glyph-name="semicolon" unicode=";" horiz-adv-x="98" 
d="M39 25q1 1 2 1.5t3 2.5q-1 4 -3 14q8 0 9 -7q1 -5 6 -7q2 -2 1.5 -4t1.5 -4q2 -1 4 -7l2 2q1 0 1 -1q1 -13 -2.5 -25t-6.5 -23q-8 -11 -16.5 -20t-19.5 -16q-6 2 -11 3t-10 3v5q1 0 1.5 0.5t2.5 0.5v7q13 17 22.5 34.5t12.5 40.5zM25 178q-1 0 -3 2q-3 2 -6 3.5t-3 6.5
q-1 4 -1.5 8t1.5 8q1 3 1 10q1 2 1.5 5t1.5 5t5 6h6h5q8 -4 14.5 -8t14.5 -8q2 -4 0.5 -7.5t-2.5 -6.5q-1 -4 -2.5 -7.5t-1.5 -7.5q-1 -5 -4 -8t-6 -5l-18 6q-1 0 -1.5 -1t-1.5 -1z" />
    <glyph glyph-name="comma" unicode="," horiz-adv-x="80" 
d="M39 25q1 1 2 1.5t3 2.5q-1 4 -3 14q8 0 9 -7q1 -5 6 -7q2 -2 1.5 -4t1.5 -4q2 -1 4 -7l2 2q1 0 1 -1q1 -13 -2.5 -25t-6.5 -23q-8 -11 -16.5 -20t-19.5 -16q-6 2 -11 3t-10 3v5q1 0 1.5 0.5t2.5 0.5v7q13 17 22.5 34.5t12.5 40.5z" />
    <glyph glyph-name="period" unicode="." horiz-adv-x="59" 
d="M13 10q-1 0 -3 2q-3 2 -6 3.5t-3 6.5q-1 4 -1.5 8t1.5 8q1 3 1 10q1 2 1.5 5t1.5 5t5 6h6h5q8 -4 14.5 -8t14.5 -8q2 -4 0.5 -7.5t-2.5 -6.5q-1 -4 -2.5 -7.5t-1.5 -7.5q-1 -5 -4 -8t-6 -5l-18 6q-1 0 -1.5 -1t-1.5 -1z" />
    <glyph glyph-name="colon" unicode=":" horiz-adv-x="111" 
d="M25 277q-1 0 -3 2q-3 2 -6 3.5t-3 6.5q-1 4 -1.5 8t1.5 8q1 3 1 10q1 2 1.5 5t1.5 5t5 6h6h5q8 -4 14.5 -8t14.5 -8q2 -4 0.5 -7.5t-2.5 -6.5q-1 -4 -2.5 -7.5t-1.5 -7.5q-1 -5 -4 -8t-6 -5l-18 6q-1 0 -1.5 -1t-1.5 -1zM25 107q-1 0 -3 2q-3 2 -6 3.5t-3 6.5
q-1 4 -1.5 8t1.5 8q1 3 1 10q1 2 1.5 5t1.5 5t5 6h6h5q8 -4 14.5 -8t14.5 -8q2 -4 0.5 -7.5t-2.5 -6.5q-1 -4 -2.5 -7.5t-1.5 -7.5q-1 -5 -4 -8t-6 -5l-18 6q-1 0 -1.5 -1t-1.5 -1z" />
    <glyph glyph-name="quotedbl" unicode="&#x22;" horiz-adv-x="156" 
d="M22 483q1 1 3 5q-2 3 -3.5 6t-3.5 6q6 3 11 -3q2 -5 8 -5q2 -1 2 -2.5t3 -3.5q2 0 7 -5q-1 0 1 2q1 1 1 0q5 -12 6 -24.5t3 -23.5q-5 -13 -9 -24.5t-12 -22.5q-7 -1 -12 -1h-10l-2 4l3 3q-1 2 -1 3t-1 3q6 20 8.5 40t-2.5 43zM91 483q1 1 3 5q-2 3 -3.5 6t-3.5 6
q6 3 11 -3q2 -5 8 -5q2 -1 2 -2.5t3 -3.5q2 0 7 -5q-1 0 1 2q1 1 1 0q5 -12 6 -24.5t3 -23.5q-5 -13 -9 -24.5t-12 -22.5q-7 -1 -12 -1h-10l-2 4l3 3q-1 2 -1 3t-1 3q6 20 8.5 40t-2.5 43z" />
    <glyph glyph-name="quotesingle" unicode="'" horiz-adv-x="106" 
d="M22 483q1 1 3 5q-2 3 -3.5 6t-3.5 6q6 3 11 -3q2 -5 8 -5q2 -1 2 -2.5t3 -3.5q2 0 7 -5q-1 0 1 2q1 1 1 0q5 -12 6 -24.5t3 -23.5q-5 -13 -9 -24.5t-12 -22.5q-7 -1 -12 -1h-10l-2 4l3 3q-1 2 -1 3t-1 3q6 20 8.5 40t-2.5 43z" />
    <glyph glyph-name="hyphen" unicode="-" horiz-adv-x="428" 
d="M385 216v-7h-11q-7 0 -13 -1.5t-12 -2.5q-8 -1 -16 -3.5t-16 -1.5q-3 0 -6 -1.5t-7 -1.5q-2 1 -5.5 1t-5.5 -3h-2q-8 0 -15.5 -0.5t-15.5 -1.5t-16.5 -2t-16.5 0q-5 -3 -11 -2.5t-11 -0.5q-5 0 -8.5 -0.5t-8.5 -1.5q-4 -1 -8 0t-8 -2h-2q-9 -1 -18 -1.5t-17 -1.5
q-5 0 -13 -2h-7.5t-5.5 -2q-7 2 -13 -0.5t-12 -2.5q-4 1 -7.5 0t-7.5 -2q-4 0 -8 0.5t-8 -2.5q-6 1 -12 0t-12 2q-2 1 -5 0.5t-5 0.5l-4 2l-4 2q0 2 1 2q4 5 10 7.5t12 4.5q8 3 17 5.5t19 4.5l27 6q8 2 15 3t14 3q4 2 7.5 2t7.5 1q9 1 18 2.5t18 2.5q4 1 8 1t8 1
q5 2 8.5 1.5t7.5 0.5q5 2 10 1.5t10 1.5t10 1t9 1q7 3 13.5 2.5t14.5 1.5q6 2 13 1t14 -1h29q16 1 32 -8q5 -2 10.5 -5t10.5 -5z" />
    <glyph glyph-name="backslash" unicode="\" horiz-adv-x="365" 
d="M299 -83q-6 7 -12.5 14t-13.5 14q-5 5 -8 10l-6 10q-5 11 -10 21t-10 21q-7 17 -14 33t-15 32l-10 22l-10 22q-6 14 -13 28.5t-13 29.5l-9.5 19l-9.5 19q-4 9 -8 17.5t-8 17.5l-8 16l-8 16q-6 14 -12.5 28t-13.5 28q-6 14 -12.5 27.5t-12.5 27.5q-7 14 -13.5 26.5
t-12.5 26.5q-8 17 -16 33t-15 33q-2 3 -3.5 6.5t0.5 8.5l1.5 -3t0.5 -3q3 2 1.5 4.5t-1.5 4.5q6 4 10 7h9q8 -6 12.5 -13t9.5 -15q18 -26 33 -51q6 -10 12 -19.5t12 -20.5q5 -10 11 -20t11 -20l12 -22l12 -22q7 -13 13 -25.5t14 -24.5q6 -11 11 -22l10 -22q9 -18 18.5 -36
t18.5 -36q10 -19 18.5 -37t16.5 -37q3 -8 6.5 -14t6.5 -13q5 -13 11 -25t11 -24q4 -8 7 -15t6 -15l6 -18q1 -3 0.5 -5.5t1.5 -5.5t0 -6t-2 -6v-3q3 -4 2 -8t0 -9q-6 -4 -8 -5l-2 1z" />
    <glyph glyph-name="degree" unicode="&#xb0;" horiz-adv-x="187" 
d="M66 507q11 -4 21 -7q7 -2 13 -4.5t11 -6.5q6 -4 12 -7t12 -7q16 -11 21 -27q3 -19 -3 -32q-5 -12 -11 -22.5t-13 -21.5q-6 -8 -12.5 -16t-14.5 -14q-6 -5 -12.5 -10t-14.5 -7q-11 -3 -23 -1q-5 1 -9.5 2t-8.5 4q-7 0 -10.5 3.5l-7.5 7.5q-5 4 -7 9l-4 10q-7 18 -4 38
q2 12 5.5 24t9.5 24q4 8 8 15.5t9 14.5q7 11 13.5 17t17.5 12zM93 484q-2 -4 -3 -7t-3 -7q-4 -6 -7.5 -12.5t-7.5 -13.5q-8 -12 -13 -25.5t-10 -27.5q-2 -7 -3.5 -13.5t-3.5 -13.5q-1 -6 -0.5 -12.5t3.5 -12.5q7 0 10 1q5 3 10 5.5t9 6.5q19 19 28 44q7 17 8 30q1 9 1 18
t-3 18q-2 6 -4.5 12t-10.5 10z" />
    <glyph glyph-name="underscore" unicode="_" horiz-adv-x="384" 
d="M385 -15v-7h-11q-7 0 -13 -1.5t-12 -2.5q-8 -1 -16 -3.5t-16 -1.5q-3 0 -6 -1.5t-7 -1.5q-2 1 -5.5 1t-5.5 -3h-2q-8 0 -15.5 -0.5t-15.5 -1.5t-16.5 -2t-16.5 0q-5 -3 -11 -2.5t-11 -0.5q-5 0 -8.5 -0.5t-8.5 -1.5q-4 -1 -8 0t-8 -2h-2q-9 -1 -18 -1.5t-17 -1.5
q-5 0 -13 -2h-7.5t-5.5 -2q-7 2 -13 -0.5t-12 -2.5q-4 1 -7.5 0t-7.5 -2q-4 0 -8 0.5t-8 -2.5q-6 1 -12 0t-12 2q-2 1 -5 0.5t-5 0.5l-4 2l-4 2q0 2 1 2q4 5 10 7.5t12 4.5q8 3 17 5.5t19 4.5l27 6q8 2 15 3t14 3q4 2 7.5 2t7.5 1q9 1 18 2.5t18 2.5q4 1 8 1t8 1
q5 2 8.5 1.5t7.5 0.5q5 2 10 1.5t10 1.5t10 1t9 1q7 3 13.5 2.5t14.5 1.5q6 2 13 1t14 -1h29q16 1 32 -8q5 -2 10.5 -5t10.5 -5z" />
    <glyph glyph-name="asciicircum" unicode="^" horiz-adv-x="187" 
d="M-2 373q9 11 22.5 26t27.5 31.5t27 31.5t22 26q5 -2 8.5 -3t7.5 -1q7 -1 13 -5t8 -10q2 -8 5 -15.5t2 -15.5q2 -4 3.5 -14.5t2.5 -22t2 -22t2 -14.5q-4 -6 -11 -2q-4 2 -8.5 11t-9 19.5t-7.5 20.5t-4 15q-2 6 -4.5 12t-4.5 12q-8 -8 -17 -15.5t-17 -15.5q-3 -4 -10 -11.5
t-15.5 -16t-15.5 -16t-10 -10.5q-1 -2 -1.5 -2.5t-1.5 -2.5q-5 3 -8.5 5.5t-7.5 4.5z" />
    <glyph glyph-name="a" unicode="a" horiz-adv-x="336" 
d="M142 101q-1 -5 -4 -10.5t-6 -10.5q-7 -11 -14 -23t-15 -23q-5 -9 -11 -17t-16 -13q-9 -6 -18 -2l-27 6q-18 3 -28 21q-13 19 -13 44v10q-1 14 1.5 26.5t4.5 24.5q10 37 29 75q16 27 33 49q9 11 18 21.5t20 19.5q5 5 11.5 8.5t12.5 7.5q12 8 24.5 8t24.5 -5
q14 -6 24.5 -19.5t12.5 -26.5q0 -8 3 -17q2 3 5 5q11 16 21 31t21 31q3 3 7 9q5 6 7.5 13t5.5 14q1 3 1.5 5t1.5 4q9 -2 17 -5t14 -10q0 -10 -0.5 -20t-3.5 -21q-3 -14 -5.5 -27t-5.5 -26t-5 -24t-4 -25q-2 -9 -3.5 -18.5t-3.5 -19.5q-2 -11 -3 -22t-4 -21q-1 -12 -1.5 -22
t-3.5 -21q-2 -9 -2 -18t-2 -18t-2 -18.5t1 -19.5q1 -8 1 -17.5v-18.5q0 -3 2 -11q-5 2 -9 2.5t-9 1.5q-6 3 -9 8t-5 11q-2 7 -5 13t-5 12q0 5 -1 9t-1 9q-1 8 -1.5 16.5t-1.5 17.5q-2 19 -2.5 37t0.5 37q1 8 1.5 16t2.5 15q2 5 1.5 10.5t1.5 10.5q2 11 4 22.5t5 22.5
q0 2 0.5 3.5t0.5 3.5q1 5 3 17q-8 -11 -13.5 -21t-12.5 -18q-8 -14 -14.5 -26.5t-15.5 -25.5q-8 -9 -15 -20.5t-13 -22.5q-1 -2 -2.5 -3.5t-2.5 -3.5q-1 0 -1.5 0.5t-1.5 0.5q-1 -1 -2 -3q1 -3 1 -8q-1 0 -1 -4q-3 -1 0 -3zM57 39q7 8 14 14t12 13q8 11 17 22.5t17 22.5
q16 21 30 43.5t28 45.5q6 10 12.5 20.5t14.5 20.5q-1 3 -2 8t-3 9q-1 5 -2.5 10.5t-3.5 11.5t-4.5 9.5t-5.5 8.5l-11 11q-6 2 -9.5 0t-5.5 -4q-5 -5 -9 -9.5t-9 -9.5q-12 -20 -21 -36q-21 -35 -32 -66q-6 -15 -11.5 -31.5t-9.5 -31.5q-2 -13 -4.5 -23.5t-2.5 -22.5v-4
q-3 -7 -2 -14t0 -15zM44 66h1v15h-1v-15zM48 96h-2q0 -3 1 -5h1v5zM263 113h-1v-2h1v2zM50 112v2v5v-7zM263 132h1v3h-1v-3zM260 91v3v-3zM49 105h-1q1 -1 1 -2v2zM143 108q2 0 2 -2l-2 -2v4zM148 111v2v1v-2q0 -1 1 -1h-1zM143 104q0 -3 -1 -3v3h1z" />
    <glyph glyph-name="oe" unicode="&#x153;" horiz-adv-x="432" 
d="M231 113q-4 -5 -7 -9t-6 -9q-11 -17 -23.5 -27t-31.5 -19q-8 -3 -16 -3q-5 -1 -11 -0.5t-11 0.5q-6 0 -11.5 1.5t-11.5 3.5q-13 2 -21 6q-5 2 -9.5 4.5t-9.5 4.5q-5 3 -9.5 5.5t-8.5 7.5l-6 4t-5 5q-6 4 -9 11q-6 8 -8 12q-6 10 -10 20t-7 20l-1 2l-3 24q0 7 -0.5 13
t1.5 13t3 14t3 15q2 7 4.5 14t5.5 14q8 22 24 44q4 4 6.5 8.5t7.5 8.5q3 3 6.5 6t5.5 7q8 9 17 14.5t18 12.5q8 2 14.5 6t14.5 4q4 0 7.5 1t7.5 1q11 1 21 -1.5t21 -5.5q9 -3 17 -8.5t18 -9.5l6 6t5 7q4 8 10 12.5t12 8.5q12 7 25 7q19 2 34 -4q7 -3 13 -6l12 -6
q16 -8 28 -16q10 -8 14 -24q4 -10 -3 -22q-3 -5 -6 -9.5t-6 -9.5q-6 -11 -15.5 -17t-17.5 -14q-10 -3 -18.5 -8.5t-18.5 -7.5q-6 -2 -12 -3.5t-12 -1.5q-4 0 -8 -2h-9q-2 -10 -3.5 -19t-0.5 -19q2 -13 3.5 -25.5t6.5 -25.5q3 -9 7 -18t12 -16q2 -2 3 -5t3 -5h16
q7 4 13.5 6.5t11.5 7.5q8 7 15.5 12t12.5 15l1 1q7 6 11 13.5t7 15.5q2 5 3.5 10.5t4.5 10.5q2 5 2 10v11q3 -1 7 -3v-11v-5q5 -7 5 -14t2 -15q2 -6 2 -8t-1 -7q-3 -8 -3 -16q-1 -19 -16 -35q-7 -7 -14.5 -12.5t-17.5 -9.5t-15 -4q-20 -1 -39 6q-6 2 -12 3.5t-12 3.5
t-11 5.5t-10 5.5q-4 2 -7 5t-7 6zM211 335q-14 16 -38 13q-9 -1 -18 -7q-6 -3 -11 -6t-10 -8q-8 -7 -15 -14t-13 -15q-11 -15 -17 -25t-14 -30q-4 -8 -6 -15t-5 -15t-3.5 -15.5t-3.5 -15.5q1 -15 0.5 -30t3.5 -29q7 -25 26 -47q5 -5 14 -5h10q9 -1 17.5 1.5t16.5 6.5
q19 9 38 27q8 8 14.5 16t13.5 16q-8 11 -13 24q-5 14 -8.5 28t-3.5 28q-1 7 -1 14v15q0 4 1 5q2 8 3 16t3 16q2 5 3 10t3 10q3 8 6.5 15.5t6.5 15.5zM319 360q-20 -1 -32 -17q-13 -16 -21 -37q-5 -13 -8 -25.5t-6 -26.5q5 2 9 4.5t8 4.5q27 14 49 38q7 8 11 15.5t3 18.5v11
q-3 3 -6 6.5t-7 7.5zM46 170h2v12q-1 1 -2 1v-13zM238 217h-2v-12q1 -1 2 -1v13zM369 323h2q0 3 -1 4h-1v-4zM241 252h2q0 2 -0.5 2.5t-0.5 1.5h-1v-4zM392 161h2q0 1 -0.5 1.5t-0.5 2.5q-1 0 -1 -1v-3z" />
    <glyph glyph-name="ae" unicode="&#xe6;" horiz-adv-x="458" 
d="M90 42v-2q-5 -7 -9.5 -13t-12.5 -11q-6 -4 -11.5 -5.5t-12.5 1.5q-4 2 -7.5 2t-6.5 3q-11 1 -16 7.5t-8 14.5q-4 10 -6.5 20t-1.5 21q1 4 0.5 7.5t0.5 7.5v16.5t2 16.5q2 9 4 18.5t5 18.5q2 9 5 17.5t6 17.5q5 15 12.5 28.5t15.5 27.5q5 8 11.5 14.5t13.5 12.5q5 5 20 14
t20 11q7 2 13 3.5t12 2.5q13 1 27 0q5 0 8.5 -1t8.5 -3q3 -1 9 -5q8 -3 13.5 -8t10.5 -11v-5q6 -4 8 -5q10 18 24 37q4 6 9 11l10 10q7 6 14 11t15 9q11 5 20.5 5.5t22.5 -1.5q18 -3 31 -13q2 -2 3.5 -2t3.5 -1q6 -4 12 -7t11 -8q14 -15 18 -35q4 -17 1 -30.5t-11 -27.5
q-12 -20 -33 -34q-17 -10 -31 -14q-5 -2 -11 -3t-12 -1q-7 0 -13.5 -0.5t-12.5 0.5q-10 1 -19 3t-19 5q0 -2 0.5 -4.5t-0.5 -4.5q0 -3 0.5 -6t-2.5 -6q-2 -4 0 -8q3 -5 2.5 -9t-0.5 -8q3 -30 14 -53q5 -11 11 -20.5t16 -17.5q3 0 6 0.5t7 -0.5q5 -1 10.5 1t10.5 4
q11 5 20.5 11.5t19.5 14.5q10 7 18.5 15t17.5 16q4 5 7 9t7 9l1 -1l4 2q-1 -4 -0.5 -7t-1.5 -6q-1 -1 0 -3.5t1 -6.5q-1 -2 -2.5 -4.5t-3.5 -5.5q1 -1 5 -3q0 -2 -1 -2q-7 -8 -13.5 -15t-14.5 -14t-16.5 -13.5t-17.5 -12.5q-6 -5 -13 -8.5t-15 -2.5q-2 1 -5 -2q-4 2 -5 2
q-3 1 -6 0.5t-7 1.5q-3 2 -6.5 2t-7.5 1q-3 1 -5.5 2t-6.5 3q-8 2 -14 5.5t-13 8.5q-17 11 -28 29l-8 10t-4 12q-5 8 -7 16.5t-4 17.5q-2 6 -2 10q-1 5 -1.5 8.5t-0.5 8.5q-1 4 -1 8v9v18q-6 -7 -11.5 -13.5t-10.5 -13.5q-3 -4 -6 -6.5t-5 -6.5l-6 -8t-6 -9q-10 -12 -18 -25
t-18 -25q-6 -8 -11.5 -17t-10.5 -18q-1 -2 -3 -3.5t-1 -4.5q-1 -1 -1.5 -1t-1.5 -1t-2 -1.5t-2 -1.5q-2 -4 2 -4zM44 29q4 3 7 5t5 4q9 10 16.5 20.5t15.5 21.5q11 17 22 33.5t23 33.5q7 10 13.5 19t14.5 19q9 12 18.5 24.5t20.5 23.5l9 9q0 5 -0.5 10.5t-1.5 10.5
q-1 8 -3.5 14t-6.5 12q-5 5 -10.5 8t-12.5 1q-11 -3 -22 -10q-8 -6 -15.5 -12t-14.5 -15q-6 -8 -11.5 -16.5t-11.5 -16.5q-8 -13 -13.5 -26.5t-10.5 -27.5q-3 -8 -5.5 -16.5t-4.5 -16.5t-4.5 -15.5t-4.5 -15.5q-2 -9 -5 -18t-2 -19q-3 -3 -2.5 -6.5t0.5 -7.5t-2 -7t-1 -8
q1 -3 0.5 -6.5t-0.5 -8.5zM260 201q6 -5 13 -3h16t16 2q14 5 26.5 11.5t22.5 17.5q2 3 4.5 5.5t4.5 5.5q5 8 8.5 16t4.5 17t1 18.5t-5 17.5q-4 8 -8 15.5t-13 10.5q-2 -2 -4 -2q-13 -3 -26 -14t-23 -24t-18 -28q-4 -9 -7 -18l-6 -18q-3 -8 -5 -15t-2 -15zM246 155h2v13v6.5
t-2 6.5v-26z" />
    <glyph glyph-name="Euro" unicode="&#x20ac;" horiz-adv-x="325" 
d="M200 -4q-3 -3 -7 -4q-6 -4 -9 -5q-7 -2 -17.5 -2t-19.5 2l-23 6q-30 9 -49 37q-10 18 -16 42q-2 4 -1.5 8t-1.5 8t-1.5 8t-0.5 8q0 5 0.5 9.5t-1.5 9.5q-4 7 1 12v5q1 5 0.5 8.5t0.5 7.5v16.5t2 16.5l2 15l3 14q2 8 3 15t3 15t3.5 15t3.5 15q4 2 3 5.5t2 6.5q2 2 2 5.5
t1 6.5q2 3 2 6t2 6l5 12l9 23q8 22 18.5 42.5t21.5 40.5q4 8 8 15.5t9 14.5q3 4 4.5 8t3.5 8q1 13 12 18q5 2 9.5 6.5t11.5 6.5h8q1 -1 1.5 -2t2.5 -2q5 -2 9.5 -3.5t7.5 -6.5q5 0 9 -2.5t8 -4.5q6 -3 12 -5.5t12 -6.5l5 -3l-5 -26q0 1 -0.5 1t-0.5 1l-2 4l-7 8
q-8 8 -17.5 14.5t-21.5 10.5l-3 -9q-3 -11 -8 -25q-2 -5 -4 -10.5t-4 -10.5t-3.5 -10.5t-3.5 -10.5l-11 -28l-15 -40l-18 -55q-2 -9 -4.5 -18.5t-4.5 -19.5l-4 -12t-1 -12q-5 -13 -6.5 -26.5t-5.5 -26.5l-2 -17q-1 -4 -0.5 -8t-1.5 -9t-1 -9t0 -9q0 -5 -1 -9t-1 -9
q1 -9 0 -18t2 -19q1 -2 0.5 -5t0.5 -5q0 -3 0.5 -5.5t1.5 -5.5q2 -7 3.5 -13.5t5.5 -13.5l6 -9q8 -1 15 1.5t14 6.5q17 8 27 20l1 1zM108 111q-2 -8 -2 -15t2 -14v29zM110 143q-2 -3 -2 -5.5t2 -7.5v13zM111 155h2q-1 2 -1 6h-1v-6zM113 173h1v5h-1v-5zM117 191h-2
q0 -3 1 -4h1v4zM297 306q-2 -4 -4 -4q-8 -3 -15.5 -6t-15.5 -2h-3.5t-3.5 -2q-5 -1 -11 -3l-12 -4q-5 -1 -10 -0.5t-10 -1.5q-5 -1 -8.5 -1t-7.5 -1q-2 0 -4.5 -1t-5.5 -1q-2 0 -4.5 0.5t-4.5 -0.5q-5 -2 -9 -2h-9q-3 0 -6 -2.5t-7 -1.5q-8 4 -13 -2q-8 2 -14.5 -0.5
t-13.5 -1.5q-7 0 -13 -2t-13 -1q-5 -2 -9 -1t-8 -1q-6 -2 -11.5 -2t-10.5 -2q-5 -1 -9 -1.5t-8 0.5q-6 2 -11.5 3t-10.5 4h-2h-1q-2 2 -2.5 3t-2.5 3q5 8 10.5 11t12.5 6q6 3 12.5 4.5t14.5 4.5q2 2 6 2.5t7 1.5q5 0 11 2t11 2.5t10 2.5q4 1 7 0.5t6 1.5t6.5 1.5t5.5 1.5
q3 2 6.5 1.5t6.5 1.5q2 2 5.5 1t6.5 1t7 1.5t7 0.5q5 2 15 2q6 2 10 4q2 0 4.5 -1t4.5 3h4q8 0 14 -1t12 1q10 2 18.5 1.5t17.5 0.5q15 2 25 -10q5 -3 9 -6t8 -5q2 -2 3 -4zM286 204v-8h-9q-5 0 -9.5 -1.5t-9.5 -2.5q-6 -1 -12 -3.5t-12 -1.5q-2 0 -4.5 -2t-5.5 -2
q-5 5 -8 -2h-2q-6 0 -12 -0.5t-12 -1.5l-12 -2t-13 0q-4 -3 -8 -2.5t-8 -0.5q-5 0 -13 -2q-3 -2 -6.5 -0.5t-6.5 -2.5h-1l-27 -3q-4 0 -10 -2h-5.5t-4.5 -2q-5 2 -9.5 -0.5t-9.5 -2.5q-3 1 -5.5 -0.5t-5.5 -2.5q-3 0 -6.5 1t-5.5 -3q-5 1 -9.5 0t-9.5 2q-2 1 -3.5 0.5
t-3.5 0.5l-3 3t-3 2v2q3 6 7.5 8.5t9.5 4.5q7 3 13.5 6t14.5 5q5 2 10 3t10 3q14 3 22 7q3 2 6 2t6 1q7 1 13.5 2.5t13.5 2.5q3 2 6.5 2t5.5 1q4 2 7 1.5t6 0.5q4 2 7.5 1.5t7.5 1.5t8 1t6 1q5 4 10.5 3t11.5 2q5 2 10 1t10 -1h22q8 1 13.5 -1.5t11.5 -7.5q4 -2 7.5 -5.5
t8.5 -5.5z" />
    <glyph glyph-name="quotesinglbase" unicode="&#x201a;" horiz-adv-x="91" 
d="M39 25q1 1 2 1.5t3 2.5q-1 4 -3 14q8 0 9 -7q1 -5 6 -7q2 -2 1.5 -4t1.5 -4q2 -1 4 -7l2 2q1 0 1 -1q1 -13 -2.5 -25t-6.5 -23q-8 -11 -16.5 -20t-19.5 -16q-6 2 -11 3t-10 3v5q1 0 1.5 0.5t2.5 0.5v7q13 17 22.5 34.5t12.5 40.5z" />
    <glyph glyph-name="quotedblbase" unicode="&#x201e;" horiz-adv-x="172" 
d="M39 25q1 1 2 1.5t3 2.5q-1 4 -3 14q8 0 9 -7q1 -5 6 -7q2 -2 1.5 -4t1.5 -4q2 -1 4 -7l2 2q1 0 1 -1q1 -13 -2.5 -25t-6.5 -23q-8 -11 -16.5 -20t-19.5 -16q-6 2 -11 3t-10 3v5q1 0 1.5 0.5t2.5 0.5v7q13 17 22.5 34.5t12.5 40.5zM111 25q1 1 2 1.5t3 2.5q-1 4 -3 14
q8 0 9 -7q1 -5 6 -7q2 -2 1.5 -4t1.5 -4q2 -1 4 -7l2 2q1 0 1 -1q1 -13 -2.5 -25t-6.5 -23q-8 -11 -16.5 -20t-19.5 -16q-6 2 -11 3t-10 3v5q1 0 1.5 0.5t2.5 0.5v7q13 17 22.5 34.5t12.5 40.5z" />
    <glyph glyph-name="ellipsis" unicode="&#x2026;" horiz-adv-x="177" 
d="M13 10q-1 0 -3 2q-3 2 -6 3.5t-3 6.5q-1 4 -1.5 8t1.5 8q1 3 1 10q1 2 1.5 5t1.5 5t5 6h6h5q8 -4 14.5 -8t14.5 -8q2 -4 0.5 -7.5t-2.5 -6.5q-1 -4 -2.5 -7.5t-1.5 -7.5q-1 -5 -4 -8t-6 -5l-18 6q-1 0 -1.5 -1t-1.5 -1zM72 10q-1 0 -3 2q-3 2 -6 3.5t-3 6.5q-1 4 -1.5 8
t1.5 8q1 3 1 10q1 2 1.5 5t1.5 5t5 6h6h5q8 -4 14.5 -8t14.5 -8q2 -4 0.5 -7.5t-2.5 -6.5q-1 -4 -2.5 -7.5t-1.5 -7.5q-1 -5 -4 -8t-6 -5l-18 6q-1 0 -1.5 -1t-1.5 -1zM131 10q-1 0 -3 2q-3 2 -6 3.5t-3 6.5q-1 4 -1.5 8t1.5 8q1 3 1 10q1 2 1.5 5t1.5 5t5 6h6h5
q8 -4 14.5 -8t14.5 -8q2 -4 0.5 -7.5t-2.5 -6.5q-1 -4 -2.5 -7.5t-1.5 -7.5q-1 -5 -4 -8t-6 -5l-18 6q-1 0 -1.5 -1t-1.5 -1z" />
    <glyph glyph-name="quoteleft" unicode="&#x2018;" horiz-adv-x="97" 
d="M28 449q-1 -1 -2 -1.5t-3 -2.5q1 -4 3 -14q-8 0 -9 7q-1 5 -6 7q-2 2 -1.5 4t-1.5 4q-2 1 -4 7l-2 -2q-1 0 -1 1q-1 13 2.5 25t6.5 23q8 11 16.5 20t19.5 16q6 -2 11 -3t10 -3v-5q-1 0 -1.5 -0.5t-2.5 -0.5v-7q-13 -17 -22.5 -34.5t-12.5 -40.5z" />
    <glyph glyph-name="quoteright" unicode="&#x2019;" horiz-adv-x="122" 
d="M39 525q1 1 2 1.5t3 2.5q-1 4 -3 14q8 0 9 -7q1 -5 6 -7q2 -2 1.5 -4t1.5 -4q2 -1 4 -7l2 2q1 0 1 -1q1 -13 -2.5 -25t-6.5 -23q-8 -11 -16.5 -20t-19.5 -16q-6 2 -11 3t-10 3v5q1 0 1.5 0.5t2.5 0.5v7q13 17 22.5 34.5t12.5 40.5z" />
    <glyph glyph-name="quotedblleft" unicode="&#x201c;" horiz-adv-x="168" 
d="M28 449q-1 -1 -2 -1.5t-3 -2.5q1 -4 3 -14q-8 0 -9 7q-1 5 -6 7q-2 2 -1.5 4t-1.5 4q-2 1 -4 7l-2 -2q-1 0 -1 1q-1 13 2.5 25t6.5 23q8 11 16.5 20t19.5 16q6 -2 11 -3t10 -3v-5q-1 0 -1.5 -0.5t-2.5 -0.5v-7q-13 -17 -22.5 -34.5t-12.5 -40.5zM97 449q-1 -1 -2 -1.5
t-3 -2.5q1 -4 3 -14q-8 0 -9 7q-1 5 -6 7q-2 2 -1.5 4t-1.5 4q-2 1 -4 7l-2 -2q-1 0 -1 1q-1 13 2.5 25t6.5 23q8 11 16.5 20t19.5 16q6 -2 11 -3t10 -3v-5q-1 0 -1.5 -0.5t-2.5 -0.5v-7q-13 -17 -22.5 -34.5t-12.5 -40.5z" />
    <glyph glyph-name="quotedblright" unicode="&#x201d;" horiz-adv-x="177" 
d="M108 525q1 1 2 1.5t3 2.5q-1 4 -3 14q8 0 9 -7q1 -5 6 -7q2 -2 1.5 -4t1.5 -4q2 -1 4 -7l2 2q1 0 1 -1q1 -13 -2.5 -25t-6.5 -23q-8 -11 -16.5 -20t-19.5 -16q-6 2 -11 3t-10 3v5q1 0 1.5 0.5t2.5 0.5v7q13 17 22.5 34.5t12.5 40.5zM39 525q1 1 2 1.5t3 2.5q-1 4 -3 14
q8 0 9 -7q1 -5 6 -7q2 -2 1.5 -4t1.5 -4q2 -1 4 -7l2 2q1 0 1 -1q1 -13 -2.5 -25t-6.5 -23q-8 -11 -16.5 -20t-19.5 -16q-6 2 -11 3t-10 3v5q1 0 1.5 0.5t2.5 0.5v7q13 17 22.5 34.5t12.5 40.5z" />
    <glyph glyph-name="dotlessi" unicode="&#x131;" horiz-adv-x="141" 
d="M98 320q0 -1 2 -5q-1 -8 -2 -14.5t-2 -13.5l-9 -45q-2 -8 -3.5 -17t-2.5 -17q-1 -5 -1.5 -8.5t-1.5 -8.5q-2 -9 -2.5 -18.5t-2.5 -19.5l-6 -36v-3q-1 -15 -1.5 -30.5t-1.5 -30.5q0 -5 1 -11t1 -11q1 -6 0.5 -11.5t1.5 -11.5q2 -5 1.5 -9.5t3.5 -8.5q3 -2 6 -3.5t6 -3.5
q-2 -5 -5 -7t-5 -3q-15 3 -27 6q-11 2 -17 9t-10 16q-2 7 -3.5 13.5t-3.5 13.5q-2 14 -4 27t-3 27q-2 12 -2.5 24.5t-2.5 24.5q-2 14 -2 26.5v26.5q1 22 6 45q2 10 4 19t4 19q4 14 9 28.5t14 27.5q2 4 4.5 7t4.5 6h16q8 -5 17 -9.5zM57 123h-1v-13h1v13zM58 135h1v9h-1v-9z
M66 194h-1v-8h1v8zM63 170h1v8h-1v-8zM60 152h2q0 2 -0.5 4t-0.5 4h-1v-8zM73 235h-1v-6h1v6zM70 216h1q0 2 -0.5 2.5t-0.5 2.5h-1q0 -4 1 -5zM67 202h1v5h-1v-5zM75 247l-1 -1v-3h1v4zM77 258l-1 -1q0 -2 2 -5q-1 4 -1 6zM79 266l1 1q0 -1 -2 5q0 -3 0.5 -4t0.5 -2z" />
    </font>
</defs>
</svg>
