<svg xmlns="http://www.w3.org/2000/svg">
<defs>
<font id="BlessedDay" horiz-adv-x="1192" >
  <font-face 
    font-family="Blessed Day"
    font-weight="400"
    font-stretch="normal"
    units-per-em="1000"
    panose-1="2 0 4 0 0 0 0 0 0 0"
    ascent="800"
    descent="-200"
    x-height="385"
    cap-height="723"
    bbox="-1250 -169.205 1316 800"
    underline-thickness="20"
    underline-position="-123"
    unicode-range="U+0020-007D"
  />
<missing-glyph 
d="M1135 94q2 -35 -32 -35q-32 0 -34 38l8 7l11 -6q1 -21 14 -21q13 1 13 16q0 9 -16 26q-12 11 -23 23q-5 12 -5 20q0 34 31 34t32 -31l-19 -4q-2 17 -13 17q-10 0 -10 -15q0 -10 26 -36q17 -17 17 -33zM1013 174h-21v20h63v-20h-22v-114l-10 -7l-10 7v114zM1104 0l17 36h4
l-17 -36h-4zM1062 1v28h5l14 -17l13 17h5v-28h-6v19l-12 -16h-1l-13 16v-19h-5zM570 800l85 -191l210 -24l-155 -140l43 -207l-182 104l-184 -104l43 204l-156 143l208 23zM929 194l26 -90v90h21v-134h-22l-28 86v-86h-20v115l-7 9l7 10h23zM1015 22q0 7 7 7h21q7 0 7 -7
v-14q0 -7 -7 -7h-21q-7 0 -7 7v14zM998 23h-18v-17h18v6l6 -1v-3q0 -7 -7 -7h-17q-7 0 -7 7v14q0 7 7 7h17q7 0 7 -7v-3l-6 -1v5zM856 196q32 0 32 -32v-73q0 -32 -32 -32t-32 32v73q0 32 32 32zM961 11q1 -1 1 -2v-6q0 -1 -1 -2h-8q-1 0 -1 1v9h9zM930 24v-23h-7v23h-13v5
h33v-5h-13zM773 60h-20v114l-7 10l7 10h57v-20h-37v-37h27v-20h-27v-57zM867 22q0 7 7 7h21q7 0 7 -7v-14q0 -7 -7 -7h-21q-7 0 -7 7v14zM826 1v28h25q7 0 7 -6v-6q0 -5 -7 -5h-18v-11h-7zM725 60h-55v134l10 8l10 -8v-114h35v-20zM809 24h-19v-6h18q7 0 7 -7v-3q0 -7 -7 -7
h-18q-7 0 -7 7l5 1v-3h21v6h-18q-7 0 -7 7v3q0 7 7 7h16q7 0 7 -6v-1l-5 -1v3zM765 23h-21v-17h21v6h-11v5h18v-9q0 -7 -7 -7h-20q-7 0 -7 7v14q0 7 7 7h20q7 0 7 -7l-7 -1v2zM599 60v114l-7 10l7 10h57v-20h-37v-37h27v-20h-27v-37h37v-20h-57zM691 22q0 7 7 7h22q7 0 7 -7
v-14q0 -7 -7 -7h-22q-7 0 -7 7v14zM656 1v28h7v-23h21v-5h-28zM549 58q-32 0 -32 32v73q0 33 32 33t32 -33v-15h-21v16q0 12 -11 12q-12 0 -12 -12v-73q0 -12 12 -12q11 0 11 12v26h-11l-8 9l8 11h32v-47q0 -32 -32 -32zM613 1v28h25q6 0 6 -6v-3q0 -4 -4 -5q5 -2 5 -5v-4

<glyph glyph-name=".notdef" 
d="M1135 94q2 -35 -32 -35q-32 0 -34 38l8 7l11 -6q1 -21 14 -21q13 1 13 16q0 9 -16 26q-12 11 -23 23q-5 12 -5 20q0 34 31 34t32 -31l-19 -4q-2 17 -13 17q-10 0 -10 -15q0 -10 26 -36q17 -17 17 -33zM1013 174h-21v20h63v-20h-22v-114l-10 -7l-10 7v114zM1104 0l17 36h4
l-17 -36h-4zM1062 1v28h5l14 -17l13 17h5v-28h-6v19l-12 -16h-1l-13 16v-19h-5zM570 800l85 -191l210 -24l-155 -140l43 -207l-182 104l-184 -104l43 204l-156 143l208 23zM929 194l26 -90v90h21v-134h-22l-28 86v-86h-20v115l-7 9l7 10h23zM1015 22q0 7 7 7h21q7 0 7 -7
v-14q0 -7 -7 -7h-21q-7 0 -7 7v14zM998 23h-18v-17h18v6l6 -1v-3q0 -7 -7 -7h-17q-7 0 -7 7v14q0 7 7 7h17q7 0 7 -7v-3l-6 -1v5zM856 196q32 0 32 -32v-73q0 -32 -32 -32t-32 32v73q0 32 32 32zM961 11q1 -1 1 -2v-6q0 -1 -1 -2h-8q-1 0 -1 1v9h9zM930 24v-23h-7v23h-13v5
h33v-5h-13zM773 60h-20v114l-7 10l7 10h57v-20h-37v-37h27v-20h-27v-57zM867 22q0 7 7 7h21q7 0 7 -7v-14q0 -7 -7 -7h-21q-7 0 -7 7v14zM826 1v28h25q7 0 7 -6v-6q0 -5 -7 -5h-18v-11h-7zM725 60h-55v134l10 8l10 -8v-114h35v-20zM809 24h-19v-6h18q7 0 7 -7v-3q0 -7 -7 -7
h-18q-7 0 -7 7l5 1v-3h21v6h-18q-7 0 -7 7v3q0 7 7 7h16q7 0 7 -6v-1l-5 -1v3zM765 23h-21v-17h21v6h-11v5h18v-9q0 -7 -7 -7h-20q-7 0 -7 7v14q0 7 7 7h20q7 0 7 -7l-7 -1v2zM599 60v114l-7 10l7 10h57v-20h-37v-37h27v-20h-27v-37h37v-20h-57zM691 22q0 7 7 7h22q7 0 7 -7
v-14q0 -7 -7 -7h-22q-7 0 -7 7v14zM656 1v28h7v-23h21v-5h-28zM549 58q-32 0 -32 32v73q0 33 32 33t32 -33v-15h-21v16q0 12 -11 12q-12 0 -12 -12v-73q0 -12 12 -12q11 0 11 12v26h-11l-8 9l8 11h32v-47q0 -32 -32 -32zM613 1v28h25q6 0 6 -6v-3q0 -4 -4 -5q5 -2 5 -5v-4
q0 -5 -9 -5h-23zM601 11v-10h-8q-2 0 -2 2v6q0 1 1 2h9zM467 194q32 0 32 -32v-19q0 -15 -11 -24l15 -59h-22l-12 51h-13v-51h-20v115l-7 9l7 10h31zM556 1v28h7v-23h21v-5h-28zM516 1v28h30v-5h-23v-6h13v-5h-13v-7h23v-5h-30zM372 91l-5 -31l-11 -6l-10 6l22 134h28
l23 -134l-11 -6l-11 6l-4 31h-21zM498 23h-21v-17h21v6h-11v5h18v-9q0 -7 -7 -7h-20q-7 0 -7 7v14q0 7 7 7h20q7 0 7 -7l-7 -1v2zM429 1v28h25q6 0 6 -6v-6q0 -6 -6 -6h-4l13 -10h-9l-12 10h-6v-10h-7zM383 1l16 28h7l16 -28h-7l-4 6h-18l-3 -6h-7zM271 116l-27 78h22
l15 -48l15 48h22l-27 -78v-56h-20v56zM363 1v12l-15 16h9l9 -11l10 11h8l-15 -15v-13h-6zM255 60h-55v134l9 8l11 -8v-114h35v-20zM323 1v28h7v-23h22v-5h-29zM288 1v28h6v-23h22v-5h-28zM186 60h-55v134l9 8l11 -8v-114h35v-20zM269 1v28h6v-28h-6zM226 1v28h25q6 0 6 -6
v-3q0 -3 -5 -5q5 -2 5 -5v-4q0 -5 -8 -5h-23zM200 0l17 36h4l-17 -36h-4zM113 60l-11 -7l-10 7v134h21v-134zM182 0l17 36h4l-17 -36h-4zM176 29q1 0 2 -1v-9h-10v9q1 1 3 1h5zM178 11v-10h-9l-1 1v9h10zM7 60v114l-7 9l7 11h30q35 0 35 -37q0 -19 -14 -27q17 -6 17 -32
q0 -38 -31 -38h-37zM127 1v28h25q7 0 7 -6v-6q0 -5 -7 -5h-18v-11h-7zM105 24v-23h-6v23h-13v5h33v-5h-14zM70 24v-23h-7v23h-13v5h33v-5h-13zM7 1v28h7v-11h21v11h6v-28h-6v12h-21v-12h-7zM647 355l-48 289h-60l-49 -289l23 -14l22 14l11 66h45l10 -66l24 -14zM1021 6h23
v17h-23v-17zM867 164q0 12 -11 12q-12 0 -12 -12v-73q0 -12 12 -12q11 0 11 12v73zM873 6h22v17h-22v-17zM833 24v-7h15q3 0 3 2v3q0 2 -3 2h-15zM698 6h22v17h-22v-17zM620 24v-6h15q3 0 3 2v2q0 2 -3 2h-15zM620 13v-7h15q3 0 3 2v3q0 2 -3 2h-15zM479 162q0 11 -11 11
h-12v-42h12q11 0 11 11v20zM382 163l-7 -52h15zM436 24v-8h15q3 0 3 2v4q0 2 -3 2h-15zM396 12h13l-7 12zM232 24v-6h16q3 0 3 2v2q0 2 -3 2h-16zM232 13v-7h16q3 0 3 2v3q0 2 -3 2h-16zM29 139h8q14 0 14 18q0 17 -14 17h-8v-35zM134 24v-7h15q3 0 3 2v3q0 2 -3 2h-15z
M29 80h8q16 0 16 19q0 21 -16 21h-8v-40zM568 578l17 -114h-33z" />
    <glyph glyph-name="nonmarkingreturn" horiz-adv-x="166" 
 />
    <glyph glyph-name="space" unicode=" " horiz-adv-x="166" 
 />
    <glyph glyph-name="greater" unicode="&#x3e;" horiz-adv-x="102" 
d="M102 219q0 -36 -55 -92q-83 -87 -205 -110q-35 -7 -79.5 -10t-98.5 -3q-31 0 -67.5 1t-79.5 3l-127 6q-191 4 -294 -3q-82 -6 -147.5 -16t-115.5 -24q-46 -13 -83 -34q5 18 29 49q26 33 27 61q2 21 -1 32q4 2 10 4t16 4q135 30 305 30q62 0 122 -3q22 -1 95 -8t199 -21
q52 -5 98 -8t87 -3q214 0 301 90q33 34 33 51q0 9 -9 14q-6 3 -21 -3.5t-22 -13.5q-14 -14 -20 -4l-5 8q-3 8 6 17q32 29 62 29q40 0 40 -43z" />
    <glyph glyph-name="A" unicode="A" horiz-adv-x="695" 
d="M857 680q-6 -9 -28 -46q-57 -98 -113 -220q-32 -72 -55 -130t-36 -103q-3 -11 -13 -25q-6 -5 -12 -6l-57 -7q-11 -2 -12 6v16q-1 111 -47 175q-158 -138 -258 -174q-45 -15 -86 -15q-22 0 -47 5q-74 18 -91 77q-3 13 -3 27q0 51 41 101q37 45 87 66q30 12 58 15
q31 3 57.5 -13.5t29.5 -46.5q3 -26 -16 -54q-7 81 -79 75q-21 -2 -42 -10.5t-38.5 -22t-31.5 -32t-21 -39.5q-9 -26 -3 -48q8 -30 38 -47q28 -14 60 -14q116 0 314 180q-32 21 -75 21q-45 0 -80 -20q-4 31 50 44q35 8 74 0q32 -6 55 -23l63 59l109 110l64 64q-22 4 -58.5 10
t-90.5 16q-17 4 -31.5 5t-27.5 0q-43 -3 -76 -21q-41 -23 -48 -59q-6 -32 24 -48q23 -13 57 -10q27 3 52 20.5t35 41.5q4 8 1 13q-3 7 -14 9q-20 3 -33 -12q-6 -6 -8 -12q-12 7 -3 23q9 15 27 24t35 5q21 -4 29 -18q8 -16 -1 -35q-15 -36 -50 -60.5t-75 -28.5
q-84 -9 -116 50q-10 19 -4 47q16 63 95 97q64 26 144 22q27 -1 98 -12q61 -9 97 -9q28 0 46 5q24 7 30 6q15 -1 10 -14zM740 576l-171 -160l-59 -53q40 -43 61 -108q31 81 65 143z" />
    <glyph glyph-name="B" unicode="B" horiz-adv-x="730" 
d="M797 588q0 -46 -72 -95q-50 -33 -112 -50h2h-1q122 -48 122 -128q0 -43 -40 -80q-60 -57 -160 -81q-53 -13 -132 -13q-80 0 -146 17q-29 -9 -55 -12q-54 -6 -100 5q-17 5 -35 13q-28 14 -29 20q-39 36 -39 87q0 100 102 139q28 10 59 6q35 -5 57 -26.5t20 -55.5
q-38 47 -80 48q-47 3 -82 -30t-35 -80q0 -38 26 -62q35 -34 102 -29l21 3q-55 31 -69 82q-8 27 18 56q6 7 24 12q-1 -5 -1.5 -10t-0.5 -10q0 -69 79 -112q53 32 96 97q12 19 27 44.5t32 57.5q19 35 33 60t22 39q74 123 148 140q10 -2 19.5 -3.5t17.5 -3.5q-12 -9 -25 -23
q-50 -54 -124 -195q-71 -135 -126 -192q-13 -13 -26 -24t-27 -19q15 -2 30.5 -3.5t32.5 -1.5q22 0 45.5 2.5t48.5 7.5q63 13 119 49q70 46 68 102q-5 90 -128 96q-17 2 -17 14q1 7 7 11q2 1 19 4q113 22 174 77q37 34 31 64q-13 63 -150 74q-158 10 -249 -51
q-40 -27 -40 -55q0 -6 5 -18q12 -20 52 -20q29 0 57 14.5t40 39.5q4 6 2 12q-4 7 -15 7q-9 0 -22 -6.5t-15 -14.5q-5 3 -5 8q0 4 4 11l4 5q24 27 55 21q27 -5 27 -26q0 -7 -5 -19q-9 -18 -24 -32t-33.5 -24.5t-39 -16t-41.5 -5.5q-64 0 -85 41q-7 13 -4 31q0 40 56 75
q42 27 91 39q64 16 135 16q82 0 157 -24q103 -33 103 -96z" />
    <glyph glyph-name="C" unicode="C" horiz-adv-x="449" 
d="M544 621q7 -37 -4 -77q-31 -108 -135 -167q-24 -13 -44 -18q-40 -10 -78 8q-5 2 -13 7.5t-19 13.5q-2 2 -3 5q0 3 3 5l8 -2q13 -1 29 0q18 1 37 11l36 21q105 64 130 176q7 36 -12 51q-25 16 -69 1q-72 -25 -169 -108q-40 -34 -82 -81q-97 -109 -97 -208q0 -57 54 -81
q19 -9 46 -9q95 0 226 79q25 16 55 42q4 -7 4 -15q0 -28 -53 -69q-34 -27 -92 -49q-72 -28 -138 -28q-70 0 -114 35q-47 38 -47 107q0 140 136 286q59 63 122 101q85 51 163 51q46 0 77 -22q35 -24 43 -66z" />
    <glyph glyph-name="D" unicode="D" horiz-adv-x="600" 
d="M671 509q0 -80 -61 -156q-70 -86 -171 -142q-106 -58 -213 -58q-153 0 -213 84q-19 26 -19 52q28 -40 85 -63q51 -21 105 -21q101 0 231 77q34 20 65.5 46t60.5 57q72 75 74 139q1 52 -39 79q-33 21 -89 23h-9t-11 -1q-29 -36 -84 -120q-29 -44 -49.5 -74.5t-33.5 -47.5
q-34 -46 -74 -61q-15 -6 -29 -1q23 38 53.5 86.5t68.5 108.5q19 29 35 52t30 41q-103 -30 -209 -111q-123 -93 -115 -159q13 -45 89 -42q85 5 158 64q58 46 67 97q1 2 1 4t1 5q5 0 9 -4q3 -12 4.5 -22.5t2.5 -18.5q6 -91 -100 -152q-64 -37 -131 -37q-58 0 -100 27
q-52 34 -48 106q3 46 47 102q121 156 329 198q16 3 29 5t24 3q49 48 83 48q5 0 14.5 -3.5t5.5 -7.5l-36 -37q75 -11 116 -50q46 -43 46 -115z" />
    <glyph glyph-name="E" unicode="E" horiz-adv-x="425" 
d="M612 684q8 -47 -5 -60q-36 -40 -105 -40q-45 0 -108 22q-7 2 -26 12q-36 -32 -36 -62q0 -26 27 -44q25 -18 51 -17q19 0 64 6l8 1q-4 -46 -94 -37q-164 -21 -291 -102q-44 -29 -51 -63q-5 -50 74 -75q39 -12 79 -12q57 0 117 23q67 25 93 70l6 9q4 -1 7 -8q-3 -25 -8 -44
q-13 -47 -52 -75q-19 -13 -47 -25q-57 -23 -116 -23q-124 0 -182 79q-19 27 -21 65q-3 83 98 148q42 27 154 51q11 2 24.5 4t29.5 3q-31 22 -29 64q2 55 51 89l-15 11q-21 21 -21 44q0 52 44 47q43 -3 35 -35q-7 19 -30 19q-19 0 -24 -20q-6 -30 41 -45l17 11q78 54 161 55
q72 2 80 -46zM593 680q-1 7 -23 7q-53 2 -104 -15q-8 -2 -25 -8.5t-44 -17.5q4 -14 90 -12q89 1 106 46z" />
    <glyph glyph-name="F" unicode="F" horiz-adv-x="525" 
d="M891 654q7 -40 -44 -58q-31 -11 -80 -13q-87 -2 -168 18q-47 -55 -112 -178l-1 -3q32 5 68 33q32 26 43 23q8 -3 8 -10q-1 -10 -35 -45q-20 -20 -40 -57q-21 -41 -22 -65q-10 18 -8 43q1 28 17 56q-20 -8 -48 -9q-59 -110 -112 -166q-63 -66 -156 -77q-54 -6 -101 5
q-57 14 -64 33q-38 36 -38 87q0 100 102 139q27 10 58 6q34 -5 57 -26.5t20 -55.5q-38 47 -80 48q-47 3 -83 -31q-35 -33 -35 -79q0 -37 28 -62q35 -34 102 -29q47 5 82 28q64 45 141 186q-45 6 -67 6q-11 0 -17 -2q-3 -2 -5 0t-2 5q26 11 102 13q6 11 17.5 32t28.5 51
q47 80 95 116q-153 42 -223 41q-50 -2 -86 -19q-47 -22 -55 -63q-8 -36 26 -56q28 -17 66 -15q30 2 58.5 19.5t39.5 44.5q4 9 2 15q-4 9 -17 12q-21 3 -37 -12q-8 -8 -9 -14q-14 9 -3 27q9 16 30 25t40 4q24 -6 33 -23q8 -17 -1 -39q-9 -20 -24 -36.5t-33.5 -28.5
t-40.5 -19.5t-44 -8.5q-97 -5 -131 64q-13 23 -5 53q7 33 41 64q29 27 67 41q46 17 107 17q26 0 56 -3q36 -4 154 -24l69 -12q152 -26 235 -23q8 1 17 2.5t17 4.5z" />
    <glyph glyph-name="G" unicode="G" horiz-adv-x="675" 
d="M818 576q3 -11 -45 -83q-16 -26 -42 -67.5t-64 -99.5q-23 -34 -53.5 -78t-68.5 -99q-38 -54 -69.5 -94.5t-57.5 -67.5q-85 -91 -164 -114q-53 -15 -110 -4q-28 5 -71 30q-50 28 -52 50q-19 31 -21 71q-1 57 38 101q42 45 97 49q31 2 59 -8q22 -3 43 -32q22 -28 22 -51
q0 -15 -7 -28q-39 85 -111 78q-21 -2 -40 -11.5t-32.5 -24.5t-21 -34.5t-7.5 -40.5q0 -27 14 -50q40 -63 123 -63q109 0 232 151q14 17 94 130l14 21q-100 -70 -191 -70q-64 0 -106 35.5t-49 98.5q-12 109 77 239q32 47 79 91q130 123 285 123q104 0 128 -60q-41 24 -100 24
q-156 0 -297 -170q-59 -72 -92 -156q-19 -48 -19 -87q0 -66 59 -90q20 -9 53 -4q26 5 50 13q131 48 247 224q38 57 55 110q14 44 -1 69q-15 19 -42 19q-52 0 -113 -49q-87 -71 -99 -157q-2 -15 0 -29q2 -8 2 -9q-2 -2 -5 -2q-4 0 -5 3q-31 40 -31 81q0 34 21 72
q58 106 167 136q36 11 77 3q40 -7 64 -39.5t22 -74.5l20 12.5t28 18.5q16 1 17 -6z" />
    <glyph glyph-name="H" unicode="H" horiz-adv-x="651" 
d="M854 694q-30 -33 -77 -108q-35 -56 -90.5 -156.5t-133.5 -249.5q-34 -64 -77 -70q-8 -1 -17 4l5 10l7 16q18 34 40 95q6 47 -28 109q-5 9 -10 17t-10 15q-24 -44 -42.5 -74.5t-31.5 -48.5q-51 -69 -101 -98q-35 -20 -93 -27q-29 -4 -53 -2.5t-44 6.5q-6 2 -14.5 5.5
t-19.5 8.5q-26 12 -29 19q-37 34 -37 84q0 96 99 135q25 10 57 6q33 -5 55 -26t20 -53q-37 45 -78 46q-45 2 -80 -30q-34 -31 -34 -77q0 -36 26 -60q34 -33 99 -28q91 7 162 114q13 20 34.5 57.5t51.5 94.5q-30 19 -73 17q-77 -5 -129 -55q-2 6 -2 10q0 28 52 55
q41 21 86 24t85 -16l48 88q13 21 24.5 38t22.5 31l-26 5l-129 23q-17 4 -32 5t-27 0q-45 -5 -76 -21q-41 -23 -48 -59q-6 -31 23 -48q25 -13 58 -10q63 8 87 62q5 8 1 13q-5 8 -14 9q-18 3 -33 -12q-6 -6 -8 -12q-12 6 -3 23q8 15 27 23.5t35 5.5q21 -4 29 -18q8 -16 -1 -35
q-15 -36 -50.5 -61t-74.5 -29q-35 -3 -66 9q-35 14 -50 42q-11 21 -4 47q7 30 37 58q25 25 58 39q58 25 144 21q17 -1 41 -3.5t55 -7.5q32 -5 56.5 -7.5t40.5 -2.5q1 1 61 10l-1 -1q31 0 24 -7q-12 -9 -25 -23q-53 -59 -117 -181l-29 -56q44 -50 62 -120q88 177 172 307
q65 98 111 98q5 0 15 -3.5t7 -8.5z" />
    <glyph glyph-name="I" unicode="I" horiz-adv-x="450" 
d="M663 717q5 -14 -33 -76l-50 -83l-94 -162q-29 -50 -54.5 -86.5t-45.5 -61.5q-70 -83 -139 -104q-50 -14 -100 -4q-29 6 -69 27q-48 25 -52 46q-21 27 -26 64q-11 85 60 123q24 13 48 14q29 3 55 -6q18 -3 41 -26q27 -27 27 -56q0 -11 -4 -20q-44 80 -109 72
q-40 -4 -63 -33t-18 -69q3 -27 18 -46q40 -57 120 -57q99 0 195 138q8 11 26.5 40.5t47.5 77.5q19 38 40 79t46 86l14 25l-89 -8q-106 -15 -146 -67q-18 -23 -18 -48q0 -41 39 -59q14 -7 29 -7q32 0 61 25q20 16 22 21l-6 -2q-9 -14 -16.5 -25t-14.5 -19q-25 -28 -50 -31
q-45 -5 -80 26q-29 26 -29 73q0 58 56 105q48 39 111 55q9 2 35 7t69 12q32 5 57.5 11.5t45.5 14.5l30 20q10 3 13 -6z" />
    <glyph glyph-name="J" unicode="J" horiz-adv-x="586" 
d="M818 711q4 -13 -45 -82l-29 -46q-104 -167 -199 -298q-32 -45 -60.5 -82t-53.5 -66q-137 -162 -287 -132q-29 6 -72 29q-50 27 -51 51q-19 31 -21 71q-1 42 21 78.5t59 55.5q24 12 55 15q32 3 59 -7q22 -3 43 -32q22 -28 22 -51q0 -15 -7 -28q-39 85 -111 78
q-21 -2 -40 -11.5t-32.5 -24.5t-21 -34.5t-7.5 -40.5q0 -27 14 -50q40 -63 123 -63q109 0 232 151l94 129q12 17 51 80t106 174q-92 -15 -116 -21q-129 -28 -184 -89q-36 -41 -36 -81q0 -43 41 -61q13 -6 29 -6q38 0 84 38q28 24 30 29l1 1q6 0 -6 -30q-13 -35 -55 -58
q-38 -21 -79 -21q-46 0 -73.5 27t-27.5 72q0 80 78 148q31 28 68.5 49t82.5 37q29 10 116 30q64 14 110.5 34t77.5 45q15 1 17 -7z" />
    <glyph glyph-name="K" unicode="K" horiz-adv-x="614" 
d="M882 717q0 -2 -0.5 -3t-4 -3t-11 -5.5t-21.5 -9.5q-41 -20 -69 -61q-4 -6 -15 -25t-29 -51q-61 -108 -177 -145v-1q49 -26 51 -69q0 -11 -3 -23l-5 -18q-10 -35 -13 -79q-1 -37 0 -70q6 -81 37 -141q40 -81 110 -81q33 0 64 17t46 45q6 -12 6 -23q0 -29 -38 -55
q-31 -19 -65 -25q-6 -1 -12 -1.5t-11 -0.5q-104 0 -156 127q-16 38 -24.5 81.5t-9.5 91.5q-1 80 20 174q3 22 -15 31q-9 5 -38 7q-6 1 -12.5 2t-13.5 3q-58 -107 -84 -143q-50 -69 -101 -98q-35 -20 -93 -27q-29 -4 -53 -2.5t-44 6.5q-8 1 -35 14t-28 19q-37 34 -37 84
q0 96 99 135q27 10 57 6q79 -12 75 -79q-36 43 -78 46q-45 3 -80 -29q-34 -31 -34 -77q0 -37 26 -61q34 -33 99 -28q91 7 162 114q13 20 33 54t46 85q31 57 49 91t25 45q14 23 27 42t25 33q-21 4 -57.5 10t-89.5 16q-17 4 -32 5t-27 0q-43 -3 -77 -21q-42 -22 -48 -59
q-5 -32 24 -48q25 -13 58 -10q27 3 51.5 20.5t34.5 41.5q4 8 2 13q-5 7 -15 9q-18 3 -32 -12q-8 -8 -9 -12q-10 7 -2 23q9 15 27 24t35 5q20 -4 28 -18q7 -13 -1 -35q-15 -37 -49 -61t-76 -28q-34 -4 -65 8q-35 14 -50 42q-12 23 -5 47q16 62 95 97q64 26 144 22
q26 -1 94 -12q60 -9 95 -9q4 0 12 1t17 1.5t17.5 1t14.5 0.5q20 -3 15 -7q-57 -42 -142 -204l-30 -57q2 1 7.5 1t14.5 1h7t13 1q67 9 118 102q82 151 193 178q28 7 37 6q4 0 6 -2z" />
    <glyph glyph-name="L" unicode="L" horiz-adv-x="438" 
d="M945 89q-17 -37 -87 -59q-54 -17 -106 -21q-161 -11 -299 59q-35 17 -72 35.5t-75 38.5q-30 16 -71 29q-51 -45 -99 -49q-8 -1 -17.5 -1.5t-20.5 0.5q-87 3 -97 46q-6 25 16 41q29 23 85 21q23 -1 48.5 -3t51.5 -7q10 12 20 25.5t21 29.5q14 22 42.5 71.5t71.5 127.5
q-15 5 -36 15.5t-49 25.5t-49 25.5t-35 15.5q-30 11 -56 13q-37 1 -54 -19q-3 4 -3 9q0 28 50 48q37 13 81 0q12 -4 27 -12t32 -19q27 -20 55 -39t55 -31l38 68q72 120 137 144q30 11 54 13q46 2 72 -24.5t22 -74.5q-9 -102 -132 -152q-66 -27 -140 -22q-88 -163 -122 -209
q-8 -10 -16 -21t-18 -22q39 -10 115 -42q88 -36 129 -51q37 -13 70 -22.5t64 -15.5l2 -1q107 -18 167 -11q67 7 106 29q8 4 10 12v3q5 5 12 -5q3 -5 0 -12zM659 641q3 15 0 26.5t-11 19t-19.5 9.5t-25.5 -2q-46 -14 -88 -80l-70 -122l-4 -7q76 -14 159 66q48 45 59 90z
M179 187q-70 18 -102 16q-40 -3 -40 -27t33 -27q30 -3 60 7q37 10 49 31z" />
    <glyph glyph-name="M" unicode="M" horiz-adv-x="874" 
d="M1095 -13q12 -29 -7 -55q-16 -21 -46 -35q-35 -15 -67 -15q-103 0 -157 127q-33 78 -33 182q0 215 135 430q-154 -128 -321 -446q-7 -13 -13 -13h-42q-16 0 -13 15l3 15q10 59 26 142.5t39 194.5l-81 -105q-134 -171 -219 -225q-65 -41 -130 -42q-11 0 -22 1.5t-22 3.5
q-79 17 -110 75q-17 30 -15 66q3 54 42 95t94 45q30 3 55 -7q21 -3 37 -28q18 -26 18 -46q0 -15 -8 -29q-31 79 -99 73q-42 -4 -70.5 -33.5t-30.5 -71.5q-2 -27 10 -46q32 -59 112 -59q102 0 224 141q11 13 35 43t62 78q23 31 50 69.5t58 85.5q-70 11 -112 18.5t-57 10.5
q-33 7 -66 4q-50 -5 -78 -26q-37 -26 -32 -71q4 -38 39 -57q30 -16 70 -11q29 4 50.5 25t24.5 50q2 24 -23 27q-20 2 -31 -15q-6 -11 -5 -15q-15 7 -11 28q4 18 22 29t36 7q54 -10 49 -64q-4 -43 -34 -73t-73 -36q-72 -10 -128 40q-36 33 -38 74q-2 26 15 59q45 94 208 88
q14 -1 43 -4t74 -10q68 -10 117 -7q30 1 44 11q9 5 12 4q8 0 10 -6q0 -5 -4 -13q-5 -11 -9 -23t-7 -23q-23 -85 -41.5 -166.5t-32.5 -159.5q192 312 360 402q19 10 33 15q25 9 33 -3q3 -4 -2 -14q-26 -32 -40 -46q-72 -95 -119 -229q-49 -135 -49 -252q0 -99 38 -175
q40 -81 109 -81q33 0 64.5 17t46.5 45z" />
    <glyph glyph-name="N" unicode="N" horiz-adv-x="698" 
d="M1289 545q-2 -10 -15 -17q-20 55 -69 87q-47 29 -108 32q-243 13 -444 -372q-8 -16 -22.5 -43t-36.5 -66q-3 -4 -8 -4h-42q-15 0 -13 15q14 95 31 182.5t37 169.5l-81 -105q-39 -51 -71 -88.5t-57 -62.5q-88 -86 -161 -107q-54 -14 -104 -4q-79 17 -110 75q-17 30 -15 66
q3 54 42 95t94 45q30 3 55 -7q21 -3 37 -28q18 -26 18 -46q0 -15 -8 -29q-31 79 -99 73q-42 -3 -70.5 -33t-30.5 -72q-2 -27 10 -46q32 -59 112 -59q103 0 225 141q17 20 41 50t55 71l108 155q-49 8 -91 15t-78 14q-34 7 -66 4q-50 -5 -78 -26q-37 -26 -32 -71q4 -38 39 -57
q30 -16 70 -11q29 4 50.5 25t24.5 50q2 24 -23 27q-20 2 -31 -15q-6 -11 -5 -15q-15 7 -11 28q4 18 22 29t36 7q54 -10 49 -64q-3 -25 -14 -45.5t-28 -34.5t-39.5 -22t-47.5 -8q-46 0 -86 25q-55 34 -58 90q-1 25 15 59q45 94 208 88q21 -2 126 -15q38 -5 69.5 -6t56.5 1
q2 1 9.5 4t20.5 9q6 2 9 1q7 0 9 -6l-12 -32q-4 -10 -12 -41q-20 -78 -37 -152.5t-30 -147.5q201 337 420 363q14 2 27.5 2.5t27.5 -0.5q100 -4 157 -64q39 -41 33 -76z" />
    <glyph glyph-name="O" unicode="O" horiz-adv-x="483" 
d="M530 398q-20 -35 -49 -69.5t-66 -68.5q-135 -123 -259 -123q-66 0 -106.5 35t-47.5 99q-12 112 76 239q32 47 79 91q118 112 259 122q127 10 154 -59q-41 24 -99 24q-156 0 -297 -170q-59 -72 -92 -156q-19 -48 -19 -87q0 -66 58 -90q22 -9 54 -4q11 2 23.5 5t25.5 8
q129 46 248 224q39 59 55 110q14 46 -2 69q-13 19 -41 19q-53 0 -114 -49q-86 -70 -98 -157q-2 -15 0 -29q2 -7 1 -9q-2 -2 -5 -2t-4 3q-32 41 -32 81q0 34 21 72q58 106 167 136q37 10 78 3q38 -7 62 -38.5t24 -70.5q0 -67 -54 -158z" />
    <glyph glyph-name="P" unicode="P" horiz-adv-x="651" 
d="M781 513q0 -92 -129 -165q-111 -63 -198 -60q-8 0 -17.5 1.5t-11.5 8.5q0 13 20 16q126 16 212 104q60 62 56 115q-5 66 -80 100q-17 -14 -26 -23q-26 -28 -57 -76t-67 -117q-73 -138 -126 -194q-63 -66 -156 -77q-54 -6 -101 5q-11 3 -35 14q-26 12 -29 19
q-38 36 -38 87q0 98 102 139q27 10 58 6q35 -5 57.5 -26.5t19.5 -55.5q-38 47 -80 48q-47 3 -82 -31q-35 -33 -35 -79q0 -37 27 -62q35 -34 102 -29q93 7 167 118q11 17 26 42.5t33 59.5l54 99q89 147 167 141q-58 20 -124 20q-14 0 -29 -1t-31 -3q-104 -14 -173 -69
q-54 -44 -54 -93q0 -11 1 -15q7 -39 63 -39q37 0 68.5 23t47.5 58q5 12 4 17q-4 13 -17 13t-27.5 -10.5t-17.5 -22.5q-12 9 2 32q22 39 61 39q29 0 37 -27q5 -21 -8 -46q-22 -48 -67 -82q-47 -36 -98 -36q-42 0 -71.5 26t-29.5 68q0 12 3 24q5 44 45 89q94 103 279 103
q99 0 183 -38q104 -47 118 -133q1 -7 1.5 -13t0.5 -12z" />
    <glyph glyph-name="Q" unicode="Q" horiz-adv-x="483" 
d="M535 398q-40 -70 -116 -138q-137 -123 -259 -123q-64 0 -105.5 35.5t-48.5 98.5q-13 107 76 239q14 22 34 44.5t46 46.5q118 112 258 122q125 11 155 -59q-41 24 -100 24q-156 0 -297 -170q-59 -72 -92 -156q-19 -48 -19 -87q0 -66 59 -90q21 -9 53 -4q11 2 23.5 5
t25.5 8q129 46 248 224q39 59 55 110q14 44 -1 69q-15 19 -42 19q-53 0 -114 -49q-86 -70 -98 -157q-2 -15 0 -29q2 -8 2 -9q-2 -2 -5 -2q-4 0 -5 3q-32 41 -32 81q0 34 21 72q58 106 167 136q37 10 78 3q38 -6 62 -37.5t24 -71.5q0 -66 -53 -158zM763 81v1q-8 -4 -20.5 -7
t-28.5 -7q-57 -12 -131 -12q-119 0 -270 34q-105 24 -176 19q-18 -2 -33.5 -4t-28.5 -6l-47 -15q-9 -3 -16 -3q-5 0 -12 5q1 6 24 17q76 32 215 32q104 0 200 -21q163 -35 222 -35q14 2 38.5 4t59.5 4q6 0 9 -3z" />
    <glyph glyph-name="R" unicode="R" horiz-adv-x="587" 
d="M781 532q0 -82 -129 -149q-34 -17 -69 -29.5t-73 -19.5l1 -1l-1 1l4 -3h-2v-2q30 -16 39 -47q5 -18 -4 -40q-7 -14 -15 -36t-19 -54q-12 -50 -12 -99q0 -72 25 -121q31 -63 98 -63q71 0 110 49q2 -10 2 -15q0 -27 -37 -48q-36 -23 -78 -24q-88 -4 -134 70q-38 62 -38 154
q0 108 52 228q3 11 2 17q-4 16 -49 23q-7 0 -20 3q-67 -111 -138 -152q-36 -22 -95 -28q-54 -6 -101 5q-57 14 -64 33q-38 36 -38 87q0 98 102 139q27 10 58 6q35 -5 57.5 -26.5t19.5 -55.5q-38 47 -80 48q-47 3 -82 -31q-35 -33 -35 -79q0 -37 27 -62q35 -34 102 -29
q93 7 167 118q11 17 26 42.5t33 59.5l54 99q59 98 116 128q14 7 32 12q10 -2 19.5 -3.5t18.5 -3.5q-50 -35 -112 -147l-71 -133q118 13 205 91q62 56 58 106q-8 92 -163 111q-59 7 -120 1q-103 -10 -173 -62q-54 -41 -54 -84q0 -36 39 -46q12 -4 25 -4q35 0 67.5 21t48.5 53
q5 12 4 15q-5 12 -17 12t-27 -9t-18 -20q-12 8 2 28q24 35 61 35q29 0 37 -24q5 -18 -8 -42q-12 -23 -30 -42t-40 -33.5t-46.5 -22.5t-48.5 -8q-47 0 -79 32q-22 22 -22 52q0 11 3 23q5 40 45 80q93 93 279 93q106 0 190 -37q113 -50 113 -140z" />
    <glyph glyph-name="S" unicode="S" horiz-adv-x="578" 
d="M642 630q-1 -27 -46 -64q-13 -11 -27.5 -25.5l-31.5 -31.5q-7 7 -13 24t-4 26q4 7 17 20q37 36 40 64q3 23 -18 40q-16 14 -42 19q-5 1 -13.5 1.5t-19.5 -0.5q-21 0 -39.5 -7.5t-32.5 -20.5t-22.5 -30t-8.5 -38q0 -37 25 -66l93 -105q58 -68 58 -123q0 -83 -109 -138
q-91 -46 -216 -46q-71 0 -134 20q-83 27 -96 84q-1 6 -1.5 12t-0.5 11q0 63 76 114q86 57 192 56q38 0 71 -14q41 -18 41 -52q0 -26 -35 -41q-20 -9 -37 -9q-9 0 -14 1q21 19 21 38q0 3 -2 9q-18 28 -67 31q-116 8 -163 -75q-16 -30 -12 -64q12 -77 142 -90q10 -1 19.5 -1.5
t18.5 -0.5q152 0 204 115q8 18 8 35q0 46 -56 111q-19 22 -39.5 48t-42.5 56q-19 34 -19 64q0 44 32 85q45 56 142 59q86 3 134 -39q30 -25 28 -62z" />
    <glyph glyph-name="T" unicode="T" horiz-adv-x="451" 
d="M955 701q1 -3 1 -9q0 -59 -135 -74q-19 -2 -42 -3t-51 -1q-46 0 -107 9q-51 -43 -122 -177q-35 -66 -59.5 -108.5t-38.5 -62.5q-50 -69 -105 -101q-36 -22 -95 -28q-54 -6 -101 5q-57 14 -64 33q-38 36 -38 87q0 100 102 139q28 10 58 6q35 -5 57.5 -26.5t19.5 -55.5
q-38 47 -80 48q-47 3 -82 -31q-35 -33 -35 -79q0 -37 27 -62q35 -34 102 -29q93 7 167 118q11 17 26 42.5t33 59.5l54 99q63 105 123 132q-122 21 -195 21q-79 0 -132 -28q-61 -31 -61 -81q0 -32 36 -45q27 -10 64 -5q34 4 64 24t43 49q4 10 1 15q-4 8 -18 10q-22 1 -40 -15
q-8 -8 -10 -15q-15 7 -3 27q10 16 33.5 27t42.5 8q25 -4 35 -20t-1 -39q-9 -21 -25.5 -39t-37 -32.5t-43.5 -23.5t-47 -12q-41 -5 -79 7q-45 13 -63 45q-13 25 -6 53q11 36 47 69q16 15 33.5 26.5t36.5 19.5q73 31 177 30q24 -1 65 -3t101 -7l75 -6l95 -6q46 -2 86 -0.5
t75 5.5q9 1 18 3.5t18 6.5z" />
    <glyph glyph-name="U" unicode="U" horiz-adv-x="465" 
d="M614 673q0 -27 -15 -55q-142 -266 -191 -386q-17 -42 -26.5 -70.5t-11.5 -45.5q-1 -1 -4 -1q-28 0 -37 35q-4 13 -4 27t2 29q1 13 5 24q-76 -69 -136 -72q-54 -2 -76 35q-13 19 -13 43q0 45 41 113q6 11 19 30t33 48q33 48 51 81q26 51 25 94q-2 34 -28 65q-37 44 -89 55
q-26 4 -51 -2q-63 -17 -68 -68q-4 -45 37 -71q32 -20 81 -23q-24 -14 -53 -12q-35 3 -66 27q-44 34 -39 84q5 44 46 72q37 25 84 25q16 0 33 -3q72 -14 120 -70q48 -55 43 -128q-3 -49 -31 -103q-8 -17 -22 -40.5t-33 -54.5l-58 -91q-21 -35 -17 -51q3 -13 23 -16
q40 -5 109 53q58 49 77 89q85 184 213 390q27 -14 27 -56z" />
    <glyph glyph-name="V" unicode="V" horiz-adv-x="459" 
d="M1095 547q-12 58 -61 91q-44 29 -106 33q-158 9 -320 -148q-123 -120 -262 -344q-11 -18 -18 -18h-43q-16 0 -11 14q32 112 68.5 218.5t77.5 209.5l4 9q-6 0 -9 1l-14 3l-163 27q-36 7 -66 4q-48 -5 -80 -25q-39 -25 -41 -67q-2 -38 33 -54q27 -16 66 -11q29 3 53 23.5
t31 48.5q4 22 -19 25q-20 2 -33 -14q-7 -8 -7 -15q-14 8 -7 27q7 17 25.5 27.5t36.5 6.5q43 -9 43 -43q0 -46 -47 -87q-36 -30 -77 -34q-39 -5 -75 9q-41 15 -60 46q-17 26 -14 54q1 22 23 56q55 88 218 83q30 -1 86 -9q31 -5 52 -7.5t33 -3.5q23 -2 67 3q40 4 39 5
q-10 -31 -25.5 -75.5t-37.5 -103.5q-23 -61 -38.5 -106t-25.5 -74q54 73 104 130.5t99 100.5q178 156 342 147q105 -6 153 -67q27 -35 27 -63q0 -24 -21 -33z" />
    <glyph glyph-name="W" unicode="W" horiz-adv-x="663" 
d="M1296 543q-14 59 -62 91q-44 29 -106 33q-159 9 -320 -147q-94 -91 -194 -240q-11 -15 -29.5 -42t-44.5 -67l-1 -2q-4 -7 -12 -7h-43q-15 0 -10 15l59 170q18 52 36 93t35 72q-96 -96 -259 -340l-2 -3q-6 -7 -12 -7h-43q-15 0 -10 15q65 227 150 440q-2 -1 -9 -1
q-23 -1 -68 5.5t-112 20.5q-32 7 -65 4q-51 -5 -82 -26q-39 -25 -41 -71q-1 -37 32 -57q27 -16 67 -11q30 4 54 25t31 50q6 24 -18 27q-21 1 -34 -15q-7 -8 -7 -15q-14 7 -7 28q6 17 25.5 28.5t37.5 7.5q42 -8 42 -45q0 -5 -0.5 -9.5t-1.5 -9.5q-10 -43 -43.5 -73t-78.5 -36
q-40 -5 -76 10q-41 16 -60 48q-17 28 -14 56q2 23 24 59q57 94 219 88q22 -2 124 -15q38 -5 69.5 -6t56.5 1q3 0 16 4q12 4 14 2t2 -4q0 -5 -8 -21l-1 -3l-1 -1l-3 -8q-23 -58 -53.5 -141t-68.5 -192q143 194 269 296l34 30q5 2 5 -3v-7q-1 -10 -14 -42q-24 -60 -48 -127.5
t-49 -144.5q111 151 207 236q178 156 342 147q108 -6 154 -67q26 -35 26 -62q0 -23 -20 -34z" />
    <glyph glyph-name="X" unicode="X" horiz-adv-x="581" 
d="M858 669q-24 8 -51 8q-49 0 -103 -24q-108 -47 -187 -201q-47 -91 -47 -147q0 -33 14 -63q30 -64 92 -88q-26 -2 -49 7q-100 37 -105 154q-122 -132 -268 -143q-117 -9 -144 55q38 -23 93 -23q143 0 275 159q55 65 85 144q18 46 18 81q0 61 -55 83q-22 8 -49 4
q-74 -11 -161 -86q-62 -53 -115 -134q-17 -26 -29.5 -51t-20.5 -50q-13 -40 1 -65q14 -17 39 -17q48 0 105 45q81 66 91 146q1 13 0 27q-2 6 -1 8q2 2 4 2q4 -1 4 -3q30 -38 30 -75q0 -32 -20 -67q-56 -99 -154 -126q-35 -9 -72 -3q-35 6 -57.5 35.5t-22.5 66.5q0 64 49 147
q37 63 108 127q127 114 239 114q63 0 101.5 -35t42.5 -98q66 72 163 110q33 13 68 13q64 0 89 -37z" />
    <glyph glyph-name="Y" unicode="Y" horiz-adv-x="617" 
d="M850 695q2 -11 -46 -82l-106 -167q-9 -14 -36.5 -55t-75.5 -108l-41 -57q-33 -46 -61.5 -82.5t-52.5 -65.5q-139 -163 -287 -133q-38 7 -72 30q-22 14 -51 50q-19 31 -21 71q-1 42 21 78.5t59 55.5q24 13 55 16t59 -7q23 -5 44 -33q21 -29 21 -51q0 -14 -7 -27
q-39 85 -111 78q-43 -4 -73 -36q-29 -33 -28 -76q0 -27 14 -50q39 -62 123 -62q121 0 264 192q-30 -14 -54 -16q-52 -1 -77 35q-12 16 -12 44q0 52 54 132q14 20 36 54.5t54 84.5q25 43 24 94q-1 33 -27 65q-37 44 -90 55q-5 1 -9.5 1.5t-9.5 0.5q-60 0 -88 -43
q-9 -13 -11 -29q-3 -36 25 -61q23 -21 61 -29q8 -2 16 -2.5t16 -1.5q-26 -14 -54 -12q-27 1 -59 22q-30 19 -39 46q-7 22 -6 43q6 69 91 91q10 2 21 3.5t22 0.5q28 -2 29 -1q72 -14 120 -70q48 -55 43 -128q-5 -47 -31 -103q-9 -18 -22.5 -42t-32.5 -53q-10 -15 -24.5 -37.5
t-33.5 -53.5q-21 -36 -18 -51q5 -15 23 -16q43 -6 98 46q40 37 72 87q16 23 40.5 62t59.5 93q12 22 32.5 56t49.5 82q15 25 48 44q23 14 36.5 22.5t17.5 12.5q16 1 18 -7z" />
    <glyph glyph-name="Z" unicode="Z" horiz-adv-x="457" 
d="M944 120q3 -5 -3 -11q-32 -35 -105 -54q-55 -15 -118 -18q-168 -8 -288 56q-22 12 -54.5 30t-76.5 43q-10 5 -26 12t-38 15q-81 -49 -159 -44q-13 1 -23.5 3t-18.5 4q-35 12 -34 37q1 22 28 38q11 7 23 11t25 6q16 3 40 1q56 -5 92 -9q29 21 59 51q20 20 53 54.5t78 85.5
q97 109 126 138q19 20 35.5 35.5t30.5 28.5q-29 5 -65 11.5t-81 14.5q-30 6 -58 4q-43 -4 -76 -24q-39 -25 -43 -63q-5 -35 24 -51q26 -14 59 -10q27 3 50.5 22t32.5 45q3 9 0 14q-4 8 -15 10q-18 2 -31 -14q-6 -7 -8 -13q-11 7 -4 25q7 16 25 25.5t35 6.5q34 -7 34 -35
q0 -11 -4 -22q-12 -38 -45.5 -65.5t-72.5 -32.5q-35 -5 -67 9q-35 14 -50 44q-12 22 -7 50q5 25 26 53q60 82 204 78q10 -1 37 -4t73 -9q65 -9 111 -4q3 0 32 3q9 4 22 5q20 3 31 0q15 -5 9 -6q-42 -25 -97.5 -76t-124.5 -130q-79 -90 -132 -146.5t-79 -80.5
q-14 -12 -27 -22.5t-26 -20.5q35 -11 104 -40q153 -65 245 -85l1 -1q101 -18 170 -12q17 2 34 4.5t36 6.5q54 12 61 25q0 4 5 4q3 0 6 -6zM176 211q-20 5 -39 8.5t-38 5.5q-12 1 -24 0q-41 -5 -41 -31q0 -15 25 -19q15 -2 30 0q48 8 77 28l-1 -1q5 2 11 9z" />
    <glyph glyph-name="a" unicode="a" horiz-adv-x="249" 
d="M269 224q0 -14 -42 -38q-54 -31 -99 -26q-18 1 -13 27q-35 -29 -64 -29q-43 0 -50 51q-9 66 60 137q45 47 86 47q49 0 48 -60q16 28 22 34q16 17 36 13q14 -2 12 -11q-1 -5 -18 -34t-49 -83q-33 -54 -31 -54q11 -5 42 13l41 23q19 4 19 -10zM167 286q6 20 1 41
q-5 24 -27 24q-31 0 -59 -39q-27 -38 -27 -70q0 -41 33 -41q24 0 50 30l10 19l17 31q1 2 1 3t1 2z" />
    <glyph glyph-name="b" unicode="b" horiz-adv-x="249" 
d="M262 224q0 -14 -42 -38q-46 -26 -122 -29q-12 -1 -25 2q-39 2 -34 55l-6 -10l-11 -18q-10 -16 -17.5 -23.5t-30.5 -4.5q-6 0 -9 3q-2 4 47 89l109 185q8 16 21 35.5t30 44.5q10 10 29 7q15 -3 13 -11q-1 -9 -28 -53l-56 -92q34 25 63 25q39 0 42 -47q4 -79 -74 -147
q11 -3 42 14l41 23q18 4 18 -10zM184 315q3 34 -23 34q-31 0 -66 -41l-31 -51q-6 -17 -6 -33q0 -23 22 -23q25 0 56 28q43 37 48 86z" />
    <glyph glyph-name="c" unicode="c" horiz-adv-x="210" 
d="M229 224q0 -9 -6 -15q-10 -7 -19 -12.5t-17 -10.5q-50 -27 -111 -30q-69 -3 -77 53q-8 65 60 137q44 47 87 47q15 0 26 -6t18 -16t8.5 -22.5t-3.5 -24.5q-7 -17 -26 -30.5t-37 -15.5q27 21 31 40q7 33 -24 33q-25 0 -54 -35q-32 -41 -32 -74q0 -43 48 -46q42 -3 110 38
q18 4 18 -10z" />
    <glyph glyph-name="d" unicode="d" horiz-adv-x="256" 
d="M353 509q-1 -9 -28 -53l-125 -204q-33 -54 -31 -54q11 -5 42 13l41 23q16 4 19 -10q0 -14 -42 -38q-54 -31 -99 -26q-18 1 -13 27v2q-34 -31 -66 -31q-43 0 -50 51q-9 66 60 137q45 47 86 47q54 0 47 -69l66 110q10 17 22.5 37t28.5 43q9 9 29 6q15 -3 13 -11zM167 286
q6 20 1 41q-5 24 -27 24q-31 0 -59 -39q-27 -38 -27 -70q0 -41 33 -41q29 0 57 40l5 9q4 6 8 15t9 21z" />
    <glyph glyph-name="e" unicode="e" horiz-adv-x="211" 
d="M228 224q1 -13 -22 -27q-65 -38 -130 -41q-70 -3 -78 53q-6 45 31 100q11 17 25 31.5t31 27.5q41 32 74 24q21 -5 31.5 -22t6.5 -39q-4 -21 -18 -41q-35 -46 -88 -50q-26 -2 -38 10q-5 -50 48 -54q38 -3 91 28q9 6 18 10q18 4 18 -10zM162 318q9 33 -24 33q-26 0 -53 -34
q-27 -35 -26 -45q1 -6 18 -8q15 -1 34 7q39 18 51 46v1z" />
    <glyph glyph-name="f" unicode="f" horiz-adv-x="118" 
d="M216 509q-1 -9 -28 -53l-89 -148l-66 -110q11 -5 42 13l41 23q18 4 18 -10t-43 -39q-45 -25 -82 -26l-71 -119q-14 -19 -28 -49l-2 -10q33 13 72 66q39 52 39 87q0 9 -6 14q12 -1 16 -22q6 -30 -29 -80q-66 -94 -118 -94q-22 0 -19 28q3 25 24 56l6 9l2 4l32 55
q7 14 28.5 50.5t58.5 97.5l17 27l92 155q12 20 24.5 40t26.5 40q10 10 30 6q14 -2 12 -11z" />
    <glyph glyph-name="g" unicode="g" horiz-adv-x="247" 
d="M266 224q0 -9 -6 -15q-36 -25 -60 -35q-20 -8 -37 -14t-30 -10l-55 -92q-6 -10 -11 -18t-14 -21q-16 -24 -17 -27l-25 -30q-25 -28 -45 -23t-20 39q0 33 24 77q21 38 48.5 65t75.5 47l6 10q-28 -19 -51 -19q-44 0 -51 51q-7 64 61 137q46 48 83 48q51 0 50 -60
q14 22 29 39q10 10 29 7q15 -3 13 -11q-1 -9 -28 -53l-47 -75l-30 -50q21 1 90 43q18 4 18 -10zM164 287q10 33 -4 54q-9 10 -22 10q-30 0 -58 -39q-27 -39 -27 -70q0 -41 33 -41q20 0 40 20q27 28 38 66zM70 128q-40 -19 -69 -56q-31 -38 -37 -81q-2 -8 0 -12q1 -4 4 -3
q16 6 55 72l34 56z" />
    <glyph glyph-name="h" unicode="h" horiz-adv-x="228" 
d="M291 553q0 -24 -15 -54q-34 -66 -87 -91q-7 -4 -16.5 -7.5t-20.5 -8.5l-19 -31q40 31 72 30q33 -3 31 -48q-1 -32 -29 -76l-34 -49q-10 -13 -10 -19q0 -3 3 -3q7 0 45 23q10 7 21 12q2 1 6 1q12 0 10 -11q1 -4 -7 -15q-20 -20 -92 -47q-51 -12 -55 7q-3 14 37 69
q42 58 47 78q7 34 -19 34q-22 0 -58 -38l-73 -123q-9 -16 -17.5 -23.5t-30.5 -4.5q-8 0 -9 3q-3 4 3 16q10 16 21 34.5t22 38.5q7 11 26.5 45t53.5 91q-30 5 -35 22q4 -1 7.5 -1.5t8.5 -0.5q16 0 33 4l15 25l37 62l15 24l18 30l7 10q32 44 60 37q28 -6 28 -45zM273 552
q0 5 -1.5 9.5t-5.5 3.5q-17 -5 -49 -64h-1q-2 -4 -8 -15t-17 -28l-18 -30q20 8 38 21t31.5 29.5t22 35t8.5 38.5z" />
    <glyph glyph-name="i" unicode="i" horiz-adv-x="119" 
d="M202 471q0 -12 -11 -29q-28 -43 -59 -43q-14 0 -14 14q0 12 11 29q28 43 59 43q14 0 14 -14zM135 224q0 -14 -43 -38q-54 -31 -97 -26q-19 1 -14 27q1 4 33 63l27 47q10 18 22.5 38t29.5 43q9 9 29 6q15 -3 13 -11q-2 -9 -71 -121q-33 -54 -31 -54q12 -5 43 13l41 23
q18 4 18 -10z" />
    <glyph glyph-name="j" unicode="j" horiz-adv-x="117" 
d="M202 471q0 -12 -11 -29q-28 -43 -59 -43q-14 0 -14 14q0 12 11 29q28 43 59 43q14 0 14 -14zM135 224q0 -9 -6 -15q-17 -13 -32 -21.5t-28 -13.5q-35 -14 -66 -24l-55 -92l-11 -18l-14 -21q-16 -24 -17 -27l-25 -30q-25 -28 -45 -23t-20 39q0 33 24 77q21 38 48.5 65
t75.5 47l72 122q19 35 33 57t24 32q9 9 29 6q15 -3 13 -11q-1 -5 -8 -18t-20 -35l-17 -26l-62 -103q26 3 89 43q18 4 18 -10zM-60 128q-40 -19 -69 -56q-31 -38 -37 -81q-2 -8 0 -12q1 -4 4 -3q16 6 55 72l34 56z" />
    <glyph glyph-name="k" unicode="k" horiz-adv-x="230" 
d="M288 553q0 -24 -15 -54q-34 -66 -87 -91q-7 -4 -16.5 -7.5t-20.5 -8.5l-14 -23q36 23 59 22q47 -3 47 -42q0 -18 -12 -37q-20 -35 -48 -44q-5 -2 -5 -3q1 -1 4.5 -3t7 -5t5.5 -5.5t0 -3.5q0 -9 -13 -25t-13 -20q0 -3 4 -3q5 0 63 34q17 5 17 -10q0 -18 -39 -37
q-11 -5 -24.5 -11t-30.5 -13q-50 -11 -56 7q-5 12 12 35q11 14 16 22t6 10l2 6q0 2 -2.5 4t-13.5 2q-26 -1 -41 -1.5t-19 0.5l-26 -44l-10 -18q-11 -17 -18.5 -24t-29.5 -4q-8 0 -9 3q-3 4 3 16q10 16 21 34.5t22 38.5q7 11 26.5 45t53.5 91q-30 5 -35 22q4 -1 7.5 -1.5
t8.5 -0.5q16 0 33 4l15 25l37 62l15 24l18 30l7 10q32 44 60 37q28 -6 28 -45zM270 552q0 5 -1.5 9.5t-5.5 3.5q-17 -5 -49 -64h-1q-2 -4 -8 -15t-17 -28l-18 -30q20 8 38 21t31.5 29.5t22 35t8.5 38.5zM182 327q0 21 -23 21q-27 0 -55 -30l-29 -47q107 5 107 56z" />
    <glyph glyph-name="l" unicode="l" horiz-adv-x="137" 
d="M254 552q-12 -65 -50 -134q-74 -132 -155 -192q-11 -20 -11 -24t4 -5q14 -4 56 16q16 8 26 12.5t14 6.5q18 4 18 -10q1 -5 -6 -15q-70 -49 -128 -49q-20 0 -28 11q-10 13 1 45q1 1 5.5 12.5t14.5 33.5q34 81 74 149q46 79 50 83q64 102 98 102q24 0 17 -42zM231 548
q0 4 -1 5q-27 -21 -134 -221q-8 -16 -15.5 -30t-12.5 -28q17 14 36.5 36.5t39.5 53.5q29 44 49 82t30 71q4 11 5.5 18.5z" />
    <glyph glyph-name="m" unicode="m" horiz-adv-x="373" 
d="M390 223q0 -5 -7 -16q-21 -17 -93 -47q-51 -11 -55 7q-5 15 36 69q43 58 48 80q4 21 -4 29q-12 10 -39 -6q-30 -19 -63 -70l-48 -83q-12 -20 -18 -24q-9 -7 -30 -5q-8 1 -9 3q-3 6 3 17q13 23 28 48t33 54q5 13 8.5 22.5t4.5 14.5q5 21 -5 29q-14 12 -48 -12
q-13 -10 -23 -19.5t-17 -19.5q-8 -11 -16 -25q-4 -5 -10 -15.5t-15 -25.5l-15 -24l-10 -18q-11 -17 -18.5 -24t-29.5 -4q-8 0 -9 3q-3 4 3 16l39 66l4 7l34 57q38 66 51 80q9 10 30 6q14 -2 12 -11q-1 -7 -12 -25q3 2 7.5 5.5t11.5 8.5q32 22 60 22q37 0 37 -48q50 49 93 49
q40 0 39 -48q-2 -34 -29 -77q-10 -16 -34 -49q-11 -16 -11 -20q0 -2 3 -2q4 0 11 4l12 6t16 8.5t15.5 9l12.5 7.5q16 4 16 -10z" />
    <glyph glyph-name="n" unicode="n" horiz-adv-x="235" 
d="M255 223q0 -3 -8 -16q-20 -19 -92 -47q-51 -10 -55 7q-5 16 36 69q43 58 48 80q6 34 -16 34q-29 0 -69 -48q-5 -8 -16.5 -26.5t-29.5 -47.5l-15 -24l-10 -18q-11 -17 -18.5 -24t-29.5 -4q-8 0 -9 3q-3 4 3 16l39 66l4 7l34 57q38 66 51 80q9 10 30 6q14 -2 12 -11
q-2 -6 -6 -15q39 27 66 27q40 0 39 -48q-1 -31 -29 -77l-35 -49q-10 -13 -10 -20q0 -2 3 -2q2 0 67 35q16 4 16 -10z" />
    <glyph glyph-name="o" unicode="o" horiz-adv-x="231" 
d="M252 224q0 -14 -42 -38q-26 -14 -59 -11q-11 0 -20 3q-24 -15 -46 -20q-36 -8 -62 5q-30 15 -30 50q0 67 73 137q55 52 109 41q43 -9 43 -58q0 -60 -52 -122q8 -2 11 -2q13 0 27 8q5 4 12.5 8t17.5 9q18 4 18 -10zM174 286q7 22 3 42q-5 23 -29 23q-27 0 -59 -35
q-35 -41 -35 -75q0 -44 39 -39q-9 14 -10 25q-5 36 27 60q3 -37 28 -60q26 26 36 59z" />
    <glyph glyph-name="p" unicode="p" horiz-adv-x="241" 
d="M261 224q1 -10 -16 -23l-26 -15q-44 -26 -121 -29q-12 -1 -26 2q-38 2 -34 57v5l-97 -162q-12 -20 -18 -24q-9 -7 -30 -5q-8 1 -9 3q-3 4 3 17l43 73l109 185q19 32 31.5 52t19.5 27q10 10 30 7q14 -2 12 -11q-1 -7 -9 -22q37 30 69 30q40 0 43 -47q4 -80 -75 -147
q11 -3 42 14l41 23q18 4 18 -10zM184 315q3 34 -24 34q-34 0 -68 -45q-35 -44 -35 -80q0 -23 22 -23q25 0 56 28q45 40 49 86z" />
    <glyph glyph-name="q" unicode="q" horiz-adv-x="247" 
d="M267 224q0 -13 -42 -38q-20 -12 -72 -30q15 -20 12 -45q-5 -38 -46 -84q-34 -37 -74 -62q-23 -14 -44 -17q-12 -3 -17.5 2.5t-2.5 17.5q2 7 4.5 13.5t5.5 13.5q26 53 34 54q10 16 32 55l43 73q-26 -19 -51 -19q-43 0 -50 51q-9 66 60 137q46 48 84 48q51 0 50 -60
q8 14 14 22.5t9 11.5q15 17 35 12q14 -2 12 -11q-5 -17 -67 -117l-38 -61q15 1 45 18q11 6 22.5 12t22.5 13q16 4 19 -10zM165 287q6 21 1 40q-6 24 -27 24q-31 0 -59 -39q-27 -38 -27 -70q0 -41 33 -41q18 0 40 20zM141 130q0 13 -5 21q-1 0 -2 -1l-54 -89q1 1 2 1
q-40 -58 -40 -71q0 -2 1 -2q5 -2 22 12q29 25 51 58q25 38 25 71z" />
    <glyph glyph-name="r" unicode="r" horiz-adv-x="232" 
d="M254 246q3 -13 -34 -46l-22 -16q-47 -30 -67 -30q-39 0 -45 43q-3 21 23 71l25 45l8 19q-11 5 -20.5 8t-16.5 5q-14 -29 -38 -73q-11 -18 -33 -41q-28 -30 -38 -31q-20 0 -18 18l5 5q12 11 27 27t34 38q7 10 11.5 19t8.5 19q14 38 17 56l3 20q1 1 4 17q5 9 13 10
q12 3 18.5 -10.5t3.5 -25.5l-3 -14q2 -2 13 -6l3 2q4 -1 16.5 -6.5t15.5 -6.5l24 -6q7 -4 9 -13q1 -5 -16 -35l-25 -43q-36 -65 -27 -75q6 -8 36 10q9 5 64 51q7 4 14 1q5 -1 7 -6z" />
    <glyph glyph-name="s" unicode="s" horiz-adv-x="217" 
d="M243 246q3 -15 -34 -46q-11 -10 -27.5 -19.5t-36.5 -19.5q-29 -11 -69 -12h-3q-22 0 -42 11q-23 14 -24 34q0 11 4 22q-9 -9 -22 -16q-20 0 -18 18l6 5q10 9 25 25.5t35 39.5q28 43 37 94l8 38q7 9 15 9q12 0 16.5 -12.5t2.5 -23.5l-2 -6q3 -11 32 -16q5 0 8 -1
q0 -3 -4 -8q-14 -23 -12 -48l16 -66q1 -8 1.5 -15.5t-0.5 -14.5q-1 -6 -2 -11.5t-3 -10.5q12 5 72 55q7 4 14 1q6 -2 7 -6zM108 203q3 16 -6 45l-14 74q0 -2 -3 -6q-15 -29 -48 -75q11 2 16.5 -5t2.5 -17q-2 -7 -9.5 -15.5t-7.5 -13.5q0 -7 9 -13q16 -10 38 0q19 7 22 26z
" />
    <glyph glyph-name="t" unicode="t" horiz-adv-x="120" 
d="M248 442q-2 -6 -7 -6h-69l-113 -184q-33 -54 -31 -54q11 -5 42 13q14 8 24.5 13.5t17.5 9.5q18 4 18 -10t-43 -38q-54 -31 -98 -26q-18 1 -13 27q1 9 33 63l112 186h-45q-4 0 -1 6l4 9q3 6 8 6h45q22 41 38 57q9 9 29 6q15 -3 13 -11q-1 -5 -8 -18t-20 -35l3 5
q-2 0 -3 -4h67q5 0 2 -6z" />
    <glyph glyph-name="u" unicode="u" horiz-adv-x="264" 
d="M289 374q-1 -10 -28 -52l-45 -70q-35 -54 -31 -54q11 -5 42 13q14 8 24.5 13.5t17.5 9.5q18 4 18 -10t-43 -38q-54 -31 -98 -26q-8 2 -12 8q-6 11 13 39l-20 -17l-31 -15q-39 -19 -73 -15q-19 3 -14 27q1 6 33 63l24 43q35 62 57 86q9 11 29 6q15 -3 13 -11
q-1 -10 -28 -52l-45 -70q-35 -54 -31 -54q15 -6 76 31q24 14 53 64q10 17 23.5 38.5t32.5 47.5q10 10 30 6q15 -3 13 -11z" />
    <glyph glyph-name="v" unicode="v" horiz-adv-x="202" 
d="M266 432q3 -10 -1 -37q-10 -70 -70 -139q-59 -66 -129 -87q-33 -11 -65 -9q-14 0 -15 15q-1 16 9 32q5 8 17 29.5t32 56.5q19 34 57 86q9 11 29 6q15 -3 13 -11q-1 -6 -8 -19t-20 -33l-45 -70q-35 -54 -31 -54q3 -1 10 -1q28 0 78 35q81 59 101 130q6 22 0 38
q-9 24 -8 25q4 27 27 24q13 -1 19 -17z" />
    <glyph glyph-name="w" unicode="w" horiz-adv-x="325" 
d="M388 432q3 -6 -2 -37q-12 -72 -71 -139q-59 -66 -128 -87q-33 -11 -65 -9q-14 0 -15 15q0 7 3 18q-16 -13 -38 -20q-50 -17 -76 -13q-21 3 -14 24q4 13 18 39l71 118l21 34q13 14 34 10q14 -2 12 -11q-1 -6 -8 -19t-20 -33l-45 -70q-33 -54 -30 -54q10 -4 43 11
q48 22 64 40q2 5 16 28.5t39 66.5q14 24 21 31q14 14 34 10q14 -2 12 -11q-1 -6 -8 -19t-20 -33l-45 -70q-33 -54 -30 -54q3 -1 10 -1q27 0 77 35q81 58 102 130q6 19 -2 39q-7 18 -7 24q4 25 27 24q14 -2 20 -17z" />
    <glyph glyph-name="x" unicode="x" horiz-adv-x="299" 
d="M332 375q-1 -8 -23 -33q-41 -47 -103 -75l2 -36q5 -47 33 -31q18 10 42 32l18 15q12 2 14 1q7 -3 6 -19q-69 -70 -114 -70q-24 0 -38 20q-10 13 -13 66q-74 -31 -85 -77q-3 -14 -9 -27q-11 -11 -22 -11q-24 0 -17 31q3 11 22 33q40 49 110 78l-1 7q0 10 -1 13
q-2 20 -7 37q-5 7 -13 5t-80 -86q-13 -14 -27 -26.5t-30 -23.5q-5 -4 -11 -4q-5 0 -10 11q-4 9 11 21q49 38 74 72q8 13 21.5 31.5t32.5 41.5q13 13 30 14q31 3 48 -21q10 -13 13 -70q69 31 79 74q2 8 4 15t4 12q10 12 22 12q26 0 18 -32z" />
    <glyph glyph-name="y" unicode="y" horiz-adv-x="237" 
d="M262 224q1 -12 -19 -25q-47 -29 -109 -48l-44 -72q-22 -37 -35 -58t-17 -26q-47 -63 -72 -56q-20 5 -20 39q0 32 24 77q22 39 49.5 65.5t73.5 46.5l16 26q-28 -22 -77 -31q-11 -2 -20 -2.5t-17 0.5q-20 3 -14 24q2 8 7 18t12 22q15 26 39 65t56 90q4 7 23 7q22 0 19 -12
q-3 -14 -72 -122q-10 -16 -18 -29.5t-13 -24.5q3 -1 9 -1q16 0 48 17q14 8 25 15.5t19 15.5q10 10 20 25q13 21 29 48t36 59q6 10 30 6q14 -2 12 -11q-2 -8 -4 -11q-5 -15 -27 -50l-73 -120q31 8 86 43q18 4 18 -10zM70 128q-39 -19 -69 -57t-37 -80q-1 -10 0 -13q2 -3 4 -2
q11 5 31 35q20 28 34 51t24 42z" />
    <glyph glyph-name="z" unicode="z" horiz-adv-x="216" 
d="M252 368q5 -18 -5 -40q-20 -50 -66 -87q-22 -19 -43 -27q14 -5 16 -16q4 2 21.5 10.5t48.5 25.5q18 4 18 -10t-42 -38q-7 -4 -20.5 -9.5t-35.5 -13.5l-7 -13q-26 -53 -57 -96l-40 -54q-56 -74 -94 -65q-17 5 -14 26q9 78 91 157q40 39 78 59l6 10q3 10 -19 17
q-15 2 -14 13q18 -6 49 15q40 27 66 72q7 11 7 21q0 19 -23 17q-21 -2 -52 -36l-67 -72q-39 -37 -89 -57l-15 -6q-11 -5 -11 0q0 -1 -3 4q-2 5 0 10q1 5 8 12q13 6 25.5 12.5t24.5 13.5q24 16 70 65q26 28 45 46t31 28q46 35 79 31q26 -3 33 -25zM84 137
q-20 -12 -39.5 -29.5t-36.5 -37.5t-30 -42.5t-19 -43.5q-4 -12 -4 -21q0 -3 2 -3q23 14 107 143q17 26 20 34z" />
    <glyph glyph-name="NULL" horiz-adv-x="0" 
 />
    <glyph glyph-name="less" unicode="&#x3c;" horiz-adv-x="102" 
d="M102 219q0 -36 -55 -92q-83 -87 -205 -110q-35 -7 -79.5 -10t-98.5 -3q-31 0 -67.5 1t-79.5 3l-127 6q-191 4 -294 -3q-82 -6 -147.5 -16t-115.5 -24q-46 -13 -83 -34q5 18 29 49q26 33 27 61q2 21 -1 32q4 2 10 4t16 4q135 30 305 30q62 0 122 -3q22 -1 95 -8t199 -21
q52 -5 98 -8t87 -3q214 0 301 90q33 34 33 51q0 9 -9 14q-6 3 -21 -3.5t-22 -13.5q-14 -14 -20 -4l-5 8q-3 8 6 17q32 29 62 29q40 0 40 -43z" />
    <glyph glyph-name="bracketleft" unicode="[" horiz-adv-x="102" 
d="M102 219q0 -36 -55 -92q-83 -87 -205 -110q-35 -7 -79.5 -10t-98.5 -3q-31 0 -67.5 1t-79.5 3l-127 6q-191 4 -294 -3q-82 -6 -147.5 -16t-115.5 -24q-46 -13 -83 -34q5 18 29 49q26 33 27 61q2 21 -1 32q4 2 10 4t16 4q135 30 305 30q62 0 122 -3q22 -1 95 -8t199 -21
q52 -5 98 -8t87 -3q214 0 301 90q33 34 33 51q0 9 -9 14q-6 3 -21 -3.5t-22 -13.5q-14 -14 -20 -4l-5 8q-3 8 6 17q32 29 62 29q40 0 40 -43z" />
    <glyph glyph-name="bracketright" unicode="]" horiz-adv-x="102" 
d="M102 219q0 -36 -55 -92q-83 -87 -205 -110q-35 -7 -79.5 -10t-98.5 -3q-31 0 -67.5 1t-79.5 3l-127 6q-191 4 -294 -3q-82 -6 -147.5 -16t-115.5 -24q-46 -13 -83 -34q5 18 29 49q26 33 27 61q2 21 -1 32q4 2 10 4t16 4q135 30 305 30q62 0 122 -3q22 -1 95 -8t199 -21
q52 -5 98 -8t87 -3q214 0 301 90q33 34 33 51q0 9 -9 14q-6 3 -21 -3.5t-22 -13.5q-14 -14 -20 -4l-5 8q-3 8 6 17q32 29 62 29q40 0 40 -43z" />
    <glyph glyph-name="braceleft" unicode="{" horiz-adv-x="102" 
d="M102 219q0 -36 -55 -92q-83 -87 -205 -110q-35 -7 -79.5 -10t-98.5 -3q-31 0 -67.5 1t-79.5 3l-127 6q-191 4 -294 -3q-82 -6 -147.5 -16t-115.5 -24q-46 -13 -83 -34q5 18 29 49q26 33 27 61q2 21 -1 32q4 2 10 4t16 4q135 30 305 30q62 0 122 -3q22 -1 95 -8t199 -21
q52 -5 98 -8t87 -3q214 0 301 90q33 34 33 51q0 9 -9 14q-6 3 -21 -3.5t-22 -13.5q-14 -14 -20 -4l-5 8q-3 8 6 17q32 29 62 29q40 0 40 -43z" />
    <glyph glyph-name="braceright" unicode="}" horiz-adv-x="102" 
d="M102 219q0 -36 -55 -92q-83 -87 -205 -110q-35 -7 -79.5 -10t-98.5 -3q-31 0 -67.5 1t-79.5 3l-127 6q-191 4 -294 -3q-82 -6 -147.5 -16t-115.5 -24q-46 -13 -83 -34q5 18 29 49q26 33 27 61q2 21 -1 32q4 2 10 4t16 4q135 30 305 30q62 0 122 -3q22 -1 95 -8t199 -21
q52 -5 98 -8t87 -3q214 0 301 90q33 34 33 51q0 9 -9 14q-6 3 -21 -3.5t-22 -13.5q-14 -14 -20 -4l-5 8q-3 8 6 17q32 29 62 29q40 0 40 -43z" />
    <glyph glyph-name="parenright" unicode=")" horiz-adv-x="102" 
d="M102 219q0 -36 -55 -92q-83 -87 -205 -110q-35 -7 -79.5 -10t-98.5 -3q-31 0 -67.5 1t-79.5 3l-127 6q-191 4 -294 -3q-82 -6 -147.5 -16t-115.5 -24q-46 -13 -83 -34q5 18 29 49q26 33 27 61q2 21 -1 32q4 2 10 4t16 4q135 30 305 30q62 0 122 -3q22 -1 95 -8t199 -21
q52 -5 98 -8t87 -3q214 0 301 90q33 34 33 51q0 9 -9 14q-6 3 -21 -3.5t-22 -13.5q-14 -14 -20 -4l-5 8q-3 8 6 17q32 29 62 29q40 0 40 -43z" />
    <glyph glyph-name="parenleft" unicode="(" horiz-adv-x="102" 
d="M102 219q0 -36 -55 -92q-83 -87 -205 -110q-35 -7 -79.5 -10t-98.5 -3q-31 0 -67.5 1t-79.5 3l-127 6q-191 4 -294 -3q-82 -6 -147.5 -16t-115.5 -24q-46 -13 -83 -34q5 18 29 49q26 33 27 61q2 21 -1 32q4 2 10 4t16 4q135 30 305 30q62 0 122 -3q22 -1 95 -8t199 -21
q52 -5 98 -8t87 -3q214 0 301 90q33 34 33 51q0 9 -9 14q-6 3 -21 -3.5t-22 -13.5q-14 -14 -20 -4l-5 8q-3 8 6 17q32 29 62 29q40 0 40 -43z" />
    <glyph glyph-name="zero" unicode="0" 
d="M1135 94q2 -35 -32 -35q-32 0 -34 38l8 7l11 -6q1 -21 14 -21q13 1 13 16q0 9 -16 26q-12 11 -23 23q-5 12 -5 20q0 34 31 34t32 -31l-19 -4q-2 17 -13 17q-10 0 -10 -15q0 -10 26 -36q17 -17 17 -33zM1013 174h-21v20h63v-20h-22v-114l-10 -7l-10 7v114zM1104 0l17 36h4
l-17 -36h-4zM1062 1v28h5l14 -17l13 17h5v-28h-6v19l-12 -16h-1l-13 16v-19h-5zM570 800l85 -191l210 -24l-155 -140l43 -207l-182 104l-184 -104l43 204l-156 143l208 23zM929 194l26 -90v90h21v-134h-22l-28 86v-86h-20v115l-7 9l7 10h23zM1015 22q0 7 7 7h21q7 0 7 -7
v-14q0 -7 -7 -7h-21q-7 0 -7 7v14zM998 23h-18v-17h18v6l6 -1v-3q0 -7 -7 -7h-17q-7 0 -7 7v14q0 7 7 7h17q7 0 7 -7v-3l-6 -1v5zM856 196q32 0 32 -32v-73q0 -32 -32 -32t-32 32v73q0 32 32 32zM961 11q1 -1 1 -2v-6q0 -1 -1 -2h-8q-1 0 -1 1v9h9zM930 24v-23h-7v23h-13v5
h33v-5h-13zM773 60h-20v114l-7 10l7 10h57v-20h-37v-37h27v-20h-27v-57zM867 22q0 7 7 7h21q7 0 7 -7v-14q0 -7 -7 -7h-21q-7 0 -7 7v14zM826 1v28h25q7 0 7 -6v-6q0 -5 -7 -5h-18v-11h-7zM725 60h-55v134l10 8l10 -8v-114h35v-20zM809 24h-19v-6h18q7 0 7 -7v-3q0 -7 -7 -7
h-18q-7 0 -7 7l5 1v-3h21v6h-18q-7 0 -7 7v3q0 7 7 7h16q7 0 7 -6v-1l-5 -1v3zM765 23h-21v-17h21v6h-11v5h18v-9q0 -7 -7 -7h-20q-7 0 -7 7v14q0 7 7 7h20q7 0 7 -7l-7 -1v2zM599 60v114l-7 10l7 10h57v-20h-37v-37h27v-20h-27v-37h37v-20h-57zM691 22q0 7 7 7h22q7 0 7 -7
v-14q0 -7 -7 -7h-22q-7 0 -7 7v14zM656 1v28h7v-23h21v-5h-28zM549 58q-32 0 -32 32v73q0 33 32 33t32 -33v-15h-21v16q0 12 -11 12q-12 0 -12 -12v-73q0 -12 12 -12q11 0 11 12v26h-11l-8 9l8 11h32v-47q0 -32 -32 -32zM613 1v28h25q6 0 6 -6v-3q0 -4 -4 -5q5 -2 5 -5v-4
q0 -5 -9 -5h-23zM601 11v-10h-8q-2 0 -2 2v6q0 1 1 2h9zM467 194q32 0 32 -32v-19q0 -15 -11 -24l15 -59h-22l-12 51h-13v-51h-20v115l-7 9l7 10h31zM556 1v28h7v-23h21v-5h-28zM516 1v28h30v-5h-23v-6h13v-5h-13v-7h23v-5h-30zM372 91l-5 -31l-11 -6l-10 6l22 134h28
l23 -134l-11 -6l-11 6l-4 31h-21zM498 23h-21v-17h21v6h-11v5h18v-9q0 -7 -7 -7h-20q-7 0 -7 7v14q0 7 7 7h20q7 0 7 -7l-7 -1v2zM429 1v28h25q6 0 6 -6v-6q0 -6 -6 -6h-4l13 -10h-9l-12 10h-6v-10h-7zM383 1l16 28h7l16 -28h-7l-4 6h-18l-3 -6h-7zM271 116l-27 78h22
l15 -48l15 48h22l-27 -78v-56h-20v56zM363 1v12l-15 16h9l9 -11l10 11h8l-15 -15v-13h-6zM255 60h-55v134l9 8l11 -8v-114h35v-20zM323 1v28h7v-23h22v-5h-29zM288 1v28h6v-23h22v-5h-28zM186 60h-55v134l9 8l11 -8v-114h35v-20zM269 1v28h6v-28h-6zM226 1v28h25q6 0 6 -6
v-3q0 -3 -5 -5q5 -2 5 -5v-4q0 -5 -8 -5h-23zM200 0l17 36h4l-17 -36h-4zM113 60l-11 -7l-10 7v134h21v-134zM182 0l17 36h4l-17 -36h-4zM176 29q1 0 2 -1v-9h-10v9q1 1 3 1h5zM178 11v-10h-9l-1 1v9h10zM7 60v114l-7 9l7 11h30q35 0 35 -37q0 -19 -14 -27q17 -6 17 -32
q0 -38 -31 -38h-37zM127 1v28h25q7 0 7 -6v-6q0 -5 -7 -5h-18v-11h-7zM105 24v-23h-6v23h-13v5h33v-5h-14zM70 24v-23h-7v23h-13v5h33v-5h-13zM7 1v28h7v-11h21v11h6v-28h-6v12h-21v-12h-7zM647 355l-48 289h-60l-49 -289l23 -14l22 14l11 66h45l10 -66l24 -14zM1021 6h23
v17h-23v-17zM867 164q0 12 -11 12q-12 0 -12 -12v-73q0 -12 12 -12q11 0 11 12v73zM873 6h22v17h-22v-17zM833 24v-7h15q3 0 3 2v3q0 2 -3 2h-15zM698 6h22v17h-22v-17zM620 24v-6h15q3 0 3 2v2q0 2 -3 2h-15zM620 13v-7h15q3 0 3 2v3q0 2 -3 2h-15zM479 162q0 11 -11 11
h-12v-42h12q11 0 11 11v20zM382 163l-7 -52h15zM436 24v-8h15q3 0 3 2v4q0 2 -3 2h-15zM396 12h13l-7 12zM232 24v-6h16q3 0 3 2v2q0 2 -3 2h-16zM232 13v-7h16q3 0 3 2v3q0 2 -3 2h-16zM29 139h8q14 0 14 18q0 17 -14 17h-8v-35zM134 24v-7h15q3 0 3 2v3q0 2 -3 2h-15z
M29 80h8q16 0 16 19q0 21 -16 21h-8v-40zM568 578l17 -114h-33z" />
    <glyph glyph-name="one" unicode="1" 
d="M1135 94q2 -35 -32 -35q-32 0 -34 38l8 7l11 -6q1 -21 14 -21q13 1 13 16q0 9 -16 26q-12 11 -23 23q-5 12 -5 20q0 34 31 34t32 -31l-19 -4q-2 17 -13 17q-10 0 -10 -15q0 -10 26 -36q17 -17 17 -33zM1013 174h-21v20h63v-20h-22v-114l-10 -7l-10 7v114zM1104 0l17 36h4
l-17 -36h-4zM1062 1v28h5l14 -17l13 17h5v-28h-6v19l-12 -16h-1l-13 16v-19h-5zM570 800l85 -191l210 -24l-155 -140l43 -207l-182 104l-184 -104l43 204l-156 143l208 23zM929 194l26 -90v90h21v-134h-22l-28 86v-86h-20v115l-7 9l7 10h23zM1015 22q0 7 7 7h21q7 0 7 -7
v-14q0 -7 -7 -7h-21q-7 0 -7 7v14zM998 23h-18v-17h18v6l6 -1v-3q0 -7 -7 -7h-17q-7 0 -7 7v14q0 7 7 7h17q7 0 7 -7v-3l-6 -1v5zM856 196q32 0 32 -32v-73q0 -32 -32 -32t-32 32v73q0 32 32 32zM961 11q1 -1 1 -2v-6q0 -1 -1 -2h-8q-1 0 -1 1v9h9zM930 24v-23h-7v23h-13v5
h33v-5h-13zM773 60h-20v114l-7 10l7 10h57v-20h-37v-37h27v-20h-27v-57zM867 22q0 7 7 7h21q7 0 7 -7v-14q0 -7 -7 -7h-21q-7 0 -7 7v14zM826 1v28h25q7 0 7 -6v-6q0 -5 -7 -5h-18v-11h-7zM725 60h-55v134l10 8l10 -8v-114h35v-20zM809 24h-19v-6h18q7 0 7 -7v-3q0 -7 -7 -7
h-18q-7 0 -7 7l5 1v-3h21v6h-18q-7 0 -7 7v3q0 7 7 7h16q7 0 7 -6v-1l-5 -1v3zM765 23h-21v-17h21v6h-11v5h18v-9q0 -7 -7 -7h-20q-7 0 -7 7v14q0 7 7 7h20q7 0 7 -7l-7 -1v2zM599 60v114l-7 10l7 10h57v-20h-37v-37h27v-20h-27v-37h37v-20h-57zM691 22q0 7 7 7h22q7 0 7 -7
v-14q0 -7 -7 -7h-22q-7 0 -7 7v14zM656 1v28h7v-23h21v-5h-28zM549 58q-32 0 -32 32v73q0 33 32 33t32 -33v-15h-21v16q0 12 -11 12q-12 0 -12 -12v-73q0 -12 12 -12q11 0 11 12v26h-11l-8 9l8 11h32v-47q0 -32 -32 -32zM613 1v28h25q6 0 6 -6v-3q0 -4 -4 -5q5 -2 5 -5v-4
q0 -5 -9 -5h-23zM601 11v-10h-8q-2 0 -2 2v6q0 1 1 2h9zM467 194q32 0 32 -32v-19q0 -15 -11 -24l15 -59h-22l-12 51h-13v-51h-20v115l-7 9l7 10h31zM556 1v28h7v-23h21v-5h-28zM516 1v28h30v-5h-23v-6h13v-5h-13v-7h23v-5h-30zM372 91l-5 -31l-11 -6l-10 6l22 134h28
l23 -134l-11 -6l-11 6l-4 31h-21zM498 23h-21v-17h21v6h-11v5h18v-9q0 -7 -7 -7h-20q-7 0 -7 7v14q0 7 7 7h20q7 0 7 -7l-7 -1v2zM429 1v28h25q6 0 6 -6v-6q0 -6 -6 -6h-4l13 -10h-9l-12 10h-6v-10h-7zM383 1l16 28h7l16 -28h-7l-4 6h-18l-3 -6h-7zM271 116l-27 78h22
l15 -48l15 48h22l-27 -78v-56h-20v56zM363 1v12l-15 16h9l9 -11l10 11h8l-15 -15v-13h-6zM255 60h-55v134l9 8l11 -8v-114h35v-20zM323 1v28h7v-23h22v-5h-29zM288 1v28h6v-23h22v-5h-28zM186 60h-55v134l9 8l11 -8v-114h35v-20zM269 1v28h6v-28h-6zM226 1v28h25q6 0 6 -6
v-3q0 -3 -5 -5q5 -2 5 -5v-4q0 -5 -8 -5h-23zM200 0l17 36h4l-17 -36h-4zM113 60l-11 -7l-10 7v134h21v-134zM182 0l17 36h4l-17 -36h-4zM176 29q1 0 2 -1v-9h-10v9q1 1 3 1h5zM178 11v-10h-9l-1 1v9h10zM7 60v114l-7 9l7 11h30q35 0 35 -37q0 -19 -14 -27q17 -6 17 -32
q0 -38 -31 -38h-37zM127 1v28h25q7 0 7 -6v-6q0 -5 -7 -5h-18v-11h-7zM105 24v-23h-6v23h-13v5h33v-5h-14zM70 24v-23h-7v23h-13v5h33v-5h-13zM7 1v28h7v-11h21v11h6v-28h-6v12h-21v-12h-7zM647 355l-48 289h-60l-49 -289l23 -14l22 14l11 66h45l10 -66l24 -14zM1021 6h23
v17h-23v-17zM867 164q0 12 -11 12q-12 0 -12 -12v-73q0 -12 12 -12q11 0 11 12v73zM873 6h22v17h-22v-17zM833 24v-7h15q3 0 3 2v3q0 2 -3 2h-15zM698 6h22v17h-22v-17zM620 24v-6h15q3 0 3 2v2q0 2 -3 2h-15zM620 13v-7h15q3 0 3 2v3q0 2 -3 2h-15zM479 162q0 11 -11 11
h-12v-42h12q11 0 11 11v20zM382 163l-7 -52h15zM436 24v-8h15q3 0 3 2v4q0 2 -3 2h-15zM396 12h13l-7 12zM232 24v-6h16q3 0 3 2v2q0 2 -3 2h-16zM232 13v-7h16q3 0 3 2v3q0 2 -3 2h-16zM29 139h8q14 0 14 18q0 17 -14 17h-8v-35zM134 24v-7h15q3 0 3 2v3q0 2 -3 2h-15z
M29 80h8q16 0 16 19q0 21 -16 21h-8v-40zM568 578l17 -114h-33z" />
    <glyph glyph-name="two" unicode="2" 
d="M1135 94q2 -35 -32 -35q-32 0 -34 38l8 7l11 -6q1 -21 14 -21q13 1 13 16q0 9 -16 26q-12 11 -23 23q-5 12 -5 20q0 34 31 34t32 -31l-19 -4q-2 17 -13 17q-10 0 -10 -15q0 -10 26 -36q17 -17 17 -33zM1013 174h-21v20h63v-20h-22v-114l-10 -7l-10 7v114zM1104 0l17 36h4
l-17 -36h-4zM1062 1v28h5l14 -17l13 17h5v-28h-6v19l-12 -16h-1l-13 16v-19h-5zM570 800l85 -191l210 -24l-155 -140l43 -207l-182 104l-184 -104l43 204l-156 143l208 23zM929 194l26 -90v90h21v-134h-22l-28 86v-86h-20v115l-7 9l7 10h23zM1015 22q0 7 7 7h21q7 0 7 -7
v-14q0 -7 -7 -7h-21q-7 0 -7 7v14zM998 23h-18v-17h18v6l6 -1v-3q0 -7 -7 -7h-17q-7 0 -7 7v14q0 7 7 7h17q7 0 7 -7v-3l-6 -1v5zM856 196q32 0 32 -32v-73q0 -32 -32 -32t-32 32v73q0 32 32 32zM961 11q1 -1 1 -2v-6q0 -1 -1 -2h-8q-1 0 -1 1v9h9zM930 24v-23h-7v23h-13v5
h33v-5h-13zM773 60h-20v114l-7 10l7 10h57v-20h-37v-37h27v-20h-27v-57zM867 22q0 7 7 7h21q7 0 7 -7v-14q0 -7 -7 -7h-21q-7 0 -7 7v14zM826 1v28h25q7 0 7 -6v-6q0 -5 -7 -5h-18v-11h-7zM725 60h-55v134l10 8l10 -8v-114h35v-20zM809 24h-19v-6h18q7 0 7 -7v-3q0 -7 -7 -7
h-18q-7 0 -7 7l5 1v-3h21v6h-18q-7 0 -7 7v3q0 7 7 7h16q7 0 7 -6v-1l-5 -1v3zM765 23h-21v-17h21v6h-11v5h18v-9q0 -7 -7 -7h-20q-7 0 -7 7v14q0 7 7 7h20q7 0 7 -7l-7 -1v2zM599 60v114l-7 10l7 10h57v-20h-37v-37h27v-20h-27v-37h37v-20h-57zM691 22q0 7 7 7h22q7 0 7 -7
v-14q0 -7 -7 -7h-22q-7 0 -7 7v14zM656 1v28h7v-23h21v-5h-28zM549 58q-32 0 -32 32v73q0 33 32 33t32 -33v-15h-21v16q0 12 -11 12q-12 0 -12 -12v-73q0 -12 12 -12q11 0 11 12v26h-11l-8 9l8 11h32v-47q0 -32 -32 -32zM613 1v28h25q6 0 6 -6v-3q0 -4 -4 -5q5 -2 5 -5v-4
q0 -5 -9 -5h-23zM601 11v-10h-8q-2 0 -2 2v6q0 1 1 2h9zM467 194q32 0 32 -32v-19q0 -15 -11 -24l15 -59h-22l-12 51h-13v-51h-20v115l-7 9l7 10h31zM556 1v28h7v-23h21v-5h-28zM516 1v28h30v-5h-23v-6h13v-5h-13v-7h23v-5h-30zM372 91l-5 -31l-11 -6l-10 6l22 134h28
l23 -134l-11 -6l-11 6l-4 31h-21zM498 23h-21v-17h21v6h-11v5h18v-9q0 -7 -7 -7h-20q-7 0 -7 7v14q0 7 7 7h20q7 0 7 -7l-7 -1v2zM429 1v28h25q6 0 6 -6v-6q0 -6 -6 -6h-4l13 -10h-9l-12 10h-6v-10h-7zM383 1l16 28h7l16 -28h-7l-4 6h-18l-3 -6h-7zM271 116l-27 78h22
l15 -48l15 48h22l-27 -78v-56h-20v56zM363 1v12l-15 16h9l9 -11l10 11h8l-15 -15v-13h-6zM255 60h-55v134l9 8l11 -8v-114h35v-20zM323 1v28h7v-23h22v-5h-29zM288 1v28h6v-23h22v-5h-28zM186 60h-55v134l9 8l11 -8v-114h35v-20zM269 1v28h6v-28h-6zM226 1v28h25q6 0 6 -6
v-3q0 -3 -5 -5q5 -2 5 -5v-4q0 -5 -8 -5h-23zM200 0l17 36h4l-17 -36h-4zM113 60l-11 -7l-10 7v134h21v-134zM182 0l17 36h4l-17 -36h-4zM176 29q1 0 2 -1v-9h-10v9q1 1 3 1h5zM178 11v-10h-9l-1 1v9h10zM7 60v114l-7 9l7 11h30q35 0 35 -37q0 -19 -14 -27q17 -6 17 -32
q0 -38 -31 -38h-37zM127 1v28h25q7 0 7 -6v-6q0 -5 -7 -5h-18v-11h-7zM105 24v-23h-6v23h-13v5h33v-5h-14zM70 24v-23h-7v23h-13v5h33v-5h-13zM7 1v28h7v-11h21v11h6v-28h-6v12h-21v-12h-7zM647 355l-48 289h-60l-49 -289l23 -14l22 14l11 66h45l10 -66l24 -14zM1021 6h23
v17h-23v-17zM867 164q0 12 -11 12q-12 0 -12 -12v-73q0 -12 12 -12q11 0 11 12v73zM873 6h22v17h-22v-17zM833 24v-7h15q3 0 3 2v3q0 2 -3 2h-15zM698 6h22v17h-22v-17zM620 24v-6h15q3 0 3 2v2q0 2 -3 2h-15zM620 13v-7h15q3 0 3 2v3q0 2 -3 2h-15zM479 162q0 11 -11 11
h-12v-42h12q11 0 11 11v20zM382 163l-7 -52h15zM436 24v-8h15q3 0 3 2v4q0 2 -3 2h-15zM396 12h13l-7 12zM232 24v-6h16q3 0 3 2v2q0 2 -3 2h-16zM232 13v-7h16q3 0 3 2v3q0 2 -3 2h-16zM29 139h8q14 0 14 18q0 17 -14 17h-8v-35zM134 24v-7h15q3 0 3 2v3q0 2 -3 2h-15z
M29 80h8q16 0 16 19q0 21 -16 21h-8v-40zM568 578l17 -114h-33z" />
    <glyph glyph-name="three" unicode="3" 
d="M1135 94q2 -35 -32 -35q-32 0 -34 38l8 7l11 -6q1 -21 14 -21q13 1 13 16q0 9 -16 26q-12 11 -23 23q-5 12 -5 20q0 34 31 34t32 -31l-19 -4q-2 17 -13 17q-10 0 -10 -15q0 -10 26 -36q17 -17 17 -33zM1013 174h-21v20h63v-20h-22v-114l-10 -7l-10 7v114zM1104 0l17 36h4
l-17 -36h-4zM1062 1v28h5l14 -17l13 17h5v-28h-6v19l-12 -16h-1l-13 16v-19h-5zM570 800l85 -191l210 -24l-155 -140l43 -207l-182 104l-184 -104l43 204l-156 143l208 23zM929 194l26 -90v90h21v-134h-22l-28 86v-86h-20v115l-7 9l7 10h23zM1015 22q0 7 7 7h21q7 0 7 -7
v-14q0 -7 -7 -7h-21q-7 0 -7 7v14zM998 23h-18v-17h18v6l6 -1v-3q0 -7 -7 -7h-17q-7 0 -7 7v14q0 7 7 7h17q7 0 7 -7v-3l-6 -1v5zM856 196q32 0 32 -32v-73q0 -32 -32 -32t-32 32v73q0 32 32 32zM961 11q1 -1 1 -2v-6q0 -1 -1 -2h-8q-1 0 -1 1v9h9zM930 24v-23h-7v23h-13v5
h33v-5h-13zM773 60h-20v114l-7 10l7 10h57v-20h-37v-37h27v-20h-27v-57zM867 22q0 7 7 7h21q7 0 7 -7v-14q0 -7 -7 -7h-21q-7 0 -7 7v14zM826 1v28h25q7 0 7 -6v-6q0 -5 -7 -5h-18v-11h-7zM725 60h-55v134l10 8l10 -8v-114h35v-20zM809 24h-19v-6h18q7 0 7 -7v-3q0 -7 -7 -7
h-18q-7 0 -7 7l5 1v-3h21v6h-18q-7 0 -7 7v3q0 7 7 7h16q7 0 7 -6v-1l-5 -1v3zM765 23h-21v-17h21v6h-11v5h18v-9q0 -7 -7 -7h-20q-7 0 -7 7v14q0 7 7 7h20q7 0 7 -7l-7 -1v2zM599 60v114l-7 10l7 10h57v-20h-37v-37h27v-20h-27v-37h37v-20h-57zM691 22q0 7 7 7h22q7 0 7 -7
v-14q0 -7 -7 -7h-22q-7 0 -7 7v14zM656 1v28h7v-23h21v-5h-28zM549 58q-32 0 -32 32v73q0 33 32 33t32 -33v-15h-21v16q0 12 -11 12q-12 0 -12 -12v-73q0 -12 12 -12q11 0 11 12v26h-11l-8 9l8 11h32v-47q0 -32 -32 -32zM613 1v28h25q6 0 6 -6v-3q0 -4 -4 -5q5 -2 5 -5v-4
q0 -5 -9 -5h-23zM601 11v-10h-8q-2 0 -2 2v6q0 1 1 2h9zM467 194q32 0 32 -32v-19q0 -15 -11 -24l15 -59h-22l-12 51h-13v-51h-20v115l-7 9l7 10h31zM556 1v28h7v-23h21v-5h-28zM516 1v28h30v-5h-23v-6h13v-5h-13v-7h23v-5h-30zM372 91l-5 -31l-11 -6l-10 6l22 134h28
l23 -134l-11 -6l-11 6l-4 31h-21zM498 23h-21v-17h21v6h-11v5h18v-9q0 -7 -7 -7h-20q-7 0 -7 7v14q0 7 7 7h20q7 0 7 -7l-7 -1v2zM429 1v28h25q6 0 6 -6v-6q0 -6 -6 -6h-4l13 -10h-9l-12 10h-6v-10h-7zM383 1l16 28h7l16 -28h-7l-4 6h-18l-3 -6h-7zM271 116l-27 78h22
l15 -48l15 48h22l-27 -78v-56h-20v56zM363 1v12l-15 16h9l9 -11l10 11h8l-15 -15v-13h-6zM255 60h-55v134l9 8l11 -8v-114h35v-20zM323 1v28h7v-23h22v-5h-29zM288 1v28h6v-23h22v-5h-28zM186 60h-55v134l9 8l11 -8v-114h35v-20zM269 1v28h6v-28h-6zM226 1v28h25q6 0 6 -6
v-3q0 -3 -5 -5q5 -2 5 -5v-4q0 -5 -8 -5h-23zM200 0l17 36h4l-17 -36h-4zM113 60l-11 -7l-10 7v134h21v-134zM182 0l17 36h4l-17 -36h-4zM176 29q1 0 2 -1v-9h-10v9q1 1 3 1h5zM178 11v-10h-9l-1 1v9h10zM7 60v114l-7 9l7 11h30q35 0 35 -37q0 -19 -14 -27q17 -6 17 -32
q0 -38 -31 -38h-37zM127 1v28h25q7 0 7 -6v-6q0 -5 -7 -5h-18v-11h-7zM105 24v-23h-6v23h-13v5h33v-5h-14zM70 24v-23h-7v23h-13v5h33v-5h-13zM7 1v28h7v-11h21v11h6v-28h-6v12h-21v-12h-7zM647 355l-48 289h-60l-49 -289l23 -14l22 14l11 66h45l10 -66l24 -14zM1021 6h23
v17h-23v-17zM867 164q0 12 -11 12q-12 0 -12 -12v-73q0 -12 12 -12q11 0 11 12v73zM873 6h22v17h-22v-17zM833 24v-7h15q3 0 3 2v3q0 2 -3 2h-15zM698 6h22v17h-22v-17zM620 24v-6h15q3 0 3 2v2q0 2 -3 2h-15zM620 13v-7h15q3 0 3 2v3q0 2 -3 2h-15zM479 162q0 11 -11 11
h-12v-42h12q11 0 11 11v20zM382 163l-7 -52h15zM436 24v-8h15q3 0 3 2v4q0 2 -3 2h-15zM396 12h13l-7 12zM232 24v-6h16q3 0 3 2v2q0 2 -3 2h-16zM232 13v-7h16q3 0 3 2v3q0 2 -3 2h-16zM29 139h8q14 0 14 18q0 17 -14 17h-8v-35zM134 24v-7h15q3 0 3 2v3q0 2 -3 2h-15z
M29 80h8q16 0 16 19q0 21 -16 21h-8v-40zM568 578l17 -114h-33z" />
    <glyph glyph-name="four" unicode="4" 
d="M1135 94q2 -35 -32 -35q-32 0 -34 38l8 7l11 -6q1 -21 14 -21q13 1 13 16q0 9 -16 26q-12 11 -23 23q-5 12 -5 20q0 34 31 34t32 -31l-19 -4q-2 17 -13 17q-10 0 -10 -15q0 -10 26 -36q17 -17 17 -33zM1013 174h-21v20h63v-20h-22v-114l-10 -7l-10 7v114zM1104 0l17 36h4
l-17 -36h-4zM1062 1v28h5l14 -17l13 17h5v-28h-6v19l-12 -16h-1l-13 16v-19h-5zM570 800l85 -191l210 -24l-155 -140l43 -207l-182 104l-184 -104l43 204l-156 143l208 23zM929 194l26 -90v90h21v-134h-22l-28 86v-86h-20v115l-7 9l7 10h23zM1015 22q0 7 7 7h21q7 0 7 -7
v-14q0 -7 -7 -7h-21q-7 0 -7 7v14zM998 23h-18v-17h18v6l6 -1v-3q0 -7 -7 -7h-17q-7 0 -7 7v14q0 7 7 7h17q7 0 7 -7v-3l-6 -1v5zM856 196q32 0 32 -32v-73q0 -32 -32 -32t-32 32v73q0 32 32 32zM961 11q1 -1 1 -2v-6q0 -1 -1 -2h-8q-1 0 -1 1v9h9zM930 24v-23h-7v23h-13v5
h33v-5h-13zM773 60h-20v114l-7 10l7 10h57v-20h-37v-37h27v-20h-27v-57zM867 22q0 7 7 7h21q7 0 7 -7v-14q0 -7 -7 -7h-21q-7 0 -7 7v14zM826 1v28h25q7 0 7 -6v-6q0 -5 -7 -5h-18v-11h-7zM725 60h-55v134l10 8l10 -8v-114h35v-20zM809 24h-19v-6h18q7 0 7 -7v-3q0 -7 -7 -7
h-18q-7 0 -7 7l5 1v-3h21v6h-18q-7 0 -7 7v3q0 7 7 7h16q7 0 7 -6v-1l-5 -1v3zM765 23h-21v-17h21v6h-11v5h18v-9q0 -7 -7 -7h-20q-7 0 -7 7v14q0 7 7 7h20q7 0 7 -7l-7 -1v2zM599 60v114l-7 10l7 10h57v-20h-37v-37h27v-20h-27v-37h37v-20h-57zM691 22q0 7 7 7h22q7 0 7 -7
v-14q0 -7 -7 -7h-22q-7 0 -7 7v14zM656 1v28h7v-23h21v-5h-28zM549 58q-32 0 -32 32v73q0 33 32 33t32 -33v-15h-21v16q0 12 -11 12q-12 0 -12 -12v-73q0 -12 12 -12q11 0 11 12v26h-11l-8 9l8 11h32v-47q0 -32 -32 -32zM613 1v28h25q6 0 6 -6v-3q0 -4 -4 -5q5 -2 5 -5v-4
q0 -5 -9 -5h-23zM601 11v-10h-8q-2 0 -2 2v6q0 1 1 2h9zM467 194q32 0 32 -32v-19q0 -15 -11 -24l15 -59h-22l-12 51h-13v-51h-20v115l-7 9l7 10h31zM556 1v28h7v-23h21v-5h-28zM516 1v28h30v-5h-23v-6h13v-5h-13v-7h23v-5h-30zM372 91l-5 -31l-11 -6l-10 6l22 134h28
l23 -134l-11 -6l-11 6l-4 31h-21zM498 23h-21v-17h21v6h-11v5h18v-9q0 -7 -7 -7h-20q-7 0 -7 7v14q0 7 7 7h20q7 0 7 -7l-7 -1v2zM429 1v28h25q6 0 6 -6v-6q0 -6 -6 -6h-4l13 -10h-9l-12 10h-6v-10h-7zM383 1l16 28h7l16 -28h-7l-4 6h-18l-3 -6h-7zM271 116l-27 78h22
l15 -48l15 48h22l-27 -78v-56h-20v56zM363 1v12l-15 16h9l9 -11l10 11h8l-15 -15v-13h-6zM255 60h-55v134l9 8l11 -8v-114h35v-20zM323 1v28h7v-23h22v-5h-29zM288 1v28h6v-23h22v-5h-28zM186 60h-55v134l9 8l11 -8v-114h35v-20zM269 1v28h6v-28h-6zM226 1v28h25q6 0 6 -6
v-3q0 -3 -5 -5q5 -2 5 -5v-4q0 -5 -8 -5h-23zM200 0l17 36h4l-17 -36h-4zM113 60l-11 -7l-10 7v134h21v-134zM182 0l17 36h4l-17 -36h-4zM176 29q1 0 2 -1v-9h-10v9q1 1 3 1h5zM178 11v-10h-9l-1 1v9h10zM7 60v114l-7 9l7 11h30q35 0 35 -37q0 -19 -14 -27q17 -6 17 -32
q0 -38 -31 -38h-37zM127 1v28h25q7 0 7 -6v-6q0 -5 -7 -5h-18v-11h-7zM105 24v-23h-6v23h-13v5h33v-5h-14zM70 24v-23h-7v23h-13v5h33v-5h-13zM7 1v28h7v-11h21v11h6v-28h-6v12h-21v-12h-7zM647 355l-48 289h-60l-49 -289l23 -14l22 14l11 66h45l10 -66l24 -14zM1021 6h23
v17h-23v-17zM867 164q0 12 -11 12q-12 0 -12 -12v-73q0 -12 12 -12q11 0 11 12v73zM873 6h22v17h-22v-17zM833 24v-7h15q3 0 3 2v3q0 2 -3 2h-15zM698 6h22v17h-22v-17zM620 24v-6h15q3 0 3 2v2q0 2 -3 2h-15zM620 13v-7h15q3 0 3 2v3q0 2 -3 2h-15zM479 162q0 11 -11 11
h-12v-42h12q11 0 11 11v20zM382 163l-7 -52h15zM436 24v-8h15q3 0 3 2v4q0 2 -3 2h-15zM396 12h13l-7 12zM232 24v-6h16q3 0 3 2v2q0 2 -3 2h-16zM232 13v-7h16q3 0 3 2v3q0 2 -3 2h-16zM29 139h8q14 0 14 18q0 17 -14 17h-8v-35zM134 24v-7h15q3 0 3 2v3q0 2 -3 2h-15z
M29 80h8q16 0 16 19q0 21 -16 21h-8v-40zM568 578l17 -114h-33z" />
    <glyph glyph-name="five" unicode="5" 
d="M1135 94q2 -35 -32 -35q-32 0 -34 38l8 7l11 -6q1 -21 14 -21q13 1 13 16q0 9 -16 26q-12 11 -23 23q-5 12 -5 20q0 34 31 34t32 -31l-19 -4q-2 17 -13 17q-10 0 -10 -15q0 -10 26 -36q17 -17 17 -33zM1013 174h-21v20h63v-20h-22v-114l-10 -7l-10 7v114zM1104 0l17 36h4
l-17 -36h-4zM1062 1v28h5l14 -17l13 17h5v-28h-6v19l-12 -16h-1l-13 16v-19h-5zM570 800l85 -191l210 -24l-155 -140l43 -207l-182 104l-184 -104l43 204l-156 143l208 23zM929 194l26 -90v90h21v-134h-22l-28 86v-86h-20v115l-7 9l7 10h23zM1015 22q0 7 7 7h21q7 0 7 -7
v-14q0 -7 -7 -7h-21q-7 0 -7 7v14zM998 23h-18v-17h18v6l6 -1v-3q0 -7 -7 -7h-17q-7 0 -7 7v14q0 7 7 7h17q7 0 7 -7v-3l-6 -1v5zM856 196q32 0 32 -32v-73q0 -32 -32 -32t-32 32v73q0 32 32 32zM961 11q1 -1 1 -2v-6q0 -1 -1 -2h-8q-1 0 -1 1v9h9zM930 24v-23h-7v23h-13v5
h33v-5h-13zM773 60h-20v114l-7 10l7 10h57v-20h-37v-37h27v-20h-27v-57zM867 22q0 7 7 7h21q7 0 7 -7v-14q0 -7 -7 -7h-21q-7 0 -7 7v14zM826 1v28h25q7 0 7 -6v-6q0 -5 -7 -5h-18v-11h-7zM725 60h-55v134l10 8l10 -8v-114h35v-20zM809 24h-19v-6h18q7 0 7 -7v-3q0 -7 -7 -7
h-18q-7 0 -7 7l5 1v-3h21v6h-18q-7 0 -7 7v3q0 7 7 7h16q7 0 7 -6v-1l-5 -1v3zM765 23h-21v-17h21v6h-11v5h18v-9q0 -7 -7 -7h-20q-7 0 -7 7v14q0 7 7 7h20q7 0 7 -7l-7 -1v2zM599 60v114l-7 10l7 10h57v-20h-37v-37h27v-20h-27v-37h37v-20h-57zM691 22q0 7 7 7h22q7 0 7 -7
v-14q0 -7 -7 -7h-22q-7 0 -7 7v14zM656 1v28h7v-23h21v-5h-28zM549 58q-32 0 -32 32v73q0 33 32 33t32 -33v-15h-21v16q0 12 -11 12q-12 0 -12 -12v-73q0 -12 12 -12q11 0 11 12v26h-11l-8 9l8 11h32v-47q0 -32 -32 -32zM613 1v28h25q6 0 6 -6v-3q0 -4 -4 -5q5 -2 5 -5v-4
q0 -5 -9 -5h-23zM601 11v-10h-8q-2 0 -2 2v6q0 1 1 2h9zM467 194q32 0 32 -32v-19q0 -15 -11 -24l15 -59h-22l-12 51h-13v-51h-20v115l-7 9l7 10h31zM556 1v28h7v-23h21v-5h-28zM516 1v28h30v-5h-23v-6h13v-5h-13v-7h23v-5h-30zM372 91l-5 -31l-11 -6l-10 6l22 134h28
l23 -134l-11 -6l-11 6l-4 31h-21zM498 23h-21v-17h21v6h-11v5h18v-9q0 -7 -7 -7h-20q-7 0 -7 7v14q0 7 7 7h20q7 0 7 -7l-7 -1v2zM429 1v28h25q6 0 6 -6v-6q0 -6 -6 -6h-4l13 -10h-9l-12 10h-6v-10h-7zM383 1l16 28h7l16 -28h-7l-4 6h-18l-3 -6h-7zM271 116l-27 78h22
l15 -48l15 48h22l-27 -78v-56h-20v56zM363 1v12l-15 16h9l9 -11l10 11h8l-15 -15v-13h-6zM255 60h-55v134l9 8l11 -8v-114h35v-20zM323 1v28h7v-23h22v-5h-29zM288 1v28h6v-23h22v-5h-28zM186 60h-55v134l9 8l11 -8v-114h35v-20zM269 1v28h6v-28h-6zM226 1v28h25q6 0 6 -6
v-3q0 -3 -5 -5q5 -2 5 -5v-4q0 -5 -8 -5h-23zM200 0l17 36h4l-17 -36h-4zM113 60l-11 -7l-10 7v134h21v-134zM182 0l17 36h4l-17 -36h-4zM176 29q1 0 2 -1v-9h-10v9q1 1 3 1h5zM178 11v-10h-9l-1 1v9h10zM7 60v114l-7 9l7 11h30q35 0 35 -37q0 -19 -14 -27q17 -6 17 -32
q0 -38 -31 -38h-37zM127 1v28h25q7 0 7 -6v-6q0 -5 -7 -5h-18v-11h-7zM105 24v-23h-6v23h-13v5h33v-5h-14zM70 24v-23h-7v23h-13v5h33v-5h-13zM7 1v28h7v-11h21v11h6v-28h-6v12h-21v-12h-7zM647 355l-48 289h-60l-49 -289l23 -14l22 14l11 66h45l10 -66l24 -14zM1021 6h23
v17h-23v-17zM867 164q0 12 -11 12q-12 0 -12 -12v-73q0 -12 12 -12q11 0 11 12v73zM873 6h22v17h-22v-17zM833 24v-7h15q3 0 3 2v3q0 2 -3 2h-15zM698 6h22v17h-22v-17zM620 24v-6h15q3 0 3 2v2q0 2 -3 2h-15zM620 13v-7h15q3 0 3 2v3q0 2 -3 2h-15zM479 162q0 11 -11 11
h-12v-42h12q11 0 11 11v20zM382 163l-7 -52h15zM436 24v-8h15q3 0 3 2v4q0 2 -3 2h-15zM396 12h13l-7 12zM232 24v-6h16q3 0 3 2v2q0 2 -3 2h-16zM232 13v-7h16q3 0 3 2v3q0 2 -3 2h-16zM29 139h8q14 0 14 18q0 17 -14 17h-8v-35zM134 24v-7h15q3 0 3 2v3q0 2 -3 2h-15z
M29 80h8q16 0 16 19q0 21 -16 21h-8v-40zM568 578l17 -114h-33z" />
    <glyph glyph-name="six" unicode="6" 
d="M1135 94q2 -35 -32 -35q-32 0 -34 38l8 7l11 -6q1 -21 14 -21q13 1 13 16q0 9 -16 26q-12 11 -23 23q-5 12 -5 20q0 34 31 34t32 -31l-19 -4q-2 17 -13 17q-10 0 -10 -15q0 -10 26 -36q17 -17 17 -33zM1013 174h-21v20h63v-20h-22v-114l-10 -7l-10 7v114zM1104 0l17 36h4
l-17 -36h-4zM1062 1v28h5l14 -17l13 17h5v-28h-6v19l-12 -16h-1l-13 16v-19h-5zM570 800l85 -191l210 -24l-155 -140l43 -207l-182 104l-184 -104l43 204l-156 143l208 23zM929 194l26 -90v90h21v-134h-22l-28 86v-86h-20v115l-7 9l7 10h23zM1015 22q0 7 7 7h21q7 0 7 -7
v-14q0 -7 -7 -7h-21q-7 0 -7 7v14zM998 23h-18v-17h18v6l6 -1v-3q0 -7 -7 -7h-17q-7 0 -7 7v14q0 7 7 7h17q7 0 7 -7v-3l-6 -1v5zM856 196q32 0 32 -32v-73q0 -32 -32 -32t-32 32v73q0 32 32 32zM961 11q1 -1 1 -2v-6q0 -1 -1 -2h-8q-1 0 -1 1v9h9zM930 24v-23h-7v23h-13v5
h33v-5h-13zM773 60h-20v114l-7 10l7 10h57v-20h-37v-37h27v-20h-27v-57zM867 22q0 7 7 7h21q7 0 7 -7v-14q0 -7 -7 -7h-21q-7 0 -7 7v14zM826 1v28h25q7 0 7 -6v-6q0 -5 -7 -5h-18v-11h-7zM725 60h-55v134l10 8l10 -8v-114h35v-20zM809 24h-19v-6h18q7 0 7 -7v-3q0 -7 -7 -7
h-18q-7 0 -7 7l5 1v-3h21v6h-18q-7 0 -7 7v3q0 7 7 7h16q7 0 7 -6v-1l-5 -1v3zM765 23h-21v-17h21v6h-11v5h18v-9q0 -7 -7 -7h-20q-7 0 -7 7v14q0 7 7 7h20q7 0 7 -7l-7 -1v2zM599 60v114l-7 10l7 10h57v-20h-37v-37h27v-20h-27v-37h37v-20h-57zM691 22q0 7 7 7h22q7 0 7 -7
v-14q0 -7 -7 -7h-22q-7 0 -7 7v14zM656 1v28h7v-23h21v-5h-28zM549 58q-32 0 -32 32v73q0 33 32 33t32 -33v-15h-21v16q0 12 -11 12q-12 0 -12 -12v-73q0 -12 12 -12q11 0 11 12v26h-11l-8 9l8 11h32v-47q0 -32 -32 -32zM613 1v28h25q6 0 6 -6v-3q0 -4 -4 -5q5 -2 5 -5v-4
q0 -5 -9 -5h-23zM601 11v-10h-8q-2 0 -2 2v6q0 1 1 2h9zM467 194q32 0 32 -32v-19q0 -15 -11 -24l15 -59h-22l-12 51h-13v-51h-20v115l-7 9l7 10h31zM556 1v28h7v-23h21v-5h-28zM516 1v28h30v-5h-23v-6h13v-5h-13v-7h23v-5h-30zM372 91l-5 -31l-11 -6l-10 6l22 134h28
l23 -134l-11 -6l-11 6l-4 31h-21zM498 23h-21v-17h21v6h-11v5h18v-9q0 -7 -7 -7h-20q-7 0 -7 7v14q0 7 7 7h20q7 0 7 -7l-7 -1v2zM429 1v28h25q6 0 6 -6v-6q0 -6 -6 -6h-4l13 -10h-9l-12 10h-6v-10h-7zM383 1l16 28h7l16 -28h-7l-4 6h-18l-3 -6h-7zM271 116l-27 78h22
l15 -48l15 48h22l-27 -78v-56h-20v56zM363 1v12l-15 16h9l9 -11l10 11h8l-15 -15v-13h-6zM255 60h-55v134l9 8l11 -8v-114h35v-20zM323 1v28h7v-23h22v-5h-29zM288 1v28h6v-23h22v-5h-28zM186 60h-55v134l9 8l11 -8v-114h35v-20zM269 1v28h6v-28h-6zM226 1v28h25q6 0 6 -6
v-3q0 -3 -5 -5q5 -2 5 -5v-4q0 -5 -8 -5h-23zM200 0l17 36h4l-17 -36h-4zM113 60l-11 -7l-10 7v134h21v-134zM182 0l17 36h4l-17 -36h-4zM176 29q1 0 2 -1v-9h-10v9q1 1 3 1h5zM178 11v-10h-9l-1 1v9h10zM7 60v114l-7 9l7 11h30q35 0 35 -37q0 -19 -14 -27q17 -6 17 -32
q0 -38 -31 -38h-37zM127 1v28h25q7 0 7 -6v-6q0 -5 -7 -5h-18v-11h-7zM105 24v-23h-6v23h-13v5h33v-5h-14zM70 24v-23h-7v23h-13v5h33v-5h-13zM7 1v28h7v-11h21v11h6v-28h-6v12h-21v-12h-7zM647 355l-48 289h-60l-49 -289l23 -14l22 14l11 66h45l10 -66l24 -14zM1021 6h23
v17h-23v-17zM867 164q0 12 -11 12q-12 0 -12 -12v-73q0 -12 12 -12q11 0 11 12v73zM873 6h22v17h-22v-17zM833 24v-7h15q3 0 3 2v3q0 2 -3 2h-15zM698 6h22v17h-22v-17zM620 24v-6h15q3 0 3 2v2q0 2 -3 2h-15zM620 13v-7h15q3 0 3 2v3q0 2 -3 2h-15zM479 162q0 11 -11 11
h-12v-42h12q11 0 11 11v20zM382 163l-7 -52h15zM436 24v-8h15q3 0 3 2v4q0 2 -3 2h-15zM396 12h13l-7 12zM232 24v-6h16q3 0 3 2v2q0 2 -3 2h-16zM232 13v-7h16q3 0 3 2v3q0 2 -3 2h-16zM29 139h8q14 0 14 18q0 17 -14 17h-8v-35zM134 24v-7h15q3 0 3 2v3q0 2 -3 2h-15z
M29 80h8q16 0 16 19q0 21 -16 21h-8v-40zM568 578l17 -114h-33z" />
    <glyph glyph-name="seven" unicode="7" 
d="M1135 94q2 -35 -32 -35q-32 0 -34 38l8 7l11 -6q1 -21 14 -21q13 1 13 16q0 9 -16 26q-12 11 -23 23q-5 12 -5 20q0 34 31 34t32 -31l-19 -4q-2 17 -13 17q-10 0 -10 -15q0 -10 26 -36q17 -17 17 -33zM1013 174h-21v20h63v-20h-22v-114l-10 -7l-10 7v114zM1104 0l17 36h4
l-17 -36h-4zM1062 1v28h5l14 -17l13 17h5v-28h-6v19l-12 -16h-1l-13 16v-19h-5zM570 800l85 -191l210 -24l-155 -140l43 -207l-182 104l-184 -104l43 204l-156 143l208 23zM929 194l26 -90v90h21v-134h-22l-28 86v-86h-20v115l-7 9l7 10h23zM1015 22q0 7 7 7h21q7 0 7 -7
v-14q0 -7 -7 -7h-21q-7 0 -7 7v14zM998 23h-18v-17h18v6l6 -1v-3q0 -7 -7 -7h-17q-7 0 -7 7v14q0 7 7 7h17q7 0 7 -7v-3l-6 -1v5zM856 196q32 0 32 -32v-73q0 -32 -32 -32t-32 32v73q0 32 32 32zM961 11q1 -1 1 -2v-6q0 -1 -1 -2h-8q-1 0 -1 1v9h9zM930 24v-23h-7v23h-13v5
h33v-5h-13zM773 60h-20v114l-7 10l7 10h57v-20h-37v-37h27v-20h-27v-57zM867 22q0 7 7 7h21q7 0 7 -7v-14q0 -7 -7 -7h-21q-7 0 -7 7v14zM826 1v28h25q7 0 7 -6v-6q0 -5 -7 -5h-18v-11h-7zM725 60h-55v134l10 8l10 -8v-114h35v-20zM809 24h-19v-6h18q7 0 7 -7v-3q0 -7 -7 -7
h-18q-7 0 -7 7l5 1v-3h21v6h-18q-7 0 -7 7v3q0 7 7 7h16q7 0 7 -6v-1l-5 -1v3zM765 23h-21v-17h21v6h-11v5h18v-9q0 -7 -7 -7h-20q-7 0 -7 7v14q0 7 7 7h20q7 0 7 -7l-7 -1v2zM599 60v114l-7 10l7 10h57v-20h-37v-37h27v-20h-27v-37h37v-20h-57zM691 22q0 7 7 7h22q7 0 7 -7
v-14q0 -7 -7 -7h-22q-7 0 -7 7v14zM656 1v28h7v-23h21v-5h-28zM549 58q-32 0 -32 32v73q0 33 32 33t32 -33v-15h-21v16q0 12 -11 12q-12 0 -12 -12v-73q0 -12 12 -12q11 0 11 12v26h-11l-8 9l8 11h32v-47q0 -32 -32 -32zM613 1v28h25q6 0 6 -6v-3q0 -4 -4 -5q5 -2 5 -5v-4
q0 -5 -9 -5h-23zM601 11v-10h-8q-2 0 -2 2v6q0 1 1 2h9zM467 194q32 0 32 -32v-19q0 -15 -11 -24l15 -59h-22l-12 51h-13v-51h-20v115l-7 9l7 10h31zM556 1v28h7v-23h21v-5h-28zM516 1v28h30v-5h-23v-6h13v-5h-13v-7h23v-5h-30zM372 91l-5 -31l-11 -6l-10 6l22 134h28
l23 -134l-11 -6l-11 6l-4 31h-21zM498 23h-21v-17h21v6h-11v5h18v-9q0 -7 -7 -7h-20q-7 0 -7 7v14q0 7 7 7h20q7 0 7 -7l-7 -1v2zM429 1v28h25q6 0 6 -6v-6q0 -6 -6 -6h-4l13 -10h-9l-12 10h-6v-10h-7zM383 1l16 28h7l16 -28h-7l-4 6h-18l-3 -6h-7zM271 116l-27 78h22
l15 -48l15 48h22l-27 -78v-56h-20v56zM363 1v12l-15 16h9l9 -11l10 11h8l-15 -15v-13h-6zM255 60h-55v134l9 8l11 -8v-114h35v-20zM323 1v28h7v-23h22v-5h-29zM288 1v28h6v-23h22v-5h-28zM186 60h-55v134l9 8l11 -8v-114h35v-20zM269 1v28h6v-28h-6zM226 1v28h25q6 0 6 -6
v-3q0 -3 -5 -5q5 -2 5 -5v-4q0 -5 -8 -5h-23zM200 0l17 36h4l-17 -36h-4zM113 60l-11 -7l-10 7v134h21v-134zM182 0l17 36h4l-17 -36h-4zM176 29q1 0 2 -1v-9h-10v9q1 1 3 1h5zM178 11v-10h-9l-1 1v9h10zM7 60v114l-7 9l7 11h30q35 0 35 -37q0 -19 -14 -27q17 -6 17 -32
q0 -38 -31 -38h-37zM127 1v28h25q7 0 7 -6v-6q0 -5 -7 -5h-18v-11h-7zM105 24v-23h-6v23h-13v5h33v-5h-14zM70 24v-23h-7v23h-13v5h33v-5h-13zM7 1v28h7v-11h21v11h6v-28h-6v12h-21v-12h-7zM647 355l-48 289h-60l-49 -289l23 -14l22 14l11 66h45l10 -66l24 -14zM1021 6h23
v17h-23v-17zM867 164q0 12 -11 12q-12 0 -12 -12v-73q0 -12 12 -12q11 0 11 12v73zM873 6h22v17h-22v-17zM833 24v-7h15q3 0 3 2v3q0 2 -3 2h-15zM698 6h22v17h-22v-17zM620 24v-6h15q3 0 3 2v2q0 2 -3 2h-15zM620 13v-7h15q3 0 3 2v3q0 2 -3 2h-15zM479 162q0 11 -11 11
h-12v-42h12q11 0 11 11v20zM382 163l-7 -52h15zM436 24v-8h15q3 0 3 2v4q0 2 -3 2h-15zM396 12h13l-7 12zM232 24v-6h16q3 0 3 2v2q0 2 -3 2h-16zM232 13v-7h16q3 0 3 2v3q0 2 -3 2h-16zM29 139h8q14 0 14 18q0 17 -14 17h-8v-35zM134 24v-7h15q3 0 3 2v3q0 2 -3 2h-15z
M29 80h8q16 0 16 19q0 21 -16 21h-8v-40zM568 578l17 -114h-33z" />
    <glyph glyph-name="eight" unicode="8" 
d="M1135 94q2 -35 -32 -35q-32 0 -34 38l8 7l11 -6q1 -21 14 -21q13 1 13 16q0 9 -16 26q-12 11 -23 23q-5 12 -5 20q0 34 31 34t32 -31l-19 -4q-2 17 -13 17q-10 0 -10 -15q0 -10 26 -36q17 -17 17 -33zM1013 174h-21v20h63v-20h-22v-114l-10 -7l-10 7v114zM1104 0l17 36h4
l-17 -36h-4zM1062 1v28h5l14 -17l13 17h5v-28h-6v19l-12 -16h-1l-13 16v-19h-5zM570 800l85 -191l210 -24l-155 -140l43 -207l-182 104l-184 -104l43 204l-156 143l208 23zM929 194l26 -90v90h21v-134h-22l-28 86v-86h-20v115l-7 9l7 10h23zM1015 22q0 7 7 7h21q7 0 7 -7
v-14q0 -7 -7 -7h-21q-7 0 -7 7v14zM998 23h-18v-17h18v6l6 -1v-3q0 -7 -7 -7h-17q-7 0 -7 7v14q0 7 7 7h17q7 0 7 -7v-3l-6 -1v5zM856 196q32 0 32 -32v-73q0 -32 -32 -32t-32 32v73q0 32 32 32zM961 11q1 -1 1 -2v-6q0 -1 -1 -2h-8q-1 0 -1 1v9h9zM930 24v-23h-7v23h-13v5
h33v-5h-13zM773 60h-20v114l-7 10l7 10h57v-20h-37v-37h27v-20h-27v-57zM867 22q0 7 7 7h21q7 0 7 -7v-14q0 -7 -7 -7h-21q-7 0 -7 7v14zM826 1v28h25q7 0 7 -6v-6q0 -5 -7 -5h-18v-11h-7zM725 60h-55v134l10 8l10 -8v-114h35v-20zM809 24h-19v-6h18q7 0 7 -7v-3q0 -7 -7 -7
h-18q-7 0 -7 7l5 1v-3h21v6h-18q-7 0 -7 7v3q0 7 7 7h16q7 0 7 -6v-1l-5 -1v3zM765 23h-21v-17h21v6h-11v5h18v-9q0 -7 -7 -7h-20q-7 0 -7 7v14q0 7 7 7h20q7 0 7 -7l-7 -1v2zM599 60v114l-7 10l7 10h57v-20h-37v-37h27v-20h-27v-37h37v-20h-57zM691 22q0 7 7 7h22q7 0 7 -7
v-14q0 -7 -7 -7h-22q-7 0 -7 7v14zM656 1v28h7v-23h21v-5h-28zM549 58q-32 0 -32 32v73q0 33 32 33t32 -33v-15h-21v16q0 12 -11 12q-12 0 -12 -12v-73q0 -12 12 -12q11 0 11 12v26h-11l-8 9l8 11h32v-47q0 -32 -32 -32zM613 1v28h25q6 0 6 -6v-3q0 -4 -4 -5q5 -2 5 -5v-4
q0 -5 -9 -5h-23zM601 11v-10h-8q-2 0 -2 2v6q0 1 1 2h9zM467 194q32 0 32 -32v-19q0 -15 -11 -24l15 -59h-22l-12 51h-13v-51h-20v115l-7 9l7 10h31zM556 1v28h7v-23h21v-5h-28zM516 1v28h30v-5h-23v-6h13v-5h-13v-7h23v-5h-30zM372 91l-5 -31l-11 -6l-10 6l22 134h28
l23 -134l-11 -6l-11 6l-4 31h-21zM498 23h-21v-17h21v6h-11v5h18v-9q0 -7 -7 -7h-20q-7 0 -7 7v14q0 7 7 7h20q7 0 7 -7l-7 -1v2zM429 1v28h25q6 0 6 -6v-6q0 -6 -6 -6h-4l13 -10h-9l-12 10h-6v-10h-7zM383 1l16 28h7l16 -28h-7l-4 6h-18l-3 -6h-7zM271 116l-27 78h22
l15 -48l15 48h22l-27 -78v-56h-20v56zM363 1v12l-15 16h9l9 -11l10 11h8l-15 -15v-13h-6zM255 60h-55v134l9 8l11 -8v-114h35v-20zM323 1v28h7v-23h22v-5h-29zM288 1v28h6v-23h22v-5h-28zM186 60h-55v134l9 8l11 -8v-114h35v-20zM269 1v28h6v-28h-6zM226 1v28h25q6 0 6 -6
v-3q0 -3 -5 -5q5 -2 5 -5v-4q0 -5 -8 -5h-23zM200 0l17 36h4l-17 -36h-4zM113 60l-11 -7l-10 7v134h21v-134zM182 0l17 36h4l-17 -36h-4zM176 29q1 0 2 -1v-9h-10v9q1 1 3 1h5zM178 11v-10h-9l-1 1v9h10zM7 60v114l-7 9l7 11h30q35 0 35 -37q0 -19 -14 -27q17 -6 17 -32
q0 -38 -31 -38h-37zM127 1v28h25q7 0 7 -6v-6q0 -5 -7 -5h-18v-11h-7zM105 24v-23h-6v23h-13v5h33v-5h-14zM70 24v-23h-7v23h-13v5h33v-5h-13zM7 1v28h7v-11h21v11h6v-28h-6v12h-21v-12h-7zM647 355l-48 289h-60l-49 -289l23 -14l22 14l11 66h45l10 -66l24 -14zM1021 6h23
v17h-23v-17zM867 164q0 12 -11 12q-12 0 -12 -12v-73q0 -12 12 -12q11 0 11 12v73zM873 6h22v17h-22v-17zM833 24v-7h15q3 0 3 2v3q0 2 -3 2h-15zM698 6h22v17h-22v-17zM620 24v-6h15q3 0 3 2v2q0 2 -3 2h-15zM620 13v-7h15q3 0 3 2v3q0 2 -3 2h-15zM479 162q0 11 -11 11
h-12v-42h12q11 0 11 11v20zM382 163l-7 -52h15zM436 24v-8h15q3 0 3 2v4q0 2 -3 2h-15zM396 12h13l-7 12zM232 24v-6h16q3 0 3 2v2q0 2 -3 2h-16zM232 13v-7h16q3 0 3 2v3q0 2 -3 2h-16zM29 139h8q14 0 14 18q0 17 -14 17h-8v-35zM134 24v-7h15q3 0 3 2v3q0 2 -3 2h-15z
M29 80h8q16 0 16 19q0 21 -16 21h-8v-40zM568 578l17 -114h-33z" />
    <glyph glyph-name="nine" unicode="9" 
d="M1135 94q2 -35 -32 -35q-32 0 -34 38l8 7l11 -6q1 -21 14 -21q13 1 13 16q0 9 -16 26q-12 11 -23 23q-5 12 -5 20q0 34 31 34t32 -31l-19 -4q-2 17 -13 17q-10 0 -10 -15q0 -10 26 -36q17 -17 17 -33zM1013 174h-21v20h63v-20h-22v-114l-10 -7l-10 7v114zM1104 0l17 36h4
l-17 -36h-4zM1062 1v28h5l14 -17l13 17h5v-28h-6v19l-12 -16h-1l-13 16v-19h-5zM570 800l85 -191l210 -24l-155 -140l43 -207l-182 104l-184 -104l43 204l-156 143l208 23zM929 194l26 -90v90h21v-134h-22l-28 86v-86h-20v115l-7 9l7 10h23zM1015 22q0 7 7 7h21q7 0 7 -7
v-14q0 -7 -7 -7h-21q-7 0 -7 7v14zM998 23h-18v-17h18v6l6 -1v-3q0 -7 -7 -7h-17q-7 0 -7 7v14q0 7 7 7h17q7 0 7 -7v-3l-6 -1v5zM856 196q32 0 32 -32v-73q0 -32 -32 -32t-32 32v73q0 32 32 32zM961 11q1 -1 1 -2v-6q0 -1 -1 -2h-8q-1 0 -1 1v9h9zM930 24v-23h-7v23h-13v5
h33v-5h-13zM773 60h-20v114l-7 10l7 10h57v-20h-37v-37h27v-20h-27v-57zM867 22q0 7 7 7h21q7 0 7 -7v-14q0 -7 -7 -7h-21q-7 0 -7 7v14zM826 1v28h25q7 0 7 -6v-6q0 -5 -7 -5h-18v-11h-7zM725 60h-55v134l10 8l10 -8v-114h35v-20zM809 24h-19v-6h18q7 0 7 -7v-3q0 -7 -7 -7
h-18q-7 0 -7 7l5 1v-3h21v6h-18q-7 0 -7 7v3q0 7 7 7h16q7 0 7 -6v-1l-5 -1v3zM765 23h-21v-17h21v6h-11v5h18v-9q0 -7 -7 -7h-20q-7 0 -7 7v14q0 7 7 7h20q7 0 7 -7l-7 -1v2zM599 60v114l-7 10l7 10h57v-20h-37v-37h27v-20h-27v-37h37v-20h-57zM691 22q0 7 7 7h22q7 0 7 -7
v-14q0 -7 -7 -7h-22q-7 0 -7 7v14zM656 1v28h7v-23h21v-5h-28zM549 58q-32 0 -32 32v73q0 33 32 33t32 -33v-15h-21v16q0 12 -11 12q-12 0 -12 -12v-73q0 -12 12 -12q11 0 11 12v26h-11l-8 9l8 11h32v-47q0 -32 -32 -32zM613 1v28h25q6 0 6 -6v-3q0 -4 -4 -5q5 -2 5 -5v-4
q0 -5 -9 -5h-23zM601 11v-10h-8q-2 0 -2 2v6q0 1 1 2h9zM467 194q32 0 32 -32v-19q0 -15 -11 -24l15 -59h-22l-12 51h-13v-51h-20v115l-7 9l7 10h31zM556 1v28h7v-23h21v-5h-28zM516 1v28h30v-5h-23v-6h13v-5h-13v-7h23v-5h-30zM372 91l-5 -31l-11 -6l-10 6l22 134h28
l23 -134l-11 -6l-11 6l-4 31h-21zM498 23h-21v-17h21v6h-11v5h18v-9q0 -7 -7 -7h-20q-7 0 -7 7v14q0 7 7 7h20q7 0 7 -7l-7 -1v2zM429 1v28h25q6 0 6 -6v-6q0 -6 -6 -6h-4l13 -10h-9l-12 10h-6v-10h-7zM383 1l16 28h7l16 -28h-7l-4 6h-18l-3 -6h-7zM271 116l-27 78h22
l15 -48l15 48h22l-27 -78v-56h-20v56zM363 1v12l-15 16h9l9 -11l10 11h8l-15 -15v-13h-6zM255 60h-55v134l9 8l11 -8v-114h35v-20zM323 1v28h7v-23h22v-5h-29zM288 1v28h6v-23h22v-5h-28zM186 60h-55v134l9 8l11 -8v-114h35v-20zM269 1v28h6v-28h-6zM226 1v28h25q6 0 6 -6
v-3q0 -3 -5 -5q5 -2 5 -5v-4q0 -5 -8 -5h-23zM200 0l17 36h4l-17 -36h-4zM113 60l-11 -7l-10 7v134h21v-134zM182 0l17 36h4l-17 -36h-4zM176 29q1 0 2 -1v-9h-10v9q1 1 3 1h5zM178 11v-10h-9l-1 1v9h10zM7 60v114l-7 9l7 11h30q35 0 35 -37q0 -19 -14 -27q17 -6 17 -32
q0 -38 -31 -38h-37zM127 1v28h25q7 0 7 -6v-6q0 -5 -7 -5h-18v-11h-7zM105 24v-23h-6v23h-13v5h33v-5h-14zM70 24v-23h-7v23h-13v5h33v-5h-13zM7 1v28h7v-11h21v11h6v-28h-6v12h-21v-12h-7zM647 355l-48 289h-60l-49 -289l23 -14l22 14l11 66h45l10 -66l24 -14zM1021 6h23
v17h-23v-17zM867 164q0 12 -11 12q-12 0 -12 -12v-73q0 -12 12 -12q11 0 11 12v73zM873 6h22v17h-22v-17zM833 24v-7h15q3 0 3 2v3q0 2 -3 2h-15zM698 6h22v17h-22v-17zM620 24v-6h15q3 0 3 2v2q0 2 -3 2h-15zM620 13v-7h15q3 0 3 2v3q0 2 -3 2h-15zM479 162q0 11 -11 11
h-12v-42h12q11 0 11 11v20zM382 163l-7 -52h15zM436 24v-8h15q3 0 3 2v4q0 2 -3 2h-15zM396 12h13l-7 12zM232 24v-6h16q3 0 3 2v2q0 2 -3 2h-16zM232 13v-7h16q3 0 3 2v3q0 2 -3 2h-16zM29 139h8q14 0 14 18q0 17 -14 17h-8v-35zM134 24v-7h15q3 0 3 2v3q0 2 -3 2h-15z
M29 80h8q16 0 16 19q0 21 -16 21h-8v-40zM568 578l17 -114h-33z" />
    </font>
</defs>
</svg>
