<?xml version="1.0" standalone="no"?>
<!DOCTYPE svg PUBLIC "-//W3C//DTD SVG 1.1//EN" "http://www.w3.org/Graphics/SVG/1.1/DTD/svg11.dtd" >
<svg xmlns="http://www.w3.org/2000/svg" xmlns:xlink="http://www.w3.org/1999/xlink" version="1.1">
<metadata>
Created by FontForge 20170924 at Wed Jun 23 12:36:16 1999
 By www-data
(c) Bright Ideas
</metadata>
<defs>
<font id="BlackRose" horiz-adv-x="445" >
  <font-face 
    font-family="Black Rose"
    font-weight="400"
    font-stretch="normal"
    units-per-em="1000"
    panose-1="0 0 4 0 0 0 0 0 0 0"
    ascent="800"
    descent="-200"
    x-height="355"
    cap-height="683"
    bbox="-152.581 -358 1119.12 934"
    underline-thickness="17"
    underline-position="-124"
    unicode-range="U+0020-F002"
  />
<missing-glyph horiz-adv-x="500" 
d="M63 0v739h375v-739h-375zM125 63h250v614h-250v-614z" />
    <glyph glyph-name=".notdef" horiz-adv-x="500" 
d="M63 0v739h375v-739h-375zM125 63h250v614h-250v-614z" />
    <glyph glyph-name=".null" horiz-adv-x="0" 
 />
    <glyph glyph-name="nonmarkingreturn" horiz-adv-x="357" 
 />
    <glyph glyph-name="space" unicode=" " horiz-adv-x="357" 
 />
    <glyph glyph-name="exclam" unicode="!" horiz-adv-x="374" 
d="M348 534q-7 -47 -51 -165t-46 -130q-3 -24 18 -25q16 -1 34 36q6 -30 4 -49q-3 -30 -27.5 -53.5t-59.5 -23.5q-68 0 -68 72q0 10 2 21q17 99 44 263q2 14 2 27q0 35 -12.5 55.5t-30.5 20.5q-13 0 -27 -6q53 92 130 92q90 0 90 -107q0 -14 -2 -28zM277 41q-5 -28 -30 -51
q-30 -27 -73 -27q-61 0 -53 53q4 27 38 52.5t72 25.5q23 0 36 -17t10 -36z" />
    <glyph glyph-name="quotedbl" unicode="&#x22;" horiz-adv-x="334" 
d="M311 559q-1 -8 -6 -21l-69 -186h-15l-15 187q-1 17 -1 20q3 22 21 37.5t40 15.5t35.5 -15.5t9.5 -37.5zM183 559q-1 -8 -6 -21l-69 -186h-15l-15 187q-1 18 -1 20q4 22 22 37.5t39 15.5q22 0 35.5 -15.5t9.5 -37.5z" />
    <glyph glyph-name="numbersign" unicode="#" horiz-adv-x="624" 
d="M658 433l-26 -67h-133l-47 -133h133l-26 -67h-129l-60 -168h-66l59 168h-129l-59 -168h-66l59 168h-135l26 67h131l47 133h-131l26 67h129l60 171h66l-60 -171h130l60 171h66l-60 -171h135zM433 366h-130l-46 -133h129z" />
    <glyph glyph-name="dollar" unicode="$" horiz-adv-x="444" 
d="M422 483q5 -36 -18.5 -62t-56.5 -26q-48 0 -66 48q6 -3 15 -3q21 0 21 22q1 6 -8 12t-18 6q-32 0 -37 -42q-4 -29 58 -121q68 -103 75 -132q5 -19 5 -36q0 -56 -51 -91q-44 -30 -111 -36l-14 -108h-34l15 107q-16 0 -25 1l-15 -108h-33l15 112q-134 24 -129 124
q2 43 32.5 71t80.5 25q55 -4 55 -67q0 -8 -1 -16q-9 15 -40 14q-26 -1 -24 -29q1 -22 35 -25q36 -3 55 13t17 45q-1 20 -36 71q-47 67 -61 96q-31 62 -26 115q3 29 30 57q31 32 82 45l14 105h34l-13 -99q16 2 24 2l12 97h34l-13 -98q111 -11 121 -89z" />
    <glyph glyph-name="percent" unicode="%" horiz-adv-x="781" 
d="M750 187q-3 -83 -60 -142q-59 -62 -145 -62q-71 0 -108 46q-27 35 -30 86q-4 77 56 143q65 72 163 72q63 0 96 -43q30 -39 28 -100zM614 623l-355 -626h-56l284 493q-40 -32 -94 -50q-7 -78 -62 -131q-58 -55 -141 -55q-72 0 -109 46q-27 34 -30 85q-4 77 56 143
q65 72 163 72q106 0 123 -97q43 0 94 43q39 32 70 77h57zM648 190q1 25 -7 45t-22 20q-46 0 -76 -49q-25 -41 -26 -87q-2 -59 36 -59q40 0 69 47q24 41 26 83zM290 436q-38 14 -38 55q0 16 11 34q-45 0 -76 -49q-25 -41 -26 -86q-2 -60 36 -60q36 0 63 36q23 30 30 70z" />
    <glyph glyph-name="ampersand" unicode="&#x26;" horiz-adv-x="668" 
d="M659 400q-12 -71 -128 -94q60 -48 54 -138q-5 -86 -71.5 -145.5t-156.5 -59.5q-88 0 -141 42q-56 45 -56 126q0 74 40 132q-32 -19 -79 -13q-42 5 -67 36t-25 78q0 11 1 22q8 62 63 101q50 36 113 36q35 0 72 -7q21 45 68 72q43 26 89 25q59 -1 95 -29q33 -27 36 -71
q3 -39 -33.5 -69t-88.5 -30q-38 0 -84 13q8 -52 85 -68q-43 -10 -75 -29q-76 -45 -88 -127q-2 -13 -2 -25q0 -87 96 -87q40 0 78 32q43 36 45 85q3 69 -42 69q-41 0 -46 -39q-2 -15 3.5 -20t18.5 -3q16 2 33 14q-27 -70 -70 -70q-32 0 -47 18.5t-11 47.5q12 86 152 121
q37 9 68 29t33 38q3 21 -17 27q-9 3 -21 3q14 8 53 16q54 1 54 -46q0 -6 -1 -13zM483 510q0 15 -15 26t-38 8q-45 -5 -64 -59q43 -16 72 -16q19 0 32 12.5t13 28.5zM310 357q-13 9 -22 22q-22 30 -23 73q-18 3 -40 3q-43 0 -69 -21q-22 -18 -26 -44q-7 -47 40 -47
q32 0 35 31q1 15 -14 40q14 -9 24 -19q25 -22 28 -41q4 -25 -5 -46q34 32 72 49z" />
    <glyph glyph-name="quotesingle" unicode="'" horiz-adv-x="177" 
d="M183 559q-1 -8 -6 -21l-69 -186h-15l-15 187q-1 18 -1 20q4 22 22 37.5t39 15.5q22 0 35.5 -15.5t9.5 -37.5z" />
    <glyph glyph-name="parenleft" unicode="(" horiz-adv-x="324" 
d="M378 674l-10 -51q-49 -26 -108 -108q-72 -100 -84 -200q-3 -26 -3 -54q0 -100 36 -196q33 -86 70 -115l-13 -43q-54 20 -117 108q-82 113 -82 245q0 26 3 52q19 151 140 262q89 81 168 100z" />
    <glyph glyph-name="parenright" unicode=")" horiz-adv-x="324" 
d="M339 268q-19 -151 -140 -262q-89 -81 -168 -100l11 51q49 26 108 107q72 101 84 201q3 27 3 55q0 99 -36 195q-33 86 -71 115l13 43q55 -20 118 -108q81 -113 81 -245q0 -26 -3 -52z" />
    <glyph glyph-name="asterisk" unicode="*" horiz-adv-x="399" 
d="M385 517q-15 -30 -48 -34q-3 0 -40 -2q-17 0 -44 -12q-3 -2 1 -2q23 -12 41 -13.5t37 -2.5q36 -6 39 -33q5 -14 -9 -32.5t-29 -21.5q-29 -5 -47 23q-7 14 -14.5 28t-31.5 33q-2 2 -4 2q-4 0 -2 -5q-2 -31 4 -47t12 -31q6 -26 -7.5 -46t-39.5 -20q-20 0 -30 12
q-18 21 1 55q10 15 20.5 30t16.5 47q0 1 -1 1q-29 -18 -40 -33l-22 -30q-25 -27 -54 -22q-17 3 -24 22q-8 15 0 32q13 28 48 33q20 1 40 3q16 1 42 13q5 5 2 6q-23 12 -40 13q-20 2 -39 3q-33 5 -39 33q0 16 12 33.5t27 20.5q29 6 48 -22l14 -28t31 -33q2 -2 2 2
q2 32 -4.5 47t-12.5 30q-2 6 -2 13q0 22 14 38t36 16q25 0 29 -12q16 -21 -1 -55q-10 -15 -20.5 -31t-15.5 -47q1 -2 3 -3q29 18 40.5 32.5t22.5 29.5q20 22 46 22q22 0 30 -21.5t2 -33.5z" />
    <glyph glyph-name="plus" unicode="+" horiz-adv-x="467" 
d="M423 297l-13 -60h-141l-21 -151h-60l21 151h-146l12 60h142l20 137h60l-20 -137h146z" />
    <glyph glyph-name="comma" unicode="," horiz-adv-x="374" 
d="M277 41q-8 -67 -52 -123q-47 -60 -119 -81l-7 12q22 17 38 35q39 42 46 80q-34 -5 -51 14q-14 15 -11 38q4 27 38 52.5t72 25.5q23 0 35.5 -17t10.5 -36z" />
    <glyph glyph-name="hyphen" unicode="-" horiz-adv-x="381" 
d="M420 361q-8 -62 -39 -113q-36 -58 -78 -58q-36 0 -70 17q-39 20 -57 23q-8 1 -16 1q-29 0 -65 -17q-25 -13 -49 -26q16 51 52 94q43 51 84 51q34 0 62 -15q33 -17 57 -20q8 -1 16 -1q67 0 103 64z" />
    <glyph glyph-name="hyphen" unicode="&#x2010;" horiz-adv-x="381" 
d="M420 361q-8 -62 -39 -113q-36 -58 -78 -58q-36 0 -70 17q-39 20 -57 23q-8 1 -16 1q-29 0 -65 -17q-25 -13 -49 -26q16 51 52 94q43 51 84 51q34 0 62 -15q33 -17 57 -20q8 -1 16 -1q67 0 103 64z" />
    <glyph glyph-name="period" unicode="." horiz-adv-x="374" 
d="M277 41q-5 -28 -30 -51q-30 -27 -73 -27q-61 0 -53 53q4 27 38 52.5t72 25.5q23 0 36 -17t10 -36z" />
    <glyph glyph-name="slash" unicode="/" horiz-adv-x="344" 
d="M395 623l-331 -720h-56l330 720h57z" />
    <glyph glyph-name="zero" unicode="0" horiz-adv-x="542" 
d="M553 293q-19 -132 -123 -228q-87 -79 -150 -79q-60 0 -122 62q-78 78 -78 204q0 28 4 58q19 139 133 233q90 74 158 74q23 0 62 -26q50 -33 81 -85q39 -67 39 -154q0 -29 -4 -59zM426 353q0 59 -25 108q-23 43 -42 43t-39 -20.5t-23 -42.5q-4 -23 6.5 -40.5t30.5 -17.5
q25 0 44 39q20 -15 20 -46q0 -6 -1 -13q-10 -68 -77 -68q-31 0 -51 24q-24 29 -23 84q-8 -16 -23 -81q-5 -31 -5 -64q0 -68 19 -115q20 -50 53 -50q55 0 99 104q37 89 37 156z" />
    <glyph glyph-name="one" unicode="1" horiz-adv-x="355" 
d="M357 52q-14 -60 -98 -61q-31 0 -79 23t-66 23q-40 0 -43 -25q-2 -19 23 -32q-67 2 -62 47q4 35 41 58q51 31 57 38q22 26 44 145q20 110 19 179q-28 -25 -58 -25q-23 0 -41.5 22t-18.5 63q0 12 2 26q26 -23 59 -23q81 0 156 127q11 -44 58 -63q-13 -42 -25 -85
q-28 -104 -41 -199q-22 -153 -22 -181q0 -64 42 -64q33 0 40 40q17 -15 13 -33z" />
    <glyph glyph-name="two" unicode="2" horiz-adv-x="548" 
d="M538 110q-5 -61 -59 -93q-41 -25 -89 -24q-39 1 -104 30t-111 29q-104 0 -103 -66q-15 11 -15 35q0 36 44 85q17 19 73 68q-16 -7 -31 -7q-25 0 -21 31q3 23 30 49t66 37q-11 -6 -19 -13q-20 -17 -22 -34q-1 -7 6 -13.5t20 -6.5q43 1 103 76.5t68 133.5q2 14 2 26
q0 62 -47 62q-26 0 -47 -15q-24 -17 -28 -48q-6 -47 39 -47q28 0 50 25q-7 -31 -22 -54q-37 -54 -113 -55q-87 -2 -87 93q0 21 5 43q12 48 63 94q69 62 167 62q73 0 118 -36q49 -39 49 -112q0 -15 -2 -32q-8 -57 -64 -117q-42 -45 -117 -98l-110 -74q44 18 80 13
q27 -4 52 -20t45 -16q34 0 37 32q3 33 -33 53q136 6 127 -96z" />
    <glyph glyph-name="three" unicode="3" horiz-adv-x="532" 
d="M539 487q-24 -11 -47 -26q-56 -37 -102 -91q131 -44 131 -160q0 -13 -2 -27q-14 -103 -102 -162q-76 -51 -172 -51q-84 0 -133.5 47t-43.5 112q6 61 55 102q46 39 98 39q45 0 68 -29.5t23 -72.5q0 -9 -1 -18q-19 33 -43 33q-21 0 -39 -16.5t-22 -39.5q-4 -24 13.5 -39.5
t48.5 -15.5q32 0 63 35.5t38 85.5q2 11 2 21q0 79 -69.5 90t-74.5 12q-41 12 -36 40q6 35 58 46q-7 -6 -15 -25q-1 -15 15 -15q51 0 107 97q-56 -16 -94 -16q-35 0 -66 23q-38 28 -38 74q0 8 1 16q10 74 97 96q-8 -7 -13 -15q-14 -19 -17 -38q-4 -30 32 -44q32 -12 92 -11
q78 1 159 46q-5 -19 -5 -39q0 -48 34 -64z" />
    <glyph glyph-name="four" unicode="4" horiz-adv-x="569" 
d="M509 329q-2 1 -3 1q1 0 3 -1zM350 392q6 -29 -4 -118q-10 2 -30 2q-61 -6 -106 -19q74 60 140 135zM579 246q7 51 -70 83q19 -7 15 -30q-7 -45 -52 -46q-16 0 -35 4q16 101 60 291q-76 19 -97 87q-63 -182 -351 -401q50 -41 68 -110q93 51 150 51q16 0 63 -7
q-14 -72 -42 -106q-20 -23 -39 -23q-26 0 -24 22q1 14 17 34q-12 -5 -22 -11q-22 -17 -25 -41q-8 -63 65 -63q29 0 85.5 20t63.5 20q44 0 41 -23q-3 -20 -15 -36q17 6 29 13q30 17 33 37q4 27 -15 45q-16 15 -33 30q-18 22 -21 65h16q121 1 135 95z" />
    <glyph glyph-name="five" unicode="5" horiz-adv-x="532" 
d="M530 534q-7 -52 -53 -79q-37 -22 -82 -22t-108 22q-6 -27 -25 -73q22 15 71 15q84 0 137 -46q68 -61 48 -180q-17 -98 -106 -155q-77 -50 -169 -50q-79 0 -134 39q-58 42 -58 107q0 10 1 20q10 70 63 109q42 32 91 32q48 0 65 -26q-25 -9 -43 -20q-44 -27 -49 -64
q-6 -44 30 -65q27 -15 63 -13q37 2 73 26q41 27 49 66q-33 -31 -66 -31q-53 0 -45 52q6 37 57 67q-5 -8 -13 -34q-3 -24 22 -24q29 0 34 36q3 20 -23 43.5t-61 23.5q-45 0 -90 -21q-10 16 -23 29q-30 32 -65 45q72 105 72 193q0 14 -2 27q77 -39 166 -39q62 0 83 16
q12 9 16 35q3 21 -23 46q98 -10 98 -90q0 -8 -1 -17z" />
    <glyph glyph-name="six" unicode="6" horiz-adv-x="553" 
d="M282 -17q-100 0 -155 69q-51 63 -51 164q0 26 4 54q16 114 96 216q97 122 224 122q77 0 114 -36q32 -31 26 -75q-5 -41 -33.5 -69.5t-67.5 -28.5q-67 0 -77 78q6 -22 34 -22q21 0 27 35q2 13 -8 22.5t-33 8.5q-42 -2 -88 -58q-51 -63 -64 -150q47 65 152 65q76 0 121 -48
q41 -45 41 -112q0 -102 -81 -170q-77 -65 -181 -65zM403 204q2 35 -15 55.5t-42 20.5q-50 0 -56 -44q-3 -21 10 -34t42 -9q-36 -40 -82 -40q-19 0 -28 8q17 -63 71 -63q46 0 74 36q23 30 26 70z" />
    <glyph glyph-name="seven" unicode="7" horiz-adv-x="506" 
d="M576 570q-6 -44 -78 -123l-128 -140q-68 -82 -68 -132q0 -47 48 -47q22 0 39 21.5t16 53.5q17 -36 17 -73q0 -9 -1 -17q-6 -44 -45 -84q-48 -51 -118 -51q-65 0 -97 37q-27 30 -27 79q0 84 90 187q75 76 151 153q-39 -10 -80 -4q-20 3 -43.5 17.5t-42.5 14.5
q-49 0 -58 -35q-4 -16 14 -44q-60 33 -60 96q0 12 3 26q11 51 57 80q39 24 83 24q32 0 97 -25t112 -24q70 1 115 49q7 -18 4 -39z" />
    <glyph glyph-name="eight" unicode="8" horiz-adv-x="553" 
d="M611 553q-7 -51 -71 -108q-37 -34 -134 -99q64 -38 92 -67q41 -44 41 -100q0 -11 -1 -22q-14 -105 -116 -154q-70 -34 -156 -34q-71 0 -125 30q-72 39 -72 119q0 12 2 25q13 100 164 194q-72 53 -72 117q0 11 2 23q12 75 82 115q54 31 116 31q49 0 86 -30q39 -33 33 -76
q-3 -26 -14 -43q64 48 69 83q4 32 -21 32q-16 0 -37 -14q39 44 77 44q28 0 43 -20.5t12 -45.5zM395 498q4 32 -44 32q-20 0 -41 -16t-25 -44q-6 -40 45 -78q20 11 59 33h-2q-51 0 -54 53q11 -15 28 -15q29 0 34 35zM397 158q1 8 1 15q0 56 -83 111q-94 -68 -100 -114
q-9 -62 62 -62q25 0 29 21q3 17 -12 17q-10 0 -32 -13q29 49 61 49q42 0 42 -39q0 -20 -13 -36q11 5 20 11q21 16 25 40z" />
    <glyph glyph-name="nine" unicode="9" horiz-adv-x="553" 
d="M571 317q-16 -116 -98 -219q-98 -124 -229 -125q-77 -1 -115 36q-32 32 -26 77q6 41 34.5 70t67.5 29q68 0 71 -65q-15 21 -35 21q-23 0 -27 -34q-2 -15 7 -23q10 -11 35 -10q43 1 90 52q55 60 67 148q-50 -68 -151 -68q-77 0 -122 49q-41 45 -41 115q0 104 81 174
q78 67 185 67q101 0 158 -71q52 -65 52 -169q0 -26 -4 -54zM410 427q-19 58 -67 58q-81 0 -95 -100q-4 -31 13.5 -51t41.5 -20q48 0 53 41q3 20 -10 32.5t-41 8.5q35 38 79 38q14 0 26 -7z" />
    <glyph glyph-name="colon" unicode=":" horiz-adv-x="374" 
d="M319 313q-5 -28 -30 -51q-30 -27 -73 -27q-61 0 -53 53q4 27 38 52.5t72 25.5q23 0 36 -17t10 -36zM277 41q-5 -28 -30 -51q-30 -27 -73 -27q-61 0 -53 53q4 27 38 52.5t72 25.5q23 0 36 -17t10 -36z" />
    <glyph glyph-name="semicolon" unicode=";" horiz-adv-x="374" 
d="M319 313q-5 -28 -30 -51q-30 -27 -73 -27q-61 0 -53 53q4 27 38 52.5t72 25.5q23 0 36 -17t10 -36zM277 41q-8 -67 -52 -123q-47 -60 -119 -81l-7 12q22 17 38 35q39 42 46 80q-34 -5 -51 14q-14 15 -11 38q4 27 38 52.5t72 25.5q23 0 35.5 -17t10.5 -36z" />
    <glyph glyph-name="less" unicode="&#x3c;" horiz-adv-x="525" 
d="M497 407l-342 -136l303 -141l-30 -52l-362 170l7 47l409 164z" />
    <glyph glyph-name="equal" unicode="=" horiz-adv-x="467" 
d="M436 354l-13 -60h-347l12 60h348zM414 239l-12 -60h-348l12 60h348z" />
    <glyph glyph-name="greater" unicode="&#x3e;" horiz-adv-x="525" 
d="M501 291l-7 -47l-409 -164l-15 52l342 136l-303 141l30 52z" />
    <glyph glyph-name="question" unicode="?" horiz-adv-x="529" 
d="M539 507q-9 -59 -69 -120q-17 -19 -110 -95q-60 -50 -67 -79q-7 -27 25 -27q15 0 28.5 18t13.5 39q19 -31 19 -66q0 -34 -28 -63t-69 -29q-83 0 -83 69q0 53 49 116q48 53 95 106q54 63 60 110q1 11 1 21q0 39 -19.5 58t-47.5 19q-26 0 -50.5 -17t-27.5 -40
q-3 -22 10 -33q10 -9 28 -9q29 1 44 35q17 -24 12 -57q-5 -35 -29 -59q-32 -32 -90 -32q-50 0 -79 32t-29 82q0 84 80 143q73 54 160 54q86 0 132 -42q43 -39 43 -105q0 -14 -2 -29zM347 13q-4 -29 -34 -55q-33 -28 -74 -28q-31 0 -46 18q-13 15 -10 37q4 29 40 56t76 27
q24 0 37.5 -18t10.5 -37z" />
    <glyph glyph-name="at" unicode="@" horiz-adv-x="651" 
d="M660 387q-7 -83 -61 -137q-55 -57 -135 -57q-26 0 -48.5 15t-25.5 39q-19 -24 -59 -39q-36 -14 -68 -14q-71 0 -63 89q4 48 41 95q47 61 124 73q13 2 27 2q67 0 85 -30q-22 -47 -25 -124q-2 -56 31 -56q47 0 88 42.5t46 104.5q6 72 -49 132q-62 69 -165 69
q-126 0 -223 -95.5t-97 -221.5q0 -100 67.5 -167t169.5 -67q140 0 241 93l29 -31q-111 -105 -270 -105q-121 0 -200.5 79t-79.5 197q0 23 3 46q19 131 124.5 223.5t235.5 92.5q125 0 200 -85q65 -75 57 -163zM385 364q1 14 -2 21.5t-16 6.5q-28 -1 -54 -38q-22 -32 -23 -55
q-1 -29 20 -29q25 0 50 36q23 32 25 58z" />
    <glyph glyph-name="A" unicode="A" horiz-adv-x="673" 
d="M865 -157q-7 -54 -48 -84q-37 -27 -86 -27q-106 0 -180.5 131t-94.5 346q-61 -25 -106 -68t-51 -87q-5 -38 27 -38q22 0 25 16q2 9 -12 30q-2 3 0 6q1 2 5 1q14 -5 26 -18q14 -17 12 -35q-7 -55 -81 -55q-39 0 -84 26t-74 26q-28 0 -48 -12t-21 -23q-2 -21 15 -21
q13 0 29 11q4 2 6 0q3 -1 0 -5q-6 -9 -13 -15q-16 -16 -34 -19q-23 -4 -44 7q-27 13 -23 42q5 41 86 94q95 61 116 93q13 19 39 65q-21 -8 -52 -5q-61 5 -94 49q-28 39 -28 100q0 17 2 35q10 73 67 132q67 70 162 69q49 0 107 -4q55 -4 73 -4q64 0 69 34q3 20 -15 20
q-14 0 -37 -12q-3 -2 -5 0q-3 3 0 6q10 11 20 20q25 20 48 23q25 3 42 -10q20 -16 15 -48q-4 -28 -37.5 -65.5t-35.5 -49.5q-13 -94 -7 -194q42 10 78 10q48 0 76.5 -26t28.5 -69t-35 -78t-80 -43q10 16 13 40q4 28 -18 47t-53 21q22 -153 75 -254q55 -106 122 -106
q43 0 49 44q4 26 -40 38q105 4 105 -88q0 -9 -1 -19zM363 490q4 25 -29 42q-27 14 -59 14q-40 0 -71 -23q-39 -30 -45 -86q-4 -33 15 -56t47 -23q29 0 48 17.5t19 45.5q0 41 -49 38q33 23 64 21q30 -2 45 -28q12 20 15 38zM451 439q-38 -75 -118 -258q42 63 117 108
q-2 60 1 150z" />
    <glyph glyph-name="B" unicode="B" horiz-adv-x="766" 
d="M757 153q3 -77 -66 -140t-164 -63q-39 0 -72 14q-41 17 -50 48q-49 1 -113.5 -26.5t-101.5 -26.5q-72 1 -64 64q4 28 26.5 50.5t50.5 26.5q-8 -4 -14 -10q-14 -14 -16 -33q-2 -20 21 -20q31 0 65 54q40 63 61 172q-52 -76 -137 -69q-61 5 -94 49q-28 39 -28 99q0 17 2 35
q10 73 65 131q66 70 159 70q18 0 38 -3q-12 22 -9 45q3 26 26 41q19 11 41 12q25 1 40 -23q-13 0 -22 -3q-22 -8 -25 -30q-5 -40 52 -40q12 0 83.5 20t105.5 23q62 5 100.5 -21t36.5 -77q-2 -54 -48.5 -105.5t-114.5 -72.5q45 -30 91 -60q72 -57 75 -131zM620 480
q3 22 -9.5 36.5t-37.5 12.5q-86 -6 -110 -106q28 26 72 26q-9 -5 -15 -11q-16 -14 -18 -26q-4 -26 23 -26q37 0 63.5 28.5t31.5 65.5zM633 173q0 37 -40 65q-2 2 -80 45q-49 27 -63 55q-19 -145 -14 -201q35 35 76 35q-24 -20 -27 -42q-2 -15 12 -27.5t30 -12.5q41 0 70 19
q36 22 36 64zM332 421q-6 94 -73 94q-40 0 -71 -24q-39 -29 -45 -86q-4 -32 15 -55t47 -23q29 0 48 17t19 46q0 41 -49 38q34 22 65 21q29 -1 44 -28z" />
    <glyph glyph-name="C" unicode="C" horiz-adv-x="738" 
d="M764 550q-4 -57 -51.5 -95t-116.5 -38q-72 0 -157 30q-58 -70 -74 -177q-3 -18 -3 -35q0 -58 32 -90q29 -30 76 -30q98 0 107 71q4 31 -10 47t-34 16q-19 0 -37 -14q-22 -16 -22 -42q0 -8 3 -17q-34 34 -28 74q5 37 44 69q46 38 108 38q60 0 98 -34t38 -95q0 -24 -6 -51
q-22 -90 -112 -149q-65 -42 -151 -60q-89 -19 -97 -76q-6 -42 38 -63q-124 -5 -124 66q0 9 2 18q8 38 36 58q13 9 47 22q-124 59 -124 207q0 24 4 50l5 25q-45 -40 -102 -35q-49 4 -78.5 39.5t-29.5 91.5q0 13 2 27q10 75 75 122q60 43 135 43q60 0 155 -37q128 124 246 124
q48 0 77 -23q32 -26 29 -77zM637 524q4 33 -40 33q-11 0 -39 -12q-39 -16 -73 -45q45 -17 85 -17q62 0 67 41zM364 470q-50 12 -83 12q-52 0 -83 -25q-27 -22 -31 -53q-4 -26 9.5 -41.5t37.5 -15.5q38 0 43 37q2 18 -17 48q13 -5 24 -12q24 -18 30 -45q24 41 70 95z" />
    <glyph glyph-name="D" unicode="D" horiz-adv-x="777" 
d="M792 183q-15 -95 -96 -155q-72 -54 -164 -58q-39 -2 -90 9q-55 11 -75 11q-65 0 -72 -51q-4 -32 42 -49q-21 -14 -43 -13q-25 1 -44 20t-15 45q2 17 8 34q-15 -18 -50 -18q-24 0 -44 21t-20 58q0 44 26 80.5t69 36.5q13 0 26 -4q-12 -6 -22 -13q-22 -18 -25 -39
q-3 -19 7.5 -28t30.5 -7q71 5 100 215q3 19 4 34q-38 -89 -144 -89q-62 0 -95 47q-29 40 -29 103q0 28 6 56q14 64 68 115q63 59 146 59q65 0 86 -32q-11 21 -11 49q0 10 2 21q5 34 34 55q24 17 53 17q46 0 51 -65q-13 25 -35 25q-24 0 -28 -29q-5 -39 84 -85
q129 -66 171 -103q93 -83 93 -209q0 -30 -5 -64zM654 232q6 102 -65 174q-33 32 -106 71q-15 -51 -42 -228q21 44 66 44q32 0 47 -29q11 -22 8 -46q-3 -20 -14 -41q-3 62 -37 62q-46 0 -53 -68q-4 -39 19 -60q19 -18 48 -18q41 0 74 23q50 35 55 116zM353 445q-6 97 -70 99
q-52 1 -82.5 -37t-30.5 -90q0 -68 53 -68q51 0 60 62q7 46 -25 46q-14 0 -31 -12q24 42 66 42q40 0 60 -42z" />
    <glyph glyph-name="E" unicode="E" horiz-adv-x="717" 
d="M582 -22q-19 -116 -112 -116q-68 0 -61 64q4 -7 9 -13q11 -13 27 -14q26 -2 32 36q4 23 -17 42q-27 23 -81 23q-43 0 -109 -20t-93 -20q-64 0 -64 68q0 11 3 22q7 30 30.5 55.5t51.5 25.5q13 0 25 -7q-11 -1 -19 -6q-19 -11 -23 -37t22 -26q34 0 54 72q7 26 30 160
q-39 -68 -118 -62q-58 5 -88 48q-28 39 -28 99q0 18 3 37q10 70 66 130q65 70 148 70q18 0 37 -4q132 -26 227 -22q50 2 57 46q5 35 -32 35q-18 0 -49 -22q33 53 96 53q82 0 82 -99q0 -59 -38.5 -97.5t-98.5 -38.5q-46 0 -114 20q-6 -35 -26 -150q46 66 110 66q46 0 46 -45
q0 -7 -1 -14q-4 -27 -34 -58q-37 -38 -85 -44q13 7 22 15q22 19 25 38q2 15 -27 15q-15 0 -35 -36q-23 -41 -31 -97q-1 -10 -1 -19q0 -74 95 -74q100 0 107 75q2 18 -7 25t-25 6q-27 -2 -60 -53q35 151 133 148q83 -2 83 -104q0 -67 -39 -123q-42 -58 -105 -73zM311 452
q-5 94 -68 94q-38 0 -68 -23q-37 -30 -43 -86q-4 -33 14 -56t44 -23q28 0 46 18t18 46q0 40 -46 37q32 23 62 21q29 -2 41 -28z" />
    <glyph glyph-name="F" unicode="F" horiz-adv-x="696" 
d="M623 457q-60 0 -120 21q-11 -37 -33 -163q18 26 37 45q45 45 86 47q45 3 66 -27q16 -25 12 -57q-6 -41 -36 -72q-44 -43 -125 -43q17 6 30 13q31 19 35 46q6 36 -38 36q-21 0 -45 -25q-31 -34 -40 -95q-1 -10 -1 -20q0 -48 52.5 -96t52.5 -90q0 -9 -1 -19q-9 -62 -80 -62
q-22 0 -36 12t-11 35q4 30 26 38q-6 -12 -6 -23q0 -23 30 -23q19 0 22 18q3 21 -15.5 36.5t-53.5 14.5q-29 -1 -100 -20.5t-100 -19.5q-41 0 -62.5 21.5t-17.5 54.5q5 40 72 60q-6 -4 -11 -9q-12 -12 -15 -29q-2 -13 3.5 -22.5t18.5 -9.5q41 1 68 48q35 61 56 209
q-39 -69 -124 -62q-61 5 -94 49q-29 39 -29 100q0 17 3 35q10 74 61 130q61 68 154 68q15 0 32 -2q-3 7 1 30q7 45 74 62q-7 -11 -18 -45q-3 -26 25 -49q39 -32 121 -31q114 1 123 64q2 13 -12.5 26.5t-37.5 13.5q-14 0 -30 -6q59 24 93 24q35 0 65 -19q39 -24 39 -70
q0 -59 -53 -103.5t-113 -44.5zM368 452q-6 94 -73 94q-40 0 -71 -23q-39 -30 -45 -86q-4 -33 15 -56t47 -23q29 0 48 17.5t19 45.5q0 41 -49 38q33 23 64 21q30 -2 45 -28z" />
    <glyph glyph-name="G" unicode="G" horiz-adv-x="782" 
d="M772 363q-63 -84 -101 -240q21 26 46 26t40 -20q12 -18 12 -42q-1 -48 -47 -84q11 11 11 35q0 25 -23 25q-40 0 -59 -59q-11 -51 -22 -103q-58 -259 -228 -259q-79 0 -129 40q-54 42 -56 115q-2 72 42 117q41 42 106 42q79 0 104 -100q-26 33 -59 33q-47 0 -46 -54
q0 -24 18.5 -40t46.5 -16q39 0 85 52q58 65 61 163q-42 -26 -112 -26q-102 0 -165 66q-71 75 -68 216q0 6 2 25q-42 -40 -98 -35q-55 5 -90.5 49t-34.5 109q1 75 60 122q54 43 129 43q61 0 160 -37q113 124 231 124q48 0 81 -23q38 -27 41 -77q3 -56 -41.5 -94.5
t-114.5 -38.5q-72 0 -160 30q-50 -70 -53 -177q-2 -74 35 -116q34 -39 88 -39q61 0 102 39q37 34 38 77q-20 6 -41 12.5t-44 6.5q-19 0 -34 -10q-18 -12 -19 -33q-1 -22 9 -38q-47 35 -46 85q1 42 34.5 73t83.5 31q24 0 68.5 -13.5t58.5 -13.5q63 0 98 32zM583 524
q1 33 -45 33q-12 0 -37 -12q-37 -16 -68 -45q47 -17 88 -17q61 0 62 41zM316 470q-53 12 -85 12q-51 0 -79 -25q-24 -22 -25 -53q-1 -26 14.5 -41.5t39.5 -15.5q37 0 38 37q1 19 -22 48q14 -5 25 -12q26 -18 35 -45q19 41 59 95z" />
    <glyph glyph-name="H" unicode="H" horiz-adv-x="666" 
d="M782 696q-46 -64 -79 -143q-81 -190 -86 -428q-4 -190 67 -190q41 0 46 36q3 20 -22 48q62 -19 62 -87q0 -10 -2 -21q-7 -49 -49 -73q-32 -18 -67 -17q-72 3 -113 81q-32 -76 -89 -76q-35 0 -50 21q-13 17 -10 40q3 25 26 51q-6 -57 26 -57q14 0 20 25q2 6 9 57
q4 25 4 65q0 193 -90 263q-12 -82 -12 -137q0 -26 17 -65t17 -59q0 -30 -18.5 -52t-47.5 -22q-24 0 -30 29q18 -11 28 -11q16 0 20 17q1 9 -10 18t-32 9q-13 0 -72.5 -21t-89.5 -21q-74 0 -69 64q4 49 79 66q-9 -4 -16 -9q-16 -11 -18 -23q-2 -13 5 -19t20 -5q59 2 91 141
q-30 -40 -86 -40q-36 0 -61 20q-31 23 -31 69q0 9 1 20q9 65 82 103q64 33 125 27q5 46 6 79q-39 -26 -72 -26q-29 0 -51 16q-28 21 -28 58q0 7 1 15q7 43 39 65q23 16 47 16q20 0 31 -19q-16 8 -30 8q-31 0 -36 -39q-5 -37 45 -39q84 -3 242 140q-13 -39 -25 -82
q-30 -105 -49 -215q65 -33 101 -94q7 40 19 117q6 44 6 74q0 62 -25 59q-20 -2 -23 -20q-2 -11 11 -23q-33 14 -27 55q4 31 31.5 53t56.5 24q41 3 63 -32q18 32 42 56q56 57 130 60zM271 325q-35 0 -62 -13q-32 -15 -35 -40q-5 -38 28 -38q9 0 17.5 8.5t9.5 18.5
q3 19 -10 31q34 0 43 -27q4 21 9 60z" />
    <glyph glyph-name="I" unicode="I" horiz-adv-x="548" 
d="M601 624q-5 -37 -65 -97q-48 -48 -79 -266q-12 -83 -12 -139q0 -108 44 -106q20 1 23 16q2 9 -12 30q-2 3 0 6q1 2 5 1q14 -5 26 -18q14 -17 12 -35q-7 -55 -81 -55q-39 0 -76 26t-66 26t-49 -12t-21 -23q-3 -21 15 -21q13 0 30 11q3 2 6 0q2 -1 0 -5q-6 -9 -13 -15
q-16 -16 -35 -19q-23 -4 -44 7q-26 13 -22 42q3 24 42 59q46 43 62 74q35 67 46 170q-18 -28 -51 -47q-41 -23 -87 -19q-62 5 -95 49q-28 38 -28 99q0 17 2 35q10 74 67 133q67 69 162 68q49 -1 96 -4q43 -4 61 -4q64 0 69 34q3 20 -15 20q-15 0 -37 -11q-3 -3 -5 0
q-3 3 0 6q10 11 20 20q25 20 47 23q25 3 43.5 -12t14.5 -47zM347 442q-5 94 -72 94q-40 0 -72 -23q-39 -30 -45 -87q-3 -33 15.5 -55.5t46.5 -22.5q29 0 48 17t19 46q0 41 -48 38q33 22 64 21q27 -1 44 -28z" />
    <glyph glyph-name="J" unicode="J" horiz-adv-x="566" 
d="M692 564q-6 -41 -57 -62q-60 -24 -72 -43.5t-27 -77.5q-17 -73 -17 -138q0 -108 50 -163q-58 -13 -101 -33q-102 -48 -111 -123q-1 -10 -1 -18q0 -24 12 -30q5 -3 28 -3q20 0 45 22q-40 -96 -123 -96q-59 0 -59 65q0 23 32 73q-12 -13 -28 -22q-38 -21 -90 -22
q-66 -1 -102 38q-33 36 -33 95q0 70 49 132q53 67 121 67q85 0 92 -95q-19 34 -46 34q-23 0 -43.5 -21t-24.5 -46q-7 -50 47 -50q77 0 131 115q37 79 51 179q-44 -65 -140 -65q-48 0 -85 33q-45 40 -45 113q0 17 3 35q13 90 90 142q66 44 139 42q45 -1 116 -33t93 -32
q46 0 51 31q3 22 -25 34q81 0 81 -63q0 -6 -1 -14zM423 471q-1 105 -77 105q-56 0 -95 -37t-39 -91q0 -61 64 -61q59 0 67 52q4 29 -35 58q21 5 42 5q52 0 73 -31z" />
    <glyph glyph-name="K" unicode="K" horiz-adv-x="728" 
d="M397 643zM345 392q-17 46 -63 46q-49 0 -81 -49q20 21 36 21q39 0 33 -41q-3 -24 -22 -39.5t-45 -15.5q-67 0 -67 75q0 10 2 21q6 46 44 79t78 33q82 0 85 -130zM919 -172q1 11 1 21q0 98 -113 94q51 -14 47 -40q-7 -49 -57 -49q-84 0 -133 102q-40 85 -40 188q0 38 8 70
q73 40 73 101q0 20 -8 35q-22 -56 -72 -56q-45 0 -62 42q96 51 127 75q90 68 101 146q2 11 2 21q0 44 -26.5 70t-69.5 26q-47 0 -78 -25t-35 -61q-2 -20 2 -44q24 58 49 58q34 0 34 -34q0 -8 -2 -18q-15 -85 -206 -170q7 53 35 107t34 93q2 12 2 22q0 74 -74 74
q-28 0 -58 -30q23 13 33 13q30 0 27 -43q-2 -25 -21.5 -40t-41.5 -15q-14 0 -50 7q-40 7 -59 9q-69 6 -137 -40q-80 -55 -101 -153q-6 -27 -6 -51q0 -68 42 -107q39 -36 99 -36q50 0 93 28q40 25 59 63v-7q-15 -117 -60 -182q-33 -47 -60 -47q-29 0 -27 25q5 25 38 47
q-35 -1 -64.5 -28t-33.5 -57q-4 -32 15 -52q20 -23 60 -23q28 0 83.5 25.5t85.5 25.5q49 0 45 -33q-4 -31 -50 -27q12 -18 33 -18q56 0 62 51q4 34 -18 84q-25 54 -25 87q0 30 22 136q35 -30 60 -125q23 -86 23 -166q0 -24 -3 -42q-12 -84 -91 -75q28 -36 56 -36q31 0 59 39
q26 -78 85 -125q62 -50 143 -50q54 0 93 29q44 32 51 91z" />
    <glyph glyph-name="L" unicode="L" horiz-adv-x="751" 
d="M757 187q-14 -72 -74 -136q-48 -51 -93 -70q46 -30 39 -78q-6 -39 -39 -63.5t-72 -21.5q-66 5 -66 59q22 -25 49 -23q44 3 49 45q3 27 -17 47q-26 26 -84 25q-87 -2 -163 -12q-72 -9 -109 -9q-89 0 -89 70q0 10 2 21q5 29 35 52t58 23q-13 -7 -23 -16q-23 -22 -26 -50
q-2 -14 9 -21.5t29 -6.5q32 1 69.5 38t48.5 78q8 28 30 164q-46 -62 -121 -56q-59 5 -91 49q-28 39 -28 99q0 96 61.5 166t157.5 70q53 0 100 -18q51 -20 76 -22q31 -2 52.5 8t23.5 25q4 30 -23 30q-23 0 -51 -33q34 76 78 76q56 0 56 -55q0 -9 -2 -19q-7 -39 -40 -77
q-30 -30 -59 -60q-40 -46 -60 -183q-16 -114 -16 -151q0 -84 44 -85q53 -1 90 49q30 42 36 92q3 27 -9 43q-11 13 -27 13q-14 0 -27.5 -11t-16.5 -22q-4 -18 3 -48q-31 16 -31 65q0 9 1 19q7 54 52 85q39 26 89 26q46 0 81 -31q43 -39 43 -109q0 -24 -5 -50zM342 473
q-5 94 -69 94q-39 0 -69 -24q-37 -29 -43 -86q-3 -33 14.5 -55.5t44.5 -22.5q29 0 46.5 17.5t17.5 45.5q0 41 -46 38q32 23 62 21q28 -2 42 -28z" />
    <glyph glyph-name="M" unicode="M" horiz-adv-x="891" 
d="M1034 -65q-11 -66 -61 -104q-45 -34 -103 -34q-102 0 -151 132q-25 -49 -67 -49q-83 0 -78 90q7 -26 41 -26q27 0 51.5 42t32.5 103q4 27 4 70q0 74 -10 174q-32 -56 -56 -100q-58 -106 -66 -138q-4 -14 -4 -25q0 -39 40 -39q8 0 15 2q-33 -30 -68 -30q-34 0 -59 37
q-31 45 -39 133q-9 109 -20 174q-54 -201 -54 -212q0 -31 10 -78q8 -40 6 -55q-4 -30 -30.5 -50.5t-64.5 -20.5q-29 0 -34 35q13 -17 36 -17q29 0 35 41q7 43 -57 43q-19 0 -69 -18t-77 -18q-85 0 -75 70q7 49 72 49q-13 -4 -23 -9q-23 -13 -24 -32q-2 -30 38 -30
q30 0 72 54q45 59 70 144q-43 -31 -96 -26q-62 5 -94 49q-29 38 -29 98q0 18 3 36q11 77 67 134q66 68 165 68q32 0 88 -9.5t72 -9.5q27 0 54 12t29 28q5 37 -23 37q-15 0 -28 -13q26 22 47 22q37 0 37 -53q0 -12 -2 -28q-15 -101 -15 -176t14 -123q27 43 48 82
q50 93 58 154q2 15 2 28q0 48 -25 48q-29 0 -33 -28q-3 -19 5 -25q-19 5 -15 30q10 68 87 68q37 0 62.5 -8.5t39.5 -8.5q27 0 47.5 16.5t23.5 38.5q4 27 -26 33q47 -1 40 -50q-3 -21 -24 -97.5t-29 -136.5q-10 -75 -10 -163q0 -304 128 -304q40 0 55 11.5t19 36.5
q4 28 -12 43q40 -20 40 -85q0 -17 -3 -37zM343 459q1 10 1 18q0 58 -87 58q-46 0 -79 -22q-42 -29 -48 -85q-4 -32 15 -55t47 -23q30 0 49 17t19 45q0 41 -49 38q34 23 64 21q48 -3 57 -50q5 12 11 38z" />
    <glyph glyph-name="N" unicode="N" horiz-adv-x="743" 
d="M796 691q-70 -95 -136 -566q-9 -63 -9 -111q0 -132 63 -132q24 0 49 14q-21 -39 -80 -39q-88 0 -130 74q-31 -33 -70 -33q-31 0 -49 28q10 -3 20 -3q25 0 42 22q14 20 18 47q3 23 -15 75q-6 15 -41 102q-27 66 -89 154q-8 -27 -24 -113q-3 -20 -3 -44q0 -48 11 -82
q13 -40 37 -40q25 0 25 23q0 16 -10 36q42 -22 36 -59q-4 -30 -26 -48t-54 -18q-24 0 -66.5 18.5t-52.5 18.5q-45 0 -49 -28q-3 -25 24 -25q11 0 22 3q-32 -34 -58 -34q-57 0 -52 51q2 20 40 89q45 83 71 170q-37 -42 -84 -43q-49 -1 -84 21q-52 33 -52 111q0 17 3 36
q16 119 123 178q67 37 123 37q25 0 47 -3q8 32 46 53q35 19 65 16q32 -3 39 -23q-13 6 -26 6t-26 -12q-15 -15 -19 -41q-7 -53 60 -172q23 -41 92 -135q6 37 18 120q4 29 4 57q0 108 -52 108q-30 0 -30 -34q0 -18 8 -41q-42 50 -38 83q9 76 92 76q58 0 75 -65q49 86 172 117
zM264 389q2 24 2 42q0 75 -43 75q-45 0 -78.5 -39t-33.5 -85q0 -65 59 -65q21 0 38.5 16t20.5 33q5 31 -27 31q-20 0 -38 -19q21 36 54 36q34 0 46 -25z" />
    <glyph glyph-name="O" unicode="O" horiz-adv-x="809" 
d="M798 223q-20 -134 -119 -211q-85 -67 -185 -67q-83 0 -143 54q-71 64 -81 182q-49 -41 -110 -41q-55 0 -91 40t-36 106q0 21 4 44q15 87 102 150t191 63q34 0 70 -9q54 47 124 74q55 22 94 23q69 2 118 -26q59 -35 59 -104q0 -15 -3 -31q-6 -34 -33 -67q42 -41 42 -137
q0 -22 -3 -43zM659 496q4 21 -10 34.5t-42 12.5q-51 -2 -110 -58q57 -40 93 -41q60 -1 69 52zM663 256q0 64 -45 64q-15 0 -28.5 -11.5t-16.5 -25.5t4 -34q-36 12 -36 49q0 20 11 45q-26 10 -53.5 33.5t-53.5 46.5q-32 -56 -40 -107q-5 -31 -5 -58q0 -82 45 -124
q34 -31 77 -31q57 0 100 49q41 46 41 104zM349 477q-22 4 -27 4q-71 0 -125 -33q-59 -36 -71 -96q-2 -11 -2 -20q0 -47 47 -47q24 0 45 16.5t25 40.5q5 34 -22 45q-11 5 -28 4q32 19 70 19q19 0 40 -18q16 45 48 85z" />
    <glyph glyph-name="P" unicode="P" horiz-adv-x="730" 
d="M779 528q7 -27 7 -58q0 -107 -70 -192q-76 -92 -183 -86q-52 3 -83 45q-10 -73 -10 -121q0 -102 49 -100q20 1 23 16q2 9 -12 30q-2 3 0 6q1 2 5 1q14 -5 26 -18q14 -17 12 -35q-7 -55 -81 -55q-39 0 -76 26t-66 26t-49 -12t-21 -23q-3 -21 15 -21q13 0 30 11q3 2 6 0
q2 -1 0 -5q-6 -9 -13 -15q-16 -16 -35 -19q-23 -4 -44 7q-26 13 -22 42q3 24 43 59q48 42 64.5 75t39.5 151q-52 -76 -137 -69q-61 5 -94 49q-28 39 -28 99q0 17 2 35q10 74 67 136q66 74 159 74q18 0 37 -3q-12 22 -9 46q3 26 26 41q18 11 40 12q26 1 42 -23q-13 0 -22 -3
q-24 -8 -27 -31q-4 -24 12 -29q5 -2 34 -2q7 0 76 16.5t109 18.5q57 3 101 -24.5t57 -77.5zM657 494q-6 56 -54 56q-105 0 -135 -172l1 1q1 3 1 1q32 34 71 34q-24 -22 -27 -42q-2 -17 6.5 -29.5t23.5 -12.5q41 0 80 55.5t33 108.5zM346 421q-6 94 -73 94q-40 0 -71 -24
q-39 -29 -45 -86q-4 -32 15 -55t47 -23q29 0 48 17t19 46q0 41 -49 38q34 22 65 21q29 -1 44 -28z" />
    <glyph glyph-name="Q" unicode="Q" horiz-adv-x="836" 
d="M883 -28q-13 -90 -91 -126q-53 -25 -113 -20q-54 5 -100 43l-70 70q-39 36 -80 36q-60 0 -67 -50q-3 -22 21 -46q-65 25 -58 81q4 30 31.5 57.5t66.5 32.5q-37 8 -71 46q-37 41 -46 92q-48 -48 -119 -48q-55 0 -91.5 40t-36.5 107q0 21 4 43q15 87 102.5 150t191.5 63
q34 0 70 -9q53 46 123 73q54 21 95 24q76 6 131 -26q64 -37 64 -110q0 -41 -19 -72q25 -57 21 -106q-10 -126 -100 -209q-65 -60 -139 -76q62 -68 127 -68q64 0 75 66q2 9 2 17q0 43 -35 68q113 -12 113 -116q0 -13 -2 -27zM686 496q4 21 -10 34.5t-42 12.5q-50 -2 -111 -58
q31 -21 45 -28q26 -12 49 -13q59 -1 69 52zM723 314q1 9 -1 32q-39 -14 -88 -14q-52 0 -104 38l-72 64q-43 -64 -43 -143q0 -59 37 -93.5t92 -34.5q74 0 126 49q45 43 53 102zM376 477q-14 4 -27 4q-71 0 -125 -33q-59 -36 -71 -96q-2 -11 -2 -20q0 -47 47 -47q24 0 45 16.5
t25 40.5q5 34 -22 45q-11 5 -28 4q32 19 70 19q19 0 40 -18q17 40 48 85z" />
    <glyph glyph-name="R" unicode="R" horiz-adv-x="735" 
d="M883 -157q-7 -54 -48 -84q-36 -27 -86 -27q-74 0 -135 74q-57 69 -80 173q-21 -39 -55 -36q-36 3 -52 34q72 -7 83 69q2 17 2 35q0 54 -20.5 102.5t-54.5 74.5q-11 -41 -11 -82q0 -86 52 -116q-47 4 -118 -23q-35 -14 -90 -50q-41 -28 -67 -28q-74 0 -65 64
q4 28 26.5 50.5t51.5 26.5q-8 -4 -14 -10q-15 -14 -17 -33q-3 -20 21 -20q30 0 61 54q36 62 58 172q-52 -76 -136 -69q-62 5 -94 49q-28 39 -28 100q0 17 2 34q10 73 65 131q65 70 158 70q18 0 38 -3q-12 22 -9 45q3 26 27 41q18 11 40 12q26 1 41 -23q-13 0 -22 -3
q-23 -8 -26 -30q-5 -40 52 -40q13 0 87.5 20t108.5 23q63 5 103.5 -23t35.5 -82q-6 -69 -64 -131q-61 -66 -149 -88q51 -47 90 -44q-19 -44 -23 -124q-5 -87 29 -165q42 -95 119 -95q48 0 48 45q0 27 -40 37q106 4 106 -88q0 -9 -1 -19zM631 492q3 38 -34 38q-6 0 -12 -1
q-65 -10 -97 -56q-25 -37 -36 -110q46 -1 71 21q-28 5 -26 33t27 44q22 14 52 14q-13 -9 -28 -32q-4 -26 18 -26q18 0 38 18q24 23 27 57zM337 421q-6 94 -73 94q-40 0 -71 -24q-39 -29 -45 -86q-4 -32 15 -55t47 -23q30 0 49 16.5t19 45.5q0 42 -49 39q33 22 64 21
q29 -1 44 -28z" />
    <glyph glyph-name="S" unicode="S" horiz-adv-x="634" 
d="M683 630q4 -32 -19.5 -50.5t-51.5 -16.5q1 -27 -23 -57q-33 -42 -98 -42q-38 0 -71 19q15 -25 79 -77q69 -57 98 -96q48 -63 48 -136q0 -15 -2 -31q-11 -84 -72 -139q-22 -19 -110 -70q-59 -35 -64 -69q-3 -20 20 -20q17 0 50 34q-41 -78 -114 -78q-63 0 -55 44
q6 35 72 72q-28 -2 -50 -2q-51 0 -107 33q-80 47 -80 135q0 13 2 27q7 50 50 101t48 89q5 37 -23 37q-26 0 -39 -26q-10 -20 -10 -47q-14 28 -11 51q5 30 27 52q28 25 71 25q36 0 54.5 -21t14.5 -48q-4 -33 -19 -38q40 17 81 17q38 0 67 -24q33 -28 33 -74q0 -9 -1 -18
q-12 -86 -100 -89q-23 -1 -40 12.5t-21 35.5q25 -8 41 -8q35 0 41 43q5 38 -42 42q-27 2 -54 -18q-34 -25 -37 -72q-3 -45 32 -65q29 -17 78 -14q57 3 94.5 46.5t37.5 101.5q0 54 -54 105l-100 88q-54 55 -54 118q0 27 6 44q-4 1 -12 1q-32 0 -56.5 -17.5t-27.5 -43.5
q-6 -46 43 -46q20 0 41 23q-22 -63 -101 -63q-45 0 -70 24.5t-25 66.5q0 11 2 22q8 53 55 88.5t107 35.5q45 0 85 -27q57 50 134 50q50 0 89 -26t49 -26q22 0 25 19q2 14 -15 32q15 -6 26 -13q27 -15 28 -26zM535 560q5 33 -44 33q-41 0 -67 -32q43 -34 72 -34q35 0 39 33z
" />
    <glyph glyph-name="T" unicode="T" horiz-adv-x="710" 
d="M770 558q-16 -71 -121 -106q24 -15 19 -50q-3 -25 -27 -38q-19 -11 -41 -11q-21 0 -48 30q10 -3 21 -3q32 0 36 32q4 31 -20 39q-23 2 -46 5l-56 -318q0 -55 21 -86q18 -26 42 -26q25 0 28 19q2 16 -15 29q39 -26 39 -49q0 -6 -1 -13q-8 -49 -66 -49q-30 0 -83 24.5
t-75 24.5q-53 0 -59 -45q-6 -41 39 -41q21 0 40 35q-30 -73 -80 -73q-81 0 -81 70q0 8 1 17q5 40 40 84q58 73 65 86q38 61 50.5 144t12.5 138q0 42 -7 58q-56 41 -133 36q-41 -3 -78 -29q-40 -29 -49 -70q-3 -15 -3 -29q0 -65 66 -65q27 0 50 22.5t26 45.5q4 34 -31 34
q-15 0 -41 -21q29 70 89 70q78 0 78 -88q0 -12 -2 -25q-6 -46 -49 -86q-50 -49 -121 -49q-64 0 -99 44q-30 38 -30 95q0 102 77 178q75 72 178 81q16 1 32 1q63 0 131 -26.5t93 -25.5q64 3 69 40q2 17 -9 21q-3 1 -19 1q-9 0 -37 -17q35 53 94 53q42 0 68 -23t26 -64
q0 -15 -4 -31z" />
    <glyph glyph-name="U" unicode="U" horiz-adv-x="811" 
d="M828 626q-48 -62 -85 -196q-44 -162 -44 -280q0 -126 64 -126q25 0 54 26q-52 -114 -135 -114q-50 0 -77 39q-23 32 -23 73q0 16 4 27q-21 -36 -46 -62q-61 -64 -137 -70q-83 -7 -125 38q-31 34 -33 88q-1 42 14 103q12 45 25 90q-53 -75 -154 -69q-116 7 -116 140
q0 25 4 53q12 84 86 136q59 42 121 45q79 4 138 -38q17 27 41 47q58 48 144 50q-25 -28 -47 -70q-53 -102 -82 -256q-15 -81 -15 -122q0 -64 36 -64q39 0 70 45q24 34 28 62q4 24 -5 40.5t-25 16.5q-35 0 -49 -19q3 28 25 54q23 30 50 30q32 0 47 -28q7 31 7 67
q0 95 -53 141q31 17 63 17q37 0 63 -25q60 103 167 111zM297 403q2 41 -17 70.5t-49 29.5q-52 0 -85 -31q-30 -27 -36 -69q-4 -31 9.5 -48.5t37.5 -17.5q65 0 73 53q3 23 -13.5 37.5t-44.5 12.5q12 6 47 14q53 4 78 -51z" />
    <glyph glyph-name="V" unicode="V" horiz-adv-x="788" 
d="M819 469q-11 -97 -71 -188q-18 -27 -105 -132q-53 -65 -53 -102q0 -44 40 -44q17 0 37 19t16 40q-1 6 -1 9v1q2 0 6 -24t2 -41q-3 -26 -25.5 -43.5t-52.5 -14.5q-21 2 -71 34q-46 29 -85 27q-42 -3 -47 -35q-2 -14 12 -25.5t30 -9.5q-26 -21 -66 -21q-26 0 -41 14t-15 34
q0 31 52 69t56 67q2 16 -50 270q-34 164 -126 164q-40 0 -72 -23q-39 -30 -45 -86q-3 -32 15.5 -55t46.5 -23q29 0 48.5 17t19.5 45q0 41 -49 38q24 18 55 18q33 0 55.5 -28t22.5 -67q0 -68 -53 -114.5t-120 -41.5q-62 5 -94 48q-29 39 -29 99q0 18 3 36q11 75 62 132
q64 71 161 71q33 0 94.5 -11.5t75.5 -11.5q49 0 53 32q2 16 -9 27t-26 7q16 5 33 5q55 0 58 -60q1 -32 -16 -73q-19 -48 -23 -78q-2 -15 -2 -31q0 -82 40 -174q14 18 26 38q31 50 52 104q-24 -12 -34 -12q-20 0 -32.5 22t-8.5 47q7 49 68 89q-7 -8 -12 -16q-12 -20 -15 -37
q-5 -32 33 -32q33 0 41 56q7 51 -17 117q-33 90 -110 118q77 -8 132 -33q132 -60 132 -194q0 -16 -2 -33z" />
    <glyph glyph-name="W" unicode="W" horiz-adv-x="978" 
d="M1040 469q-11 -97 -71 -188q-17 -27 -104 -132q-54 -64 -54 -102q0 -44 39 -44q18 0 38 19t15 40q11 -25 7 -55q-3 -25 -26 -41.5t-51 -16.5q-19 0 -47 12t-45 12q-32 0 -101 -34q18 16 32 34q34 41 39 78q2 13 2 28q0 67 -50 189q-36 -55 -62 -97q-63 -102 -66 -126
q-2 -12 4.5 -23.5t17.5 -11.5q23 0 26 25q1 12 -11 36q69 -18 63 -65q-5 -37 -34.5 -59.5t-63.5 -22.5q-32 0 -69 45.5t-69 45.5q-58 0 -96 -37q6 10 40 45q25 20 50 41.5t28 48.5q9 96 -27 240q-45 184 -133 184q-40 0 -72 -23q-39 -30 -45 -86q-3 -32 15.5 -55t46.5 -23
q29 0 48.5 17t19.5 45q0 41 -49 38q24 18 55 18q33 0 55.5 -28t22.5 -67q0 -68 -53 -114.5t-120 -41.5q-62 5 -94 48q-29 39 -29 99q0 18 3 36q11 75 63 134q64 72 162 76q34 1 94.5 -14.5t73.5 -15.5q49 0 53 32q2 16 -9 27t-26 7q16 5 33 5q55 0 58 -60q1 -32 -15 -73
q-20 -49 -24 -78q-3 -21 -3 -47q0 -54 10 -115q25 47 102 156q23 28 77 86q4 -64 38 -127q56 -104 61 -115q9 6 52 99q-30 -12 -35 -12q-20 0 -32 22t-8 47q7 49 68 89q-7 -8 -13 -16q-13 -19 -15 -37q-4 -32 33 -32q34 0 42 56q7 51 -17 117q-33 90 -110 118q77 -8 132 -33
q132 -60 132 -194q0 -16 -2 -33z" />
    <glyph glyph-name="X" unicode="X" horiz-adv-x="772" 
d="M893 -141q-4 -60 -50 -96q-40 -31 -91 -31q-87 0 -160 134q-45 82 -111 281q-59 -58 -71 -70q-30 -32 -32 -43q-5 -37 24 -47q12 -4 30 -3q-27 -27 -56 -27q-70 0 -66 62q-44 -38 -93 -38q-35 0 -55.5 21t-20.5 56q0 62 46 106.5t108 37.5q-16 -5 -29 -12
q-29 -16 -32 -40q-2 -18 6 -26.5t27 -6.5q31 3 172 148q-53 151 -78 192q-37 60 -96 60q-102 0 -112 -94q-4 -33 15 -55.5t47 -22.5q29 0 47.5 17t18.5 45q0 40 -48 37q15 9 63 21q34 2 56 -33q19 -32 14 -67q-11 -78 -67 -120q-49 -36 -106 -32q-61 5 -92 48q-28 39 -28 99
q0 17 2 35q11 81 57 138q58 73 151 73q64 0 121 -51q-6 17 -2 42q3 21 26 38.5t51 16.5q26 -1 47 -14q28 -16 28 -46q0 -25 -21 -57q7 56 -32 56q-26 0 -31 -38q-4 -28 15 -84q7 -23 44 -117q66 65 85 90q35 46 42 98q2 16 2 30q0 118 -136 118q-21 0 -39 -3q81 38 152 33
q170 -11 170 -143q0 -14 -2 -30q-9 -66 -49 -127q-28 -43 -29 -45q-15 -26 -18 -45q-3 -22 17 -22q25 0 54 44q4 -28 1 -47q-5 -37 -29 -69q-27 -35 -59 -35q-26 0 -39 17.5t-10 40.5q3 21 20 55q-42 -41 -85 -78q65 -185 90 -237q54 -114 108 -114q42 0 48 45q3 26 -40 37
q118 4 110 -106z" />
    <glyph glyph-name="Y" unicode="Y" horiz-adv-x="756" 
d="M809 524q-19 -134 -200 -255q-14 -47 -34 -139q-1 -8 -1 -15q0 -30 13.5 -51.5t34.5 -21.5q37 0 41 29q2 17 -17 26q58 -5 50 -60q-9 -60 -74 -60q-8 0 -15 1q-17 3 -58 19q-33 13 -59 13q-24 0 -44 -16.5t-23 -35.5q-7 -46 38 -48q19 -1 31.5 12t12.5 29q0 5 -1 9
q18 -18 15 -38t-24 -38q-25 -23 -61 -26q-46 -4 -84 20q-42 28 -35 76q6 41 54 81q31 25 61 50q18 25 20 65q-22 -33 -58 -33q-50 0 -42 57q8 53 76 98q-26 -47 -26 -72q0 -19 18 -19q31 0 40 19q6 11 12 60q-120 231 -207 231q-40 0 -70 -23q-38 -29 -44 -85q-3 -33 15 -55
t46 -22q29 0 47.5 17t18.5 45q0 40 -48 37q15 9 63 21q34 2 55 -31.5t16 -68.5q-10 -78 -67 -120q-49 -36 -106 -32q-61 5 -93 48q-29 39 -29 99q0 17 3 35q12 83 68 158q68 92 160 92q52 0 115 -51q-6 17 -3 42q3 21 26.5 38.5t51.5 16.5q23 -1 41 -15q24 -17 24 -46
t-24 -65q6 57 -33 57q-25 0 -31 -39q-4 -31 35 -94q4 -6 58 -81q27 21 47 46q50 59 59 125q2 16 2 31q0 117 -135 117q-21 0 -39 -3q81 38 151 33q58 -4 105 -38q63 -45 63 -125q0 -15 -2 -31z" />
    <glyph glyph-name="Z" unicode="Z" horiz-adv-x="636" 
d="M718 610q-49 -50 -84 -88q-85 -90 -87 -105q-4 -30 29 -30q13 0 45 39q-51 -140 -126 -140q-31 0 -31 27q0 19 13 44l-195 -200q44 16 80 12q39 -4 89 -59t92 -55q59 0 67 57q3 22 -30 64q85 -28 85 -125q0 -15 -2 -31q-8 -58 -58 -93q-44 -33 -100 -33q-57 0 -114 43
q-48 39 -97 78q-60 42 -125 42q-66 0 -72 -49q-4 -32 28 -32q17 0 31 14q-20 -47 -68 -47q-60 0 -60 58q0 10 2 21q5 34 83.5 109.5t84.5 116.5q4 30 -25 30q-21 0 -54 -38q33 107 105 97q32 -5 32 -41q0 -13 -4 -32l237 239q-34 -20 -69 -20q-20 0 -57.5 9.5t-49.5 9.5
q-21 0 -40 -15.5t-22 -36.5q-3 -19 8 -34.5t29 -15.5q8 0 15 3q-34 -34 -87 -34q-41 0 -68 25t-27 72q0 12 2 24q8 59 64 97q53 36 125 36q48 0 105 -24.5t98 -24.5q78 0 203 36z" />
    <glyph glyph-name="bracketleft" unicode="[" horiz-adv-x="270" 
d="M301 659l-14 -54h-57l-93 -671h65l-14 -54h-147l108 779h152z" />
    <glyph glyph-name="backslash" unicode="\" horiz-adv-x="344" 
d="M343 -97h-56l-230 720h57z" />
    <glyph glyph-name="bracketright" unicode="]" horiz-adv-x="270" 
d="M270 659l-107 -779h-153l14 54h58l92 671h-64l13 54h147z" />
    <glyph glyph-name="asciicircum" unicode="^" horiz-adv-x="329" 
d="M326 503l-25 -23l-110 77l-129 -77l-20 23l164 141z" />
    <glyph glyph-name="underscore" unicode="_" horiz-adv-x="550" 
d="M609 -138l-7 -44h-623l7 44h623z" />
    <glyph glyph-name="grave" unicode="`" horiz-adv-x="177" 
d="M173 397l-11 -7l-100 143q-4 5 -8.5 15.5t-4.5 20.5q0 22 14 39t35 17q32 0 45 -47z" />
    <glyph glyph-name="a" unicode="a" 
d="M550 137q-28 -53 -77 -96q-67 -58 -134 -58q-65 0 -62 67q-26 -25 -69 -44q-48 -21 -87 -20q-57 1 -79 47q-16 33 -12 80q7 71 58 137q68 88 178 105q19 3 38 3q43 0 77 -13t43 -30q-13 -38 -18 -56q-13 -54 -16 -122q-2 -47 35 -47q22 0 58 28q28 21 48 44zM295 230
q1 20 -2 28q-6 13 -24 12q-40 -2 -77 -54q-33 -46 -34 -79q-1 -42 30 -42q35 0 71 51q34 48 36 84z" />
    <glyph glyph-name="b" unicode="b" horiz-adv-x="423" 
d="M434 222q-7 -76 -54 -142q-65 -91 -177 -104q-13 -2 -25 -2q-69 0 -103 48q-25 35 -24 76q2 56 13 164q14 130 16 161q4 51 -17 77q-13 16 -26 16q-17 0 -34 -7q42 107 135 104q82 -3 81 -101q-1 -66 -44 -246q79 86 164 85q59 -1 83 -47q16 -33 12 -82zM298 210
q1 37 -31 37q-35 0 -72 -53q-35 -49 -38 -88q-1 -17 7 -28t27 -10q40 2 76 58q30 48 31 84z" />
    <glyph glyph-name="c" unicode="c" horiz-adv-x="402" 
d="M517 137q-34 -51 -119 -100q-112 -64 -229 -59q-52 2 -87 27q-55 39 -52 125q3 79 73 149q77 78 182 78q45 0 74 -21t30 -59q1 -44 -27 -82q-32 -41 -79 -37q-41 4 -41 52q0 13 3 28q7 -18 25 -18q10 0 18 10.5t9 23.5q2 26 -21 26q-46 0 -84 -47q-34 -42 -35 -84
q-2 -83 85 -83q80 0 164 39q56 26 92 57z" />
    <glyph glyph-name="d" unicode="d" horiz-adv-x="458" 
d="M550 137q-28 -53 -77 -96q-67 -58 -134 -58q-64 0 -62 72q-26 -27 -69 -47q-48 -23 -87 -22q-57 1 -79 47q-16 33 -12 80q7 71 58 137q68 88 178 105q19 3 51 3q2 25 6 73q4 51 -20 76q-14 16 -29 16q-16 0 -33 -6q42 107 135 104q82 -3 81 -101q0 -34 -32 -181
q-33 -150 -35 -202q-2 -47 35 -47q22 0 58 28q28 21 48 44zM295 230q1 20 -2 28q-6 13 -24 12q-40 -2 -77 -54q-33 -46 -34 -79q-1 -42 30 -42q35 0 71 51q34 48 36 84z" />
    <glyph glyph-name="e" unicode="e" horiz-adv-x="393" 
d="M492 138q-29 -48 -114 -96q-106 -61 -215 -61q-81 0 -116 54q-25 37 -24 88q1 81 72 154q78 80 184 80q98 0 104 -80q4 -51 -56 -105q-64 -59 -161 -75q18 -25 54 -25q72 0 157 37q61 26 96 54zM265 243q1 27 -22 27q-30 0 -61 -41.5t-32 -79.5v-13q49 18 85 55
q29 32 30 52z" />
    <glyph glyph-name="f" unicode="f" horiz-adv-x="251" 
d="M401 543q1 -50 -26 -96q-30 -52 -73 -52q-27 0 -37 23q-5 10 -8 42q-3 23 -12 23q-18 0 -45 -133h88q11 0 9 -10l-9 -43q-1 -7 -9 -7h-89q-16 -86 -19 -168q-1 -37 35 -37q14 0 50 30q30 25 49 47l19 -25q-28 -53 -77 -96q-67 -58 -134 -58q-65 0 -63 72q2 62 30 235h-32
q-11 0 -9 10l9 43q1 7 9 7h32q11 68 14 83q39 185 165 185q37 0 50 -28q1 -3 12 -53q7 -28 27 -28q12 0 44 34z" />
    <glyph glyph-name="g" unicode="g" horiz-adv-x="426" 
d="M564 132q-55 -59 -188 -126q-82 -289 -241 -289q-107 0 -98 97q5 56 74 106q49 35 156 83q12 36 19 67q-80 -85 -166 -84q-59 1 -82 47q-16 34 -12 83q9 105 84 176.5t180 71.5q48 0 92 -12.5t53 -28.5q-14 -94 -46 -265q113 54 159 100zM291 234q1 18 -6.5 28.5
t-26.5 9.5q-40 -2 -76 -58q-30 -48 -32 -84q-2 -37 33 -37t71 53q34 49 37 88zM237 -61q-88 -43 -90 -69q-1 -14 15 -14q29 0 75 83z" />
    <glyph glyph-name="h" unicode="h" horiz-adv-x="447" 
d="M544 137q-28 -53 -77 -96q-67 -58 -134 -58q-31 0 -47.5 20t-15.5 52q1 33 11 78.5t11 69.5q2 37 -20 37q-33 0 -72 -53q-43 -58 -45 -123q-2 -57 7 -78q-68 -2 -98 32q-24 28 -22 76q2 54 15 166q15 125 18 163q4 52 -17 77q-14 16 -27 16q-16 0 -34 -7q43 107 136 104
q82 -3 81 -101q-1 -66 -44 -246q24 23 50 40q62 40 119 45q49 4 70 -23q16 -22 15 -63q-1 -28 -13.5 -81.5t-12.5 -61.5q-1 -21 4 -29t24 -8q14 0 50 30q30 25 49 47z" />
    <glyph glyph-name="i" unicode="i" horiz-adv-x="224" 
d="M237 493q-1 -25 -25 -48q-27 -26 -64 -26q-57 0 -55 50q1 26 30.5 50t65.5 24q21 0 35 -16.5t13 -33.5zM324 137q-28 -53 -77 -96q-67 -58 -134 -58q-31 0 -47.5 20t-15.5 52q1 33 20.5 102t19.5 74q0 26 -18 26q-6 0 -34 -21l-23 27l64 58q43 38 64 40q33 3 48.5 -19.5
t11.5 -58.5q-13 -61 -28 -155q-1 -43 31 -43q14 0 50 30q30 25 49 47z" />
    <glyph glyph-name="j" unicode="j" horiz-adv-x="237" 
d="M237 493q-1 -25 -25 -48q-27 -26 -64 -26q-57 0 -55 50q1 26 30.5 50t65.5 24q21 0 35 -16.5t13 -33.5zM328 132q-53 -57 -165 -124q-59 -283 -201 -294q-47 -4 -81 22q-38 28 -33 78q5 56 66 106q44 36 138 83q32 128 38 228q1 26 -18 26q-6 0 -34 -21l-23 27l64 58
q43 38 64 40q33 3 48.5 -19.5t11.5 -58.5q-14 -131 -29 -219q91 48 137 94zM30 -70q-74 -47 -75 -73q0 -15 15 -15q31 0 60 88z" />
    <glyph glyph-name="k" unicode="k" horiz-adv-x="446" 
d="M555 137q-29 -53 -76 -96q-65 -59 -129 -59q-45 0 -105.5 49t-82.5 102q-4 -112 0 -147q-68 -2 -98 32q-24 28 -22 76q2 54 15 166q15 125 18 163q4 52 -17 77q-14 16 -27 16q-16 0 -34 -7q43 107 136 104q82 -3 81 -101q-1 -66 -46 -260q23 41 62 75q55 47 113 47
q40 0 67 -27q24 -26 27 -64q-30 14 -62 9q-33 -5 -71 -34q-33 -25 -49 -49q8 -48 62 -92q50 -40 88 -40q58 0 131 85z" />
    <glyph glyph-name="l" unicode="l" horiz-adv-x="221" 
d="M317 137q-28 -53 -77 -96q-67 -58 -134 -58q-31 0 -47.5 20t-15.5 52q2 59 25 217q11 79 23 159q4 52 -19 76q-15 16 -29 16q-17 0 -33 -6q41 107 134 104q86 -3 83 -101q-2 -51 -30.5 -211.5t-28.5 -180.5q-1 -43 31 -43q14 0 50 30q30 25 49 47z" />
    <glyph glyph-name="m" unicode="m" horiz-adv-x="688" 
d="M765 137q-28 -53 -77 -96q-67 -58 -134 -58q-65 0 -63 72q1 32 12.5 77t12.5 70q1 38 -23 38q-26 0 -62 -62q-38 -65 -41 -126q-2 -43 8 -66q-70 -2 -98 23q-25 22 -23 73q1 32 10 64t10 57q2 37 -27 37q-25 0 -54 -57t-32 -119q-2 -56 7 -78q-69 -2 -98 29
q-24 26 -22 79q1 26 9.5 72.5t9.5 72.5q2 18 -9 18q-6 0 -34 -21l-24 27q5 4 63 58q42 39 57 40q26 2 42 -21.5t16 -54.5q0 -10 -2 -19q15 23 35 40q46 40 103 45q49 4 70 -23q17 -22 16 -63q7 6 15 13q23 27 45 43q37 27 77 30q48 4 69 -23q18 -22 16 -63
q-1 -28 -13.5 -81.5t-12.5 -61.5q-1 -21 4 -29t24 -8q14 0 50 30q30 25 49 47z" />
    <glyph glyph-name="n" unicode="n" horiz-adv-x="453" 
d="M552 137q-28 -53 -77 -96q-67 -58 -134 -58q-65 0 -63 72q1 33 11 78.5t11 69.5q2 37 -20 37q-33 0 -72 -53q-43 -58 -45 -123q-2 -64 7 -85q-124 -3 -124 94q0 10 1 21q17 58 34 143q1 20 -9 20q-6 0 -34 -21l-23 27q5 4 63 59q41 39 56 39q46 0 46 -65q0 -15 -3 -30
q25 23 51 40q62 40 119 45q48 4 69 -23q18 -22 16 -63q-1 -28 -13.5 -81.5t-12.5 -61.5q-1 -21 4 -29t24 -8q14 0 50 30q30 25 49 47z" />
    <glyph glyph-name="o" unicode="o" horiz-adv-x="413" 
d="M410 205q-4 -92 -68 -159t-159 -67q-79 0 -120 51q-30 38 -33 95q-5 86 62 158q72 80 181 80q70 0 106 -47q34 -43 31 -111zM297 209q1 27 -7.5 49.5t-24.5 22.5q-51 0 -84 -55q-28 -45 -30 -96q-1 -25 9 -44q11 -22 31 -22q45 0 77 53q27 44 29 92z" />
    <glyph glyph-name="p" unicode="p" horiz-adv-x="450" 
d="M450 230q-8 -75 -53 -138q-63 -89 -171 -102q-38 -5 -67 5q-6 -47 -7 -92q-1 -50 18 -75q12 -15 24 -15q15 0 31 8q-39 -107 -129 -104q-82 3 -79 100q2 55 34 215.5t33 204.5q3 20 -14 20q-7 0 -33 -21l-24 27q5 4 63 58q41 39 56 40q27 2 43 -21.5t16 -55.5
q0 -9 -2 -18q85 92 168 91q94 -2 94 -108q0 -10 -1 -19zM319 217q1 38 -31 38q-35 0 -71 -52q-33 -47 -36 -85q-1 -17 6 -27.5t25 -9.5q40 2 76 56q30 46 31 80z" />
    <glyph glyph-name="q" unicode="q" horiz-adv-x="432" 
d="M462 -171q-42 -108 -135 -105q-82 3 -81 101q1 67 44 246q-80 -86 -165 -85q-59 1 -82 47q-17 34 -12 83q7 75 54 141q65 91 178 105q13 2 25 2q68 0 102 -48q25 -35 24 -77q-2 -54 -13 -163q-14 -127 -16 -162q-4 -52 17 -76q13 -16 27 -16q16 0 33 7zM297 234
q1 17 -7 28t-27 10q-40 -2 -76 -58q-30 -48 -31 -84q-1 -37 32 -37q35 0 72 53q35 49 37 88z" />
    <glyph glyph-name="r" unicode="r" horiz-adv-x="386" 
d="M429 287q1 -51 -28 -103q-32 -59 -75 -59q-30 0 -41 27q-3 7 -12 51q-5 27 -19 27q-16 0 -40 -50q-27 -56 -29 -119q-1 -52 6 -75q-69 -2 -98 29q-25 26 -23 79q1 27 11 73t11 72q1 18 -14 18q-6 0 -34 -21l-23 27q5 4 63 58q41 39 56 40q27 2 44 -24q14 -23 14 -54
q0 -9 -1 -17q38 52 47 62q34 35 73 35q31 0 39 -29q2 -26 5 -52q3 -29 24 -29q12 0 44 34z" />
    <glyph glyph-name="s" unicode="s" horiz-adv-x="383" 
d="M379 314q4 -28 -15 -49t-47 -22q-39 -2 -56 35h7q5 -1 6 -1q18 0 18 18q1 6 -6.5 10t-15.5 4q-27 -1 -32 -34q-3 -23 51 -77q60 -60 67 -85q4 -15 4 -28q0 -50 -52 -80q-45 -26 -108 -28q-64 -2 -107 18q-55 26 -52 81q2 34 27 57.5t66 21.5q47 -2 47 -52q0 -7 -1 -13
q-9 12 -33 10q-23 -2 -21 -24q1 -16 29 -18q30 -2 46.5 12t14.5 36q-1 16 -32 46q-41 39 -54 57q-27 38 -22 80q4 32 37 58q42 33 110 35q115 4 124 -68z" />
    <glyph glyph-name="t" unicode="t" horiz-adv-x="283" 
d="M379 137q-25 -47 -91 -96q-78 -58 -146 -58q-83 0 -84 72q-1 51 31 235h-41q-11 0 -9 10l9 43q1 7 9 7h41l16 96q4 24 49 48q42 22 68 22q14 0 12 -8q-9 -44 -33 -158h67q11 0 9 -10l-9 -43q0 -7 -8 -7h-71q-20 -104 -22 -168q-1 -37 48 -37q37 0 82 30q33 22 54 47z" />
    <glyph glyph-name="u" unicode="u" horiz-adv-x="475" 
d="M582 137q-28 -52 -78 -96q-66 -58 -134 -58q-26 0 -44.5 20t-18.5 51q0 11 3 23q-25 -23 -50 -40q-62 -42 -120 -46q-49 -4 -70 23q-17 22 -15 63q1 29 17.5 88t16.5 66q1 26 -18 26q-6 0 -34 -21l-23 27l64 58q43 38 65 40q32 3 49.5 -17.5t16.5 -53.5
q-1 -25 -11.5 -78.5t-10.5 -72.5q-1 -36 20 -36q30 0 68.5 44.5t39.5 83.5q1 15 -8 26.5t-24 11.5q-16 0 -33 -7q30 107 123 104q76 -2 74 -83q-1 -26 -12 -78q-12 -55 -13 -68q-3 -47 35 -47q41 0 106 72z" />
    <glyph glyph-name="v" unicode="v" horiz-adv-x="451" 
d="M462 277q-3 -65 -91 -178q-91 -118 -154 -118q-39 0 -66 72l-36 132q-20 72 -43 72q-5 0 -35 -21l-21 27q33 29 65 58q44 38 66 40q52 5 64 -71q13 -82 18 -102q15 -68 33 -68q14 0 42 44t30 67q4 38 -30 38q-16 0 -33 -7q33 107 126 104q69 -2 65 -89z" />
    <glyph glyph-name="w" unicode="w" horiz-adv-x="616" 
d="M616 283q-1 -36 -26 -96q-32 -81 -84 -131q-68 -65 -159 -65q-36 0 -59 28q-20 24 -19 51q-15 -23 -48 -47q-46 -32 -93 -32q-88 0 -85 86q1 30 17 88q17 62 17 66q0 26 -18 26q-6 0 -34 -21l-23 27l64 58q43 38 64 40q33 3 50.5 -17.5t16.5 -53.5q-1 -26 -11 -79
t-11 -72q-1 -36 20 -36q28 0 54.5 43t28.5 85q1 15 -7.5 26.5t-23.5 11.5q-16 0 -33 -7q30 107 123 104q39 -1 52 -25q9 -17 8 -58q-1 -24 -13.5 -77.5t-12.5 -68.5q-1 -34 29 -34q28 0 54.5 43t28.5 85q1 15 -7.5 26.5t-23.5 11.5q-16 0 -33 -7q30 107 123 104
q77 -2 74 -83z" />
    <glyph glyph-name="x" unicode="x" 
d="M509 137q-88 -164 -212 -158q-75 3 -101 105q-32 -27 -119 -102q-7 -5 -14 2l-19 39q-4 4 2 9l136 118q-11 63 -14 75q-10 32 -26 32q-14 0 -39 -22l-21 28q67 62 75 69q37 29 65 29q46 0 65 -119l130 113q9 4 13 -3l22 -37q3 -6 -3 -11l-151 -130q18 -87 54 -87
q37 0 83 29q32 21 55 46z" />
    <glyph glyph-name="y" unicode="y" horiz-adv-x="459" 
d="M579 132q-58 -61 -191 -127q-42 -125 -99 -200q-67 -88 -139 -88q-107 0 -98 97q5 56 73 105q48 35 156 84q11 28 19 68q-22 -21 -46 -37q-58 -39 -116 -43q-49 -4 -70 23q-17 22 -15 63q1 30 18.5 91t17.5 63q1 26 -18 26q-6 0 -34 -21l-23 27l64 58q43 38 65 40
q32 3 49 -17.5t17 -53.5q0 -19 -11 -74q-12 -58 -13 -77q-1 -36 20 -36q30 0 68.5 44.5t39.5 83.5q1 15 -8 26.5t-23 11.5q-17 0 -33 -7q29 107 122 104q77 -2 74 -85q-4 -103 -40 -222q110 53 158 99zM252 -61q-88 -43 -90 -69q-1 -14 15 -14q29 0 75 83z" />
    <glyph glyph-name="z" unicode="z" horiz-adv-x="460" 
d="M530 137q-28 -53 -77 -96q-67 -58 -134 -58q-38 0 -88.5 12t-80.5 12q-10 0 -41.5 -8.5t-40.5 -8.5q-32 0 -31 19q0 11 26 36l204 195q-24 -1 -73 13.5t-79 14.5q-29 0 -57 -9q19 42 55 69t72 27q34 0 74.5 -13t67.5 -13q45 0 88 24q8 4 19.5 -1.5t12.5 -17.5
q1 -19 -10 -30l-200 -193q62 -27 115 -27q26 0 53 6q22 5 58 31q32 22 48 41z" />
    <glyph glyph-name="braceleft" unicode="{" horiz-adv-x="377" 
d="M388 644q-31 -9 -54 -23q-54 -31 -61 -76l-23 -159q-7 -51 -60 -93q-48 -39 -89 -38q41 1 80.5 -40t32.5 -92l-23 -160q-10 -69 87 -99h-83q-54 0 -84 44q-23 35 -19 66l25 179q8 54 -98 103q35 13 60 27q61 35 66 71l25 181q4 30 38 65q42 44 96 44h84z" />
    <glyph glyph-name="bar" unicode="|" horiz-adv-x="270" 
d="M233 623l-101 -720h-87l101 720h87z" />
    <glyph glyph-name="braceright" unicode="}" horiz-adv-x="377" 
d="M372 252q-35 -13 -60 -27q-61 -35 -66 -71l-25 -181q-4 -31 -38 -66q-42 -44 -96 -44h-84q31 9 54 23q54 31 61 77l23 159q7 51 60 93q48 39 89 38q-41 -1 -79 39q-41 42 -34 93l23 159q10 70 -87 99h84q54 0 83 -43q23 -35 19 -66l-25 -179q-8 -54 98 -103z" />
    <glyph glyph-name="asciitilde" unicode="~" horiz-adv-x="404" 
d="M384 637q-5 -36 -35 -72q-34 -41 -76 -41q-15 0 -31 6l-59 24q-23 9 -43 9q-50 0 -77 -46l-5 2q4 37 35 75q36 41 77 41q15 0 30 -6l60 -26q20 -9 40 -9q48 0 81 47z" />
    <glyph glyph-name="Adieresis" unicode="&#xc4;" horiz-adv-x="673" 
d="M587 749q-3 -21 -22 -38q-23 -21 -57 -21q-47 0 -41 40q3 21 29 40.5t56 19.5q18 0 28 -13.5t7 -27.5zM431 749q-3 -21 -23 -38q-23 -21 -57 -21q-46 0 -40 40q3 21 29.5 40.5t55.5 19.5q18 0 27.5 -13t7.5 -28zM865 -157q-7 -54 -48 -84q-37 -27 -86 -27
q-106 0 -180.5 131t-94.5 346q-61 -25 -106 -68t-51 -87q-5 -38 27 -38q22 0 25 16q2 9 -12 30q-2 3 0 6q1 2 5 1q14 -5 26 -18q14 -17 12 -35q-7 -55 -81 -55q-39 0 -84 26t-74 26q-28 0 -48 -12t-21 -23q-2 -21 15 -21q13 0 29 11q4 2 6 0q3 -1 0 -5q-6 -9 -13 -15
q-16 -16 -34 -19q-23 -4 -44 7q-27 13 -23 42q5 41 86 94q95 61 116 93q13 19 39 65q-21 -8 -52 -5q-61 5 -94 49q-28 39 -28 100q0 17 2 35q10 73 67 132q67 70 162 69q49 0 107 -4q55 -4 73 -4q64 0 69 34q3 20 -15 20q-14 0 -37 -12q-3 -2 -5 0q-3 3 0 6q10 11 20 20
q25 20 48 23q25 3 42 -10q20 -16 15 -48q-4 -28 -37.5 -65.5t-35.5 -49.5q-13 -94 -7 -194q42 10 78 10q48 0 76.5 -26t28.5 -69t-35 -78t-80 -43q10 16 13 40q4 28 -18 47t-53 21q22 -153 75 -254q55 -106 122 -106q43 0 49 44q4 26 -40 38q105 4 105 -88q0 -9 -1 -19z
M363 490q4 25 -29 42q-27 14 -59 14q-40 0 -71 -23q-39 -30 -45 -86q-4 -33 15 -56t47 -23q29 0 48 17.5t19 45.5q0 41 -49 38q33 23 64 21q30 -2 45 -28q12 20 15 38zM451 439q-38 -75 -118 -258q42 63 117 108q-2 60 1 150z" />
    <glyph glyph-name="Aring" unicode="&#xc5;" horiz-adv-x="673" 
d="M865 -157q-7 -54 -48 -84q-37 -27 -86 -27q-106 0 -180.5 131t-94.5 346q-61 -25 -106 -68t-51 -87q-5 -38 27 -38q22 0 25 16q2 9 -12 30q-2 3 0 6q1 2 5 1q14 -5 26 -18q14 -17 12 -35q-7 -55 -81 -55q-39 0 -84 26t-74 26q-28 0 -48 -12t-21 -23q-2 -21 15 -21
q13 0 29 11q4 2 6 0q3 -1 0 -5q-6 -9 -13 -15q-16 -16 -34 -19q-23 -4 -44 7q-27 13 -23 42q5 41 86 94q95 61 116 93q13 19 39 65q-21 -8 -52 -5q-61 5 -94 49q-28 39 -28 100q0 17 2 35q10 73 67 132q67 70 162 69q49 0 107 -4q55 -4 73 -4q65 0 69 34q2 20 -16 20
q-11 0 -27 -7q-28 -19 -62 -19q-38 0 -62.5 24.5t-24.5 60.5q0 46 34.5 80.5t80.5 34.5q38 0 62.5 -24.5t24.5 -61.5q0 -27 -15 -55q7 3 16 4q25 4 43.5 -11t13.5 -47q-4 -28 -37.5 -65.5t-35.5 -49.5q-13 -94 -7 -194q42 10 78 10q48 0 76.5 -26t28.5 -69t-35 -78t-80 -43
q10 16 13 40q4 28 -18 47t-53 21q22 -153 75 -254q55 -106 122 -106q43 0 49 44q4 26 -40 38q105 4 105 -88q0 -9 -1 -19zM523 730q3 23 -11.5 39.5t-37.5 16.5t-42 -16.5t-22 -39.5q-3 -24 11 -40.5t37 -16.5q24 0 43 16.5t22 40.5zM363 490q4 25 -29 42q-27 14 -59 14
q-40 0 -71 -23q-39 -30 -45 -86q-4 -33 15 -56t47 -23q29 0 48 17.5t19 45.5q0 41 -49 38q33 23 64 21q30 -2 45 -28q12 20 15 38zM451 439q-38 -75 -118 -258q42 63 117 108q-2 60 1 150z" />
    <glyph glyph-name="Ccedilla" unicode="&#xc7;" horiz-adv-x="738" 
d="M764 550q-4 -57 -51.5 -95t-116.5 -38q-72 0 -157 30q-58 -70 -74 -177q-3 -18 -3 -35q0 -58 32 -90q29 -30 76 -30q98 0 107 71q4 31 -10 47t-34 16q-19 0 -37 -14q-22 -16 -22 -42q0 -8 3 -17q-34 34 -28 74q5 37 44 69q46 38 108 38q60 0 98 -34t38 -95q0 -24 -6 -51
q-23 -96 -96.5 -152t-179.5 -56q-14 0 -29 1l-9 -31q30 3 63 -22q40 -31 33 -80q-7 -52 -51 -83q-39 -26 -87 -26q-42 0 -68 24t-23 56q3 30 27 50.5t51 20.5q25 0 36.5 -18t9.5 -42q-10 18 -22 18q-26 0 -31 -29t31 -29q16 0 32 18.5t19 43.5q3 26 -21 45.5t-59 19.5l26 72
q-59 19 -94 66q-44 57 -44 146q0 29 5 60l5 25q-45 -40 -102 -35q-49 4 -78.5 39.5t-29.5 91.5q0 13 2 27q10 75 75 122q60 43 135 43q60 0 155 -37q128 124 246 124q48 0 77 -23q32 -26 29 -77zM637 524q4 33 -40 33q-11 0 -39 -12q-39 -16 -73 -45q45 -17 85 -17
q62 0 67 41zM364 470q-50 12 -83 12q-52 0 -83 -25q-27 -22 -31 -53q-4 -26 9.5 -41.5t37.5 -15.5q38 0 43 37q2 18 -17 48q13 -5 24 -12q24 -18 30 -45q24 41 70 95z" />
    <glyph glyph-name="Eacute" unicode="&#xc9;" horiz-adv-x="717" 
d="M573 759q-3 -4 -15 -14l-141 -117l-12 7l75 156q2 6 9 17q17 22 46 22q15 0 27 -7q20 -12 20 -36q0 -16 -9 -28zM582 -22q-19 -116 -112 -116q-68 0 -61 64q4 -7 9 -13q11 -13 27 -14q26 -2 32 36q4 23 -17 42q-27 23 -81 23q-43 0 -109 -20t-93 -20q-64 0 -64 68
q0 11 3 22q7 30 30.5 55.5t51.5 25.5q13 0 25 -7q-11 -1 -19 -6q-19 -11 -23 -37t22 -26q34 0 54 72q7 26 30 160q-39 -68 -118 -62q-58 5 -88 48q-28 39 -28 99q0 18 3 37q10 70 66 130q65 70 148 70q18 0 37 -4q132 -26 227 -22q50 2 57 46q5 35 -32 35q-18 0 -49 -22
q33 53 96 53q82 0 82 -99q0 -59 -38.5 -97.5t-98.5 -38.5q-46 0 -114 20q-6 -35 -26 -150q46 66 110 66q46 0 46 -45q0 -7 -1 -14q-4 -27 -34 -58q-37 -38 -85 -44q13 7 22 15q22 19 25 38q2 15 -27 15q-15 0 -35 -36q-23 -41 -31 -97q-1 -10 -1 -19q0 -74 95 -74
q100 0 107 75q2 18 -7 25t-25 6q-27 -2 -60 -53q35 151 133 148q83 -2 83 -104q0 -67 -39 -123q-42 -58 -105 -73zM311 452q-5 94 -68 94q-38 0 -68 -23q-37 -30 -43 -86q-4 -33 14 -56t44 -23q28 0 46 18t18 46q0 40 -46 37q32 23 62 21q29 -2 41 -28z" />
    <glyph glyph-name="Ntilde" unicode="&#xd1;" horiz-adv-x="743" 
d="M673 789q-5 -37 -35 -72q-35 -42 -77 -42q-15 0 -31 6l-59 24q-23 9 -43 9q-49 0 -77 -46l-4 2q3 37 36.5 76.5t75.5 39.5q15 0 30 -6l60 -25q20 -8 39 -8q49 0 82 45zM796 691q-70 -95 -136 -566q-9 -63 -9 -111q0 -132 63 -132q24 0 49 14q-21 -39 -80 -39
q-88 0 -130 74q-31 -33 -70 -33q-31 0 -49 28q10 -3 20 -3q25 0 42 22q14 20 18 47q3 23 -15 75q-6 15 -41 102q-27 66 -89 154q-8 -27 -24 -113q-3 -20 -3 -44q0 -48 11 -82q13 -40 37 -40q25 0 25 23q0 16 -10 36q42 -22 36 -59q-4 -30 -26 -48t-54 -18q-24 0 -66.5 18.5
t-52.5 18.5q-45 0 -49 -28q-3 -25 24 -25q11 0 22 3q-32 -34 -58 -34q-57 0 -52 51q2 20 40 89q45 83 71 170q-37 -42 -84 -43q-49 -1 -84 21q-52 33 -52 111q0 17 3 36q16 119 123 178q67 37 123 37q25 0 47 -3q8 32 46 53q35 19 65 16q32 -3 39 -23q-13 6 -26 6t-26 -12
q-15 -15 -19 -41q-7 -53 60 -172q23 -41 92 -135q6 37 18 120q4 29 4 57q0 108 -52 108q-30 0 -30 -34q0 -18 8 -41q-42 50 -38 83q9 76 92 76q58 0 75 -65q49 86 172 117zM264 389q2 24 2 42q0 75 -43 75q-45 0 -78.5 -39t-33.5 -85q0 -65 59 -65q21 0 38.5 16t20.5 33
q5 31 -27 31q-20 0 -38 -19q21 36 54 36q34 0 46 -25z" />
    <glyph glyph-name="Odieresis" unicode="&#xd6;" horiz-adv-x="809" 
d="M746 713q-3 -21 -22 -38q-24 -21 -57 -21q-46 0 -41 40q3 22 29 41t56 19q18 0 28 -13.5t7 -27.5zM590 713q-3 -21 -23 -38q-23 -21 -57 -21q-46 0 -40 40q3 22 29.5 41t55.5 19q18 0 27.5 -13t7.5 -28zM798 223q-20 -134 -119 -211q-85 -67 -185 -67q-83 0 -143 54
q-71 64 -81 182q-49 -41 -110 -41q-55 0 -91 40t-36 106q0 21 4 44q15 87 102 150t191 63q34 0 70 -9q54 47 124 74q55 22 94 23q69 2 118 -26q59 -35 59 -104q0 -15 -3 -31q-6 -34 -33 -67q42 -41 42 -137q0 -22 -3 -43zM659 496q4 21 -10 34.5t-42 12.5q-51 -2 -110 -58
q57 -40 93 -41q60 -1 69 52zM663 256q0 64 -45 64q-15 0 -28.5 -11.5t-16.5 -25.5t4 -34q-36 12 -36 49q0 20 11 45q-26 10 -53.5 33.5t-53.5 46.5q-32 -56 -40 -107q-5 -31 -5 -58q0 -82 45 -124q34 -31 77 -31q57 0 100 49q41 46 41 104zM349 477q-22 4 -27 4
q-71 0 -125 -33q-59 -36 -71 -96q-2 -11 -2 -20q0 -47 47 -47q24 0 45 16.5t25 40.5q5 34 -22 45q-11 5 -28 4q32 19 70 19q19 0 40 -18q16 45 48 85z" />
    <glyph glyph-name="Udieresis" unicode="&#xdc;" horiz-adv-x="811" 
d="M717 711q-3 -21 -23 -38q-24 -21 -57 -21q-45 0 -40 40q3 22 29 41t56 19q17 0 27.5 -13t7.5 -28zM561 711q-3 -21 -23 -38q-24 -21 -57 -21q-46 0 -40 40q3 22 29 41t55 19q18 0 28.5 -13t7.5 -28zM828 626q-48 -62 -85 -196q-44 -162 -44 -280q0 -126 64 -126
q25 0 54 26q-52 -114 -135 -114q-50 0 -77 39q-23 32 -23 73q0 16 4 27q-21 -36 -46 -62q-61 -64 -137 -70q-83 -7 -125 38q-31 34 -33 88q-1 42 14 103q12 45 25 90q-53 -75 -154 -69q-116 7 -116 140q0 25 4 53q12 84 86 136q59 42 121 45q79 4 138 -38q17 27 41 47
q58 48 144 50q-25 -28 -47 -70q-53 -102 -82 -256q-15 -81 -15 -122q0 -64 36 -64q39 0 70 45q24 34 28 62q4 24 -5 40.5t-25 16.5q-35 0 -49 -19q3 28 25 54q23 30 50 30q32 0 47 -28q7 31 7 67q0 95 -53 141q31 17 63 17q37 0 63 -25q60 103 167 111zM297 403
q2 41 -17 70.5t-49 29.5q-52 0 -85 -31q-30 -27 -36 -69q-4 -31 9.5 -48.5t37.5 -17.5q65 0 73 53q3 23 -13.5 37.5t-44.5 12.5q12 6 47 14q53 4 78 -51z" />
    <glyph glyph-name="aacute" unicode="&#xe1;" 
d="M474 535q-3 -4 -15 -14l-142 -118l-11 7l75 157q2 6 9 16q17 22 46 22q15 0 27 -7q20 -12 20 -36q0 -15 -9 -27zM550 137q-28 -53 -77 -96q-67 -58 -134 -58q-65 0 -62 67q-26 -25 -69 -44q-48 -21 -87 -20q-57 1 -79 47q-16 33 -12 80q7 71 58 137q68 88 178 105
q19 3 38 3q43 0 77 -13t43 -30q-13 -38 -18 -56q-13 -54 -16 -122q-2 -47 35 -47q22 0 58 28q28 21 48 44zM295 230q1 20 -2 28q-6 13 -24 12q-40 -2 -77 -54q-33 -46 -34 -79q-1 -42 30 -42q35 0 71 51q34 48 36 84z" />
    <glyph glyph-name="agrave" unicode="&#xe0;" 
d="M277 405l-11 -8l-100 144q-4 5 -8.5 15t-4.5 21q0 22 14 39t36 17q36 0 44 -47zM550 137q-28 -53 -77 -96q-67 -58 -134 -58q-65 0 -62 67q-26 -25 -69 -44q-48 -21 -87 -20q-57 1 -79 47q-16 33 -12 80q7 71 58 137q68 88 178 105q19 3 38 3q43 0 77 -13t43 -30
q-13 -38 -18 -56q-13 -54 -16 -122q-2 -47 35 -47q22 0 58 28q28 21 48 44zM295 230q1 20 -2 28q-6 13 -24 12q-40 -2 -77 -54q-33 -46 -34 -79q-1 -42 30 -42q35 0 71 51q34 48 36 84z" />
    <glyph glyph-name="acircumflex" unicode="&#xe2;" 
d="M403 403l-26 -22l-109 76l-130 -76l-20 22l165 142zM550 137q-28 -53 -77 -96q-67 -58 -134 -58q-65 0 -62 67q-26 -25 -69 -44q-48 -21 -87 -20q-57 1 -79 47q-16 33 -12 80q7 71 58 137q68 88 178 105q19 3 38 3q43 0 77 -13t43 -30q-13 -38 -18 -56q-13 -54 -16 -122
q-2 -47 35 -47q22 0 58 28q28 21 48 44zM295 230q1 20 -2 28q-6 13 -24 12q-40 -2 -77 -54q-33 -46 -34 -79q-1 -42 30 -42q35 0 71 51q34 48 36 84z" />
    <glyph glyph-name="adieresis" unicode="&#xe4;" 
d="M421 454q-3 -21 -23 -38q-23 -21 -56 -21q-46 0 -41 40q3 22 29 41t56 19q17 0 27.5 -13.5t7.5 -27.5zM265 454q-3 -21 -23 -38q-23 -21 -57 -21q-46 0 -40 40q3 22 29.5 41t55.5 19q18 0 27.5 -13t7.5 -28zM550 137q-28 -53 -77 -96q-67 -58 -134 -58q-65 0 -62 67
q-26 -25 -69 -44q-48 -21 -87 -20q-57 1 -79 47q-16 33 -12 80q7 71 58 137q68 88 178 105q19 3 38 3q43 0 77 -13t43 -30q-13 -38 -18 -56q-13 -54 -16 -122q-2 -47 35 -47q22 0 58 28q28 21 48 44zM295 230q1 20 -2 28q-6 13 -24 12q-40 -2 -77 -54q-33 -46 -34 -79
q-1 -42 30 -42q35 0 71 51q34 48 36 84z" />
    <glyph glyph-name="atilde" unicode="&#xe3;" 
d="M464 502q-5 -37 -35 -72q-35 -42 -76 -42q-16 0 -31 6l-59 24q-23 9 -44 9q-49 0 -76 -46l-5 2q4 37 35 75q35 41 77 41q15 0 30 -6l60 -25q20 -8 40 -8q48 0 81 45zM550 137q-28 -53 -77 -96q-67 -58 -134 -58q-65 0 -62 67q-26 -25 -69 -44q-48 -21 -87 -20
q-57 1 -79 47q-16 33 -12 80q7 71 58 137q68 88 178 105q19 3 38 3q43 0 77 -13t43 -30q-13 -38 -18 -56q-13 -54 -16 -122q-2 -47 35 -47q22 0 58 28q28 21 48 44zM295 230q1 20 -2 28q-6 13 -24 12q-40 -2 -77 -54q-33 -46 -34 -79q-1 -42 30 -42q35 0 71 51q34 48 36 84z
" />
    <glyph glyph-name="aring" unicode="&#xe5;" 
d="M275 394q-40 0 -65.5 25.5t-25.5 63.5q0 48 36 84t83 36q40 0 66 -25.5t26 -64.5q0 -48 -36 -83.5t-84 -35.5zM550 137q-28 -53 -77 -96q-67 -58 -134 -58q-65 0 -62 67q-26 -25 -69 -44q-48 -21 -87 -20q-57 1 -79 47q-16 33 -12 80q7 71 58 137q68 88 178 105
q19 3 38 3q43 0 77 -13t43 -30q-13 -38 -18 -56q-13 -54 -16 -122q-2 -47 35 -47q22 0 58 28q28 21 48 44zM349 498q3 24 -12 41.5t-40 17.5q-24 0 -44 -17.5t-23 -41.5q-3 -25 12 -42t39 -17q25 0 45 17t23 42zM295 230q1 20 -2 28q-6 13 -24 12q-40 -2 -77 -54
q-33 -46 -34 -79q-1 -42 30 -42q35 0 71 51q34 48 36 84z" />
    <glyph glyph-name="ccedilla" unicode="&#xe7;" horiz-adv-x="402" 
d="M517 137q-32 -50 -115 -98q-108 -63 -221 -61l-10 -31q31 3 64 -23q40 -31 33 -80q-7 -52 -52 -82q-38 -26 -86 -26q-43 0 -68.5 23.5t-22.5 56.5q3 31 27 51t51 20q25 0 36.5 -18t9.5 -42q-10 17 -22 17q-26 0 -31 -28q-5 -29 31 -29q16 0 32 18.5t19 43.5
q3 26 -21.5 45.5t-58.5 19.5l24 69q-110 21 -106 147q3 79 72 149q78 78 183 78q45 0 74 -21t30 -59q1 -44 -27 -82q-32 -41 -79 -37q-41 4 -41 52q0 13 3 28q7 -18 25 -18q10 0 18 10.5t9 23.5q2 26 -21 26q-46 0 -84 -47q-34 -42 -35 -84q-2 -83 85 -83q80 0 164 39
q56 26 92 57z" />
    <glyph glyph-name="eacute" unicode="&#xe9;" horiz-adv-x="393" 
d="M422 535q-3 -4 -15 -14l-142 -118l-11 7l75 157q2 6 8 16q17 22 47 22q19 0 33 -12t14 -31q0 -15 -9 -27zM492 138q-29 -48 -114 -96q-106 -61 -215 -61q-81 0 -116 54q-25 37 -24 88q1 81 72 154q78 80 184 80q98 0 104 -80q4 -51 -56 -105q-64 -59 -161 -75
q18 -25 54 -25q72 0 157 37q61 26 96 54zM265 243q1 27 -22 27q-30 0 -61 -41.5t-32 -79.5v-13q49 18 85 55q29 32 30 52z" />
    <glyph glyph-name="egrave" unicode="&#xe8;" horiz-adv-x="393" 
d="M251 400l-11 -8l-100 144q-4 5 -8.5 15t-4.5 21q0 21 14 38t35 17q37 0 45 -46zM492 138q-29 -48 -114 -96q-106 -61 -215 -61q-81 0 -116 54q-25 37 -24 88q1 81 72 154q78 80 184 80q98 0 104 -80q4 -51 -56 -105q-64 -59 -161 -75q18 -25 54 -25q72 0 157 37
q61 26 96 54zM265 243q1 27 -22 27q-30 0 -61 -41.5t-32 -79.5v-13q49 18 85 55q29 32 30 52z" />
    <glyph glyph-name="ecircumflex" unicode="&#xea;" horiz-adv-x="393" 
d="M389 403l-26 -22l-109 76l-130 -76l-20 22l165 142zM492 138q-29 -48 -114 -96q-106 -61 -215 -61q-81 0 -116 54q-25 37 -24 88q1 81 72 154q78 80 184 80q98 0 104 -80q4 -51 -56 -105q-64 -59 -161 -75q18 -25 54 -25q72 0 157 37q61 26 96 54zM265 243q1 27 -22 27
q-30 0 -61 -41.5t-32 -79.5v-13q49 18 85 55q29 32 30 52z" />
    <glyph glyph-name="edieresis" unicode="&#xeb;" horiz-adv-x="393" 
d="M400 454q-3 -21 -22 -38q-23 -21 -57 -21q-46 0 -41 40q3 22 29 41t56 19q18 0 28 -13.5t7 -27.5zM244 454q-3 -21 -23 -38q-23 -21 -57 -21q-46 0 -40 40q3 22 29.5 41t55.5 19q18 0 27.5 -13t7.5 -28zM492 138q-29 -48 -114 -96q-106 -61 -215 -61q-81 0 -116 54
q-25 37 -24 88q1 81 72 154q78 80 184 80q98 0 104 -80q4 -51 -56 -105q-64 -59 -161 -75q18 -25 54 -25q72 0 157 37q61 26 96 54zM265 243q1 27 -22 27q-30 0 -61 -41.5t-32 -79.5v-13q49 18 85 55q29 32 30 52z" />
    <glyph glyph-name="iacute" unicode="&#xed;" horiz-adv-x="227" 
d="M317 535l-14 -14l-142 -118l-11 7l74 157q2 6 9 16q17 22 47 22q19 0 33 -12t14 -30q0 -16 -10 -28zM324 137q-28 -53 -77 -96q-67 -58 -134 -58q-31 0 -47.5 20t-15.5 52q1 33 20.5 102t19.5 74q0 26 -18 26q-6 0 -34 -21l-23 27l64 58q43 38 64 40q33 3 48.5 -19.5
t11.5 -58.5q-13 -61 -28 -155q-1 -43 31 -43q14 0 50 30q30 25 49 47z" />
    <glyph glyph-name="igrave" unicode="&#xec;" horiz-adv-x="227" 
d="M147 400l-11 -8l-100 144q-4 5 -8.5 15t-4.5 21q0 22 13.5 38.5t34.5 16.5q29 0 40 -27q2 -5 6 -19zM324 137q-28 -53 -77 -96q-67 -58 -134 -58q-31 0 -47.5 20t-15.5 52q1 33 20.5 102t19.5 74q0 26 -18 26q-6 0 -34 -21l-23 27l64 58q43 38 64 40q33 3 48.5 -19.5
t11.5 -58.5q-13 -61 -28 -155q-1 -43 31 -43q14 0 50 30q30 25 49 47z" />
    <glyph glyph-name="icircumflex" unicode="&#xee;" horiz-adv-x="227" 
d="M295 403l-25 -22l-110 76l-130 -76l-20 22l165 142zM324 137q-28 -53 -77 -96q-67 -58 -134 -58q-31 0 -47.5 20t-15.5 52q1 33 20.5 102t19.5 74q0 26 -18 26q-6 0 -34 -21l-23 27l64 58q43 38 64 40q33 3 48.5 -19.5t11.5 -58.5q-13 -61 -28 -155q-1 -43 31 -43
q14 0 50 30q30 25 49 47z" />
    <glyph glyph-name="idieresis" unicode="&#xef;" horiz-adv-x="227" 
d="M306 454q-3 -21 -22 -38q-23 -21 -57 -21q-46 0 -41 40q3 22 29 41t56 19q18 0 28 -13.5t7 -27.5zM150 454q-3 -21 -23 -38q-23 -21 -57 -21q-46 0 -40 40q3 22 29.5 41t55.5 19q18 0 27.5 -13t7.5 -28zM324 137q-28 -53 -77 -96q-67 -58 -134 -58q-31 0 -47.5 20
t-15.5 52q1 33 20.5 102t19.5 74q0 26 -18 26q-6 0 -34 -21l-23 27l64 58q43 38 64 40q33 3 48.5 -19.5t11.5 -58.5q-13 -61 -28 -155q-1 -43 31 -43q14 0 50 30q30 25 49 47z" />
    <glyph glyph-name="ntilde" unicode="&#xf1;" horiz-adv-x="453" 
d="M464 502q-5 -37 -35 -72q-35 -42 -76 -42q-16 0 -31 6l-59 24q-23 9 -44 9q-49 0 -76 -46l-5 2q4 37 35 75q35 41 77 41q15 0 30 -6l60 -25q20 -8 40 -8q48 0 81 45zM552 137q-28 -53 -77 -96q-67 -58 -134 -58q-65 0 -63 72q1 33 11 78.5t11 69.5q2 37 -20 37
q-33 0 -72 -53q-43 -58 -45 -123q-2 -64 7 -85q-124 -3 -124 94q0 10 1 21q17 58 34 143q1 20 -9 20q-6 0 -34 -21l-23 27q5 4 63 59q41 39 56 39q46 0 46 -65q0 -15 -3 -30q25 23 51 40q62 40 119 45q48 4 69 -23q18 -22 16 -63q-1 -28 -13.5 -81.5t-12.5 -61.5
q-1 -21 4 -29t24 -8q14 0 50 30q30 25 49 47z" />
    <glyph glyph-name="oacute" unicode="&#xf3;" horiz-adv-x="413" 
d="M432 535q-3 -4 -15 -14l-141 -118l-12 7l75 157q3 5 9 16q17 22 46 22q15 0 27 -7q21 -11 21 -35q0 -15 -10 -28zM410 205q-4 -92 -68 -159t-159 -67q-79 0 -120 51q-30 38 -33 95q-5 86 62 158q72 80 181 80q70 0 106 -47q34 -43 31 -111zM297 209q1 27 -7.5 49.5
t-24.5 22.5q-51 0 -84 -55q-28 -45 -30 -96q-1 -25 9 -44q11 -22 31 -22q45 0 77 53q27 44 29 92z" />
    <glyph glyph-name="ograve" unicode="&#xf2;" horiz-adv-x="413" 
d="M251 410l-11 -7l-100 143q-4 5 -8.5 15t-4.5 21q0 22 14.5 39t35.5 17q36 0 44 -47zM410 205q-4 -92 -68 -159t-159 -67q-79 0 -120 51q-30 38 -33 95q-5 86 62 158q72 80 181 80q70 0 106 -47q34 -43 31 -111zM297 209q1 27 -7.5 49.5t-24.5 22.5q-51 0 -84 -55
q-28 -45 -30 -96q-1 -25 9 -44q11 -22 31 -22q45 0 77 53q27 44 29 92z" />
    <glyph glyph-name="ocircumflex" unicode="&#xf4;" horiz-adv-x="413" 
d="M384 403l-25 -22l-109 76l-130 -76l-20 22l164 142zM410 205q-4 -92 -68 -159t-159 -67q-79 0 -120 51q-30 38 -33 95q-5 86 62 158q72 80 181 80q70 0 106 -47q34 -43 31 -111zM297 209q1 27 -7.5 49.5t-24.5 22.5q-51 0 -84 -55q-28 -45 -30 -96q-1 -25 9 -44
q11 -22 31 -22q45 0 77 53q27 44 29 92z" />
    <glyph glyph-name="odieresis" unicode="&#xf6;" horiz-adv-x="413" 
d="M410 454q-2 -21 -22 -38q-23 -21 -57 -21q-46 0 -41 40q3 22 29.5 41t56.5 19q17 0 27.5 -13.5t6.5 -27.5zM255 454q-3 -21 -23 -39q-23 -20 -57 -20q-46 0 -40 40q3 22 29 41t55 19q18 0 28 -13t8 -28zM410 205q-4 -92 -68 -159t-159 -67q-79 0 -120 51q-30 38 -33 95
q-5 86 62 158q72 80 181 80q70 0 106 -47q34 -43 31 -111zM297 209q1 27 -7.5 49.5t-24.5 22.5q-51 0 -84 -55q-28 -45 -30 -96q-1 -25 9 -44q11 -22 31 -22q45 0 77 53q27 44 29 92z" />
    <glyph glyph-name="otilde" unicode="&#xf5;" horiz-adv-x="413" 
d="M448 502q-5 -37 -35 -72q-35 -42 -77 -42q-15 0 -31 6l-59 24q-23 9 -44 9q-49 0 -76 -46l-4 2q3 37 36.5 76.5t74.5 39.5q15 0 30 -6l60 -25q20 -8 40 -8q48 0 81 45zM410 205q-4 -92 -68 -159t-159 -67q-79 0 -120 51q-30 38 -33 95q-5 86 62 158q72 80 181 80
q70 0 106 -47q34 -43 31 -111zM297 209q1 27 -7.5 49.5t-24.5 22.5q-51 0 -84 -55q-28 -45 -30 -96q-1 -25 9 -44q11 -22 31 -22q45 0 77 53q27 44 29 92z" />
    <glyph glyph-name="uacute" unicode="&#xfa;" horiz-adv-x="475" 
d="M427 535q-3 -4 -15 -14l-142 -118l-11 7l75 157q2 6 9 16q17 22 46 22q15 0 27 -7q20 -12 20 -36q0 -15 -9 -27zM582 137q-28 -52 -78 -96q-66 -58 -134 -58q-26 0 -44.5 20t-18.5 51q0 11 3 23q-25 -23 -50 -40q-62 -42 -120 -46q-49 -4 -70 23q-17 22 -15 63
q1 29 17.5 88t16.5 66q1 26 -18 26q-6 0 -34 -21l-23 27l64 58q43 38 65 40q32 3 49.5 -17.5t16.5 -53.5q-1 -25 -11.5 -78.5t-10.5 -72.5q-1 -36 20 -36q30 0 68.5 44.5t39.5 83.5q1 15 -8 26.5t-24 11.5q-16 0 -33 -7q30 107 123 104q76 -2 74 -83q-1 -26 -12 -78
q-12 -55 -13 -68q-3 -47 35 -47q41 0 106 72z" />
    <glyph glyph-name="ugrave" unicode="&#xf9;" horiz-adv-x="475" 
d="M267 400l-11 -8l-100 144q-4 5 -8.5 15t-4.5 21q0 22 13.5 38.5t34.5 16.5q29 0 40 -27q2 -5 6 -19zM582 137q-28 -52 -78 -96q-66 -58 -134 -58q-26 0 -44.5 20t-18.5 51q0 11 3 23q-25 -23 -50 -40q-62 -42 -120 -46q-49 -4 -70 23q-17 22 -15 63q1 29 17.5 88t16.5 66
q1 26 -18 26q-6 0 -34 -21l-23 27l64 58q43 38 65 40q32 3 49.5 -17.5t16.5 -53.5q-1 -25 -11.5 -78.5t-10.5 -72.5q-1 -36 20 -36q30 0 68.5 44.5t39.5 83.5q1 15 -8 26.5t-24 11.5q-16 0 -33 -7q30 107 123 104q76 -2 74 -83q-1 -26 -12 -78q-12 -55 -13 -68
q-3 -47 35 -47q41 0 106 72z" />
    <glyph glyph-name="ucircumflex" unicode="&#xfb;" horiz-adv-x="475" 
d="M399 419l-25 -22l-110 76l-129 -76l-20 22l164 142zM582 137q-28 -52 -78 -96q-66 -58 -134 -58q-26 0 -44.5 20t-18.5 51q0 11 3 23q-25 -23 -50 -40q-62 -42 -120 -46q-49 -4 -70 23q-17 22 -15 63q1 29 17.5 88t16.5 66q1 26 -18 26q-6 0 -34 -21l-23 27l64 58
q43 38 65 40q32 3 49.5 -17.5t16.5 -53.5q-1 -25 -11.5 -78.5t-10.5 -72.5q-1 -36 20 -36q30 0 68.5 44.5t39.5 83.5q1 15 -8 26.5t-24 11.5q-16 0 -33 -7q30 107 123 104q76 -2 74 -83q-1 -26 -12 -78q-12 -55 -13 -68q-3 -47 35 -47q41 0 106 72z" />
    <glyph glyph-name="udieresis" unicode="&#xfc;" horiz-adv-x="475" 
d="M415 454q-3 -21 -23 -38q-23 -21 -56 -21q-46 0 -41 40q3 22 29 41t56 19q17 0 27.5 -13.5t7.5 -27.5zM259 454q-3 -21 -23 -38q-23 -21 -57 -21q-46 0 -40 40q3 22 29 41t55 19q18 0 28 -13t8 -28zM582 137q-28 -52 -78 -96q-66 -58 -134 -58q-26 0 -44.5 20t-18.5 51
q0 11 3 23q-25 -23 -50 -40q-62 -42 -120 -46q-49 -4 -70 23q-17 22 -15 63q1 29 17.5 88t16.5 66q1 26 -18 26q-6 0 -34 -21l-23 27l64 58q43 38 65 40q32 3 49.5 -17.5t16.5 -53.5q-1 -25 -11.5 -78.5t-10.5 -72.5q-1 -36 20 -36q30 0 68.5 44.5t39.5 83.5q1 15 -8 26.5
t-24 11.5q-16 0 -33 -7q30 107 123 104q76 -2 74 -83q-1 -26 -12 -78q-12 -55 -13 -68q-3 -47 35 -47q41 0 106 72z" />
    <glyph glyph-name="dagger" unicode="&#x2020;" horiz-adv-x="385" 
d="M352 471q0 -40 -42 -40q-10 0 -44.5 11.5t-54.5 11.5q2 -10 23 -94q13 -53 13 -86q0 -32 -52 -391h-14q-15 116 -29 232q-16 125 -16 157q0 62 35 182q-19 0 -53.5 -11.5t-45.5 -11.5q-42 0 -42 40q0 44 44 44q10 0 44 -13t53 -13q1 23 -12.5 66.5t-13.5 53.5q0 48 47 48
q45 0 45 -46q0 -11 -12.5 -55t-12.5 -66q19 -1 52.5 12t43.5 13q44 0 44 -44z" />
    <glyph glyph-name="degree" unicode="&#xb0;" horiz-adv-x="339" 
d="M307 510q-3 -57 -43.5 -99.5t-100.5 -42.5q-49 0 -75 32q-19 25 -21 60q-3 53 39 99q46 51 114 51q44 0 68 -30q21 -28 19 -70zM235 512q1 46 -19 46q-33 0 -54 -34q-18 -29 -19 -61q-2 -41 26 -41t48 33q17 28 18 57z" />
    <glyph glyph-name="cent" unicode="&#xa2;" horiz-adv-x="432" 
d="M420 188q-73 -62 -170 -73l-13 -95h-34l13 92q-8 1 -24 2q-137 14 -132 155q2 66 57 129q60 69 145 85l11 87h33l-10 -84q4 1 11 1q97 0 100 -77q2 -43 -26 -78q-30 -40 -76 -36q-40 3 -40 49q0 13 4 28q3 -17 23 -17q25 0 27 33q2 25 -22 25q-44 0 -80 -46
q-33 -41 -34 -81q-3 -87 74 -98q12 -2 24 -2q61 0 129 36z" />
    <glyph glyph-name="sterling" unicode="&#xa3;" horiz-adv-x="478" 
d="M485 516q-3 -39 -30.5 -67.5t-64.5 -28.5q-63 0 -69 73q5 -20 31 -20q20 0 28 33q3 14 -4.5 25t-29.5 11q-56 -1 -61 -73q-2 -24 2 -67.5t3 -54.5h106l-15 -65h-97q-13 -78 -51 -161q51 -20 83 -20q83 0 123 63q-5 -30 -22 -69q-29 -64 -73 -91q-25 -15 -61 -15
q-26 0 -41 8q-9 4 -57 56q-17 -25 -20 -27q-17 -20 -42 -29t-47 -9q-27 0 -46 13.5t-19 44.5t13 50q30 43 78 51q19 3 74 -5q5 81 -8 140h-89l14 65h76q-12 63 1 117t53 96q54 58 137 58q66 0 100 -35q27 -29 25 -67zM158 82q-17 27 -58 27q-24 0 -42.5 -17t-18.5 -40
q0 -14 8 -26t30 -12q19 0 34 9q32 19 47 59z" />
    <glyph glyph-name="section" unicode="&#xa7;" horiz-adv-x="478" 
d="M457 497q-16 -53 -69 -53q-23 0 -39 11q-19 12 -19 34q0 31 26 53q1 1 12 8q7 4 7 7t-5 6q-18 10 -39 10q-38 0 -61.5 -22.5t-23.5 -46.5q0 -34 54 -84q49 -45 99 -90q53 -56 53 -104q0 -41 -36 -83q-31 -35 -91 -43q38 -48 48 -86q4 -17 4 -32q0 -61 -68 -110
q-42 -30 -112 -30q-38 0 -63 13q-61 31 -61 78q0 13 5 28q17 52 68 52q23 0 41 -11.5t18 -33.5q0 -30 -26 -52l-12 -8q-7 -5 -7 -8t4 -6q19 -10 41 -10q39 0 58.5 22t19.5 46q0 35 -51 85l-96 88q-52 55 -52 104q0 42 37 85q28 33 88 43q-38 48 -47 86q-4 17 -4 33
q0 61 67 109q43 31 113 31q37 0 62 -13q61 -32 61 -79q0 -13 -4 -27zM359 186q0 32 -51 83t-84 51q-20 0 -37 -17t-17 -37q0 -27 52 -79q47 -47 82 -47q20 0 37.5 13t17.5 33z" />
    <glyph glyph-name="bullet" unicode="&#x2022;" horiz-adv-x="413" 
d="M365 294q-2 -69 -50 -119q-51 -52 -123 -52q-60 0 -90 39q-23 29 -25 72q-4 65 47 120q55 61 138 61q52 0 80 -37q25 -33 23 -84z" />
    <glyph glyph-name="paragraph" unicode="&#xb6;" horiz-adv-x="517" 
d="M530 610l-9 -64h-53l-97 -685h-62l95 684h-66l-96 -685h-64l50 350q-62 0 -109 42q-51 47 -51 125q0 16 2 33q13 92 83 149q61 51 131 51h246z" />
    <glyph glyph-name="germandbls" unicode="&#xdf;" horiz-adv-x="532" 
d="M485 450q-11 -44 -43 -68q-21 -16 -83 -40q92 -29 115 -86q11 -26 11 -61q0 -71 -48 -134q-64 -85 -147 -85q-36 0 -59 14l7 17q37 -1 58.5 22.5t28.5 47.5q28 100 23 173q-3 43 -20 61q-13 13 -41 19l2 18q14 7 24 15q26 19 31 40q17 65 14 120q-2 38 -35 42
q-47 6 -57 -62l-71 -506h-169l-2 16q13 6 23 13q23 18 26 39l54 383q6 39 36 78q34 43 84 64q41 17 86 17q63 0 105 -30q51 -37 51 -93q0 -16 -4 -34z" />
    <glyph glyph-name="registered" unicode="&#xae;" horiz-adv-x="485" 
d="M468 409q0 -85 -60 -145.5t-145 -60.5t-144.5 60.5t-59.5 145.5t59.5 144t144.5 59q86 0 145.5 -59t59.5 -144zM449 409q0 76 -54.5 130t-131.5 54t-131 -54t-54 -130q0 -77 54 -131.5t131 -54.5t131.5 55t54.5 131zM390 347q0 -49 -51 -49q-33 0 -43 16q-5 9 -7 48
q-2 46 -34 46h-3v-65q0 -19 19 -24v-16h-107v16q25 3 25 24v141q0 20 -25 23v16h110q41 0 65 -15t24 -38q0 -47 -73 -57q60 -9 60 -63v-13q0 -16 10 -16q14 0 14 31v4h16v-9zM299 470q0 37 -31 37q-16 0 -16 -17v-67h8q39 0 39 47z" />
    <glyph glyph-name="copyright" unicode="&#xa9;" horiz-adv-x="730" 
d="M674 308q0 -128 -90.5 -218.5t-218.5 -90.5t-218 90.5t-90 218.5t90.5 218t217.5 90q128 0 218.5 -90t90.5 -218zM652 308q0 118 -84 202t-203 84q-118 0 -202 -83.5t-84 -202.5t84 -203t202 -84q119 0 203 84.5t84 202.5zM538 205q-59 -98 -164 -98q-87 0 -144 56
t-57 141t57.5 141.5t145.5 56.5q38 0 71.5 -15t34.5 -15q18 0 22 28h25l2 -151h-26q-30 121 -117 121q-94 0 -94 -160q0 -167 103 -167q63 0 117 79z" />
    <glyph glyph-name="trademark" unicode="&#x2122;" horiz-adv-x="561" 
d="M541 601q-17 -11 -35 -35l-19 -135q-2 -13 27 -34h-106l-2 8q11 6 25 26l17 116l-89 -157l-51 160l-17 -119q-2 -13 19 -26l-4 -8h-57l-2 8q12 6 25 26l19 134q2 17 -21 27l4 9h76l32 -126l73 126h86zM250 604l-16 -65h-9q0 22 -11 35t-31 11l-21 -154q-2 -13 30 -34
h-125q11 6 19 12q19 13 20 22l22 154q-19 2 -37 -13q-12 -11 -18 -33l-9 1l4 64h182z" />
    <glyph glyph-name="acute" unicode="&#xb4;" horiz-adv-x="245" 
d="M223 566l-14 -14l-142 -117l-11 7l74 156q3 6 9 17q17 22 47 22q19 0 33 -12t14 -31q0 -16 -10 -28z" />
    <glyph glyph-name="dieresis" unicode="&#xa8;" horiz-adv-x="348" 
d="M338 582q-2 -21 -22 -38q-23 -21 -57 -21q-46 0 -41 40q3 22 29.5 41t55.5 19q18 0 28.5 -13.5t6.5 -27.5zM183 582q-3 -21 -23 -39q-23 -20 -57 -20q-46 0 -40 40q3 21 29 40.5t55 19.5q18 0 28 -13t8 -28z" />
    <glyph glyph-name="AE" unicode="&#xc6;" horiz-adv-x="903" 
d="M325 608q78 0 200.5 -12.5t175.5 -12.5q50 0 57 46q5 35 -32 35q-18 0 -49 -22q33 53 96 53q41 0 63 -30q19 -26 19 -68q0 -60 -38.5 -98.5t-98.5 -38.5q-46 0 -114 20q-6 -35 -26 -150q46 66 110 66q46 0 46 -45q0 -7 -1 -14q-4 -27 -34 -58q-37 -38 -85 -44q13 7 22 15
q22 19 25 38q2 15 -27 15q-15 0 -35 -36q-23 -41 -31 -97q-1 -10 -1 -19q0 -74 95 -74q100 0 107 75q2 18 -7 25t-25 6q-27 -2 -60 -53q34 151 133 148q83 -2 83 -104q0 -67 -39 -123q-42 -58 -105 -73q-19 -116 -112 -116q-69 0 -61 64q4 -7 9 -13q11 -13 27 -14
q26 -2 32 36q4 23 -17 42q-27 23 -81 23q-43 0 -84.5 -14t-67.5 -14q28 49 62 237q-61 -25 -106 -68t-51 -87q-5 -38 27 -38q22 0 25 16q2 9 -12 30q-2 3 0 6q1 2 5 1q14 -5 26 -18q14 -17 12 -35q-7 -55 -81 -55q-39 0 -84 26t-74 26q-28 0 -48 -12t-21 -23q-2 -21 15 -21
q13 0 29 11q4 2 6 0q3 -1 0 -5q-6 -9 -13 -15q-16 -16 -34 -19q-23 -4 -44 7q-27 13 -23 42q5 41 86 94q95 61 116 93q13 19 39 65q-21 -8 -52 -5q-61 5 -94 49q-28 39 -28 100q0 17 2 35q10 73 67 132q67 70 162 69zM475 465q-6 -106 -17 -171q-82 -49 -125 -113
q35 90 142 284zM363 490q-3 -18 -15 -38q-15 26 -45 28q-31 2 -64 -21q49 3 49 -38q0 -28 -19 -45.5t-48 -17.5q-28 0 -47 23t-15 56q6 56 45 86q31 23 71 23q32 0 59 -14q33 -17 29 -42z" />
    <glyph glyph-name="Oslash" unicode="&#xd8;" horiz-adv-x="809" 
d="M817 706l-67 -110q45 -35 45 -96q0 -14 -3 -30q-5 -33 -33 -67q42 -41 42 -137q0 -22 -3 -43q-20 -134 -119 -211q-85 -67 -185 -67q-62 0 -117 34l-52 -87h-56l71 118q-60 62 -70 171q-49 -41 -110 -41q-55 0 -91 40t-36 106q0 21 4 44q15 87 102 150t191 63q34 0 70 -9
q54 47 124 74q56 22 94 23q52 1 90 -13l53 88h56zM659 496q4 21 -10 34.5t-42 12.5q-51 -2 -110 -58q57 -40 93 -41q60 -1 69 52zM663 256q0 64 -45 64q-15 0 -28.5 -11.5t-16.5 -25.5t4 -34q-36 12 -36 49q0 20 11 45q-26 10 -53.5 33.5t-53.5 46.5q-32 -56 -40 -107
q-5 -31 -5 -58q0 -82 45 -124q34 -31 77 -31q57 0 100 49q41 46 41 104zM349 477q-22 4 -27 4q-71 0 -125 -33q-59 -36 -71 -96q-2 -11 -2 -20q0 -47 47 -47q24 0 45 16.5t25 40.5q5 34 -22 45q-11 5 -28 4q32 19 70 19q19 0 40 -18q16 45 48 85z" />
    <glyph glyph-name="plusminus" unicode="&#xb1;" horiz-adv-x="467" 
d="M423 297l-13 -60h-141l-21 -151h-60l21 151h-146l12 60h142l20 137h60l-20 -137h146zM377 60l-12 -60h-348l13 60h347z" />
    <glyph glyph-name="yen" unicode="&#xa5;" horiz-adv-x="663" 
d="M648 463q-17 -120 -181 -230q-1 -4 -6 -23h87l-7 -30h-89q-2 -10 -8 -30h94l-7 -31h-94q0 -7 -1 -10q-4 -31 8.5 -56t33.5 -25q32 0 38 27q1 14 -16 23q52 -6 45 -54q-8 -54 -67 -54q-21 0 -59.5 15t-59.5 15q-116 0 -116 -54q0 -6 2 -13q-36 21 -36 44q0 5 1 10
q6 30 46 50q45 24 50 31q9 13 19 51h-108l7 31h107l6 30h-110l7 30h106q0 3 1 8v7q-30 52 -59 93q-70 97 -121 119q-41 17 -68 17q-23 0 -41 -11q15 94 135 94q46 0 103 -46q-5 16 -2 38q2 19 23 35t46 15q21 -1 38 -14q21 -16 21 -42q0 -25 -21 -58q5 52 -30 52
q-24 0 -28 -35q-3 -29 32 -85q9 -14 52 -74q24 19 43 42q45 53 53 112q2 15 2 28q0 107 -122 107q-19 0 -35 -3q73 33 136 29q53 -3 95 -34q57 -41 57 -114q0 -13 -2 -27z" />
    <glyph glyph-name="ordfeminine" unicode="&#xaa;" horiz-adv-x="381" 
d="M404 458q-18 -34 -50 -61q-43 -38 -87 -38q-43 0 -40 44q-42 -42 -102 -42q-37 0 -51 30q-11 21 -8 52q4 45 38 89q44 57 116 68q12 2 25 2q62 0 78 -28q-8 -22 -12 -36q-8 -34 -10 -79q-1 -31 22 -31q29 0 69 47zM238 519q1 13 -2 19t-14 6q-26 -1 -48.5 -32.5
t-23.5 -52.5q-1 -28 19 -28q23 0 46 34q22 30 23 54z" />
    <glyph glyph-name="ordmasculine" unicode="&#xba;" horiz-adv-x="313" 
d="M298 503q-2 -59 -44 -102.5t-104 -43.5q-51 0 -78 33q-20 25 -22 62q-3 55 41 103q47 52 118 52q45 0 69 -31q21 -28 20 -73zM224 506q2 47 -21 47q-32 0 -54 -36q-18 -29 -19 -62q-2 -43 26 -43q29 0 49 34q18 29 19 60z" />
    <glyph glyph-name="ae" unicode="&#xe6;" horiz-adv-x="704" 
d="M747 138q-29 -48 -114 -96q-106 -61 -215 -61q-100 0 -130 82q-26 -34 -75 -56t-92 -21q-57 1 -79 47q-16 33 -12 80q7 71 58 137q68 88 178 105q22 3 43 3q80 0 106 -32q57 31 119 31q97 0 103 -80q4 -51 -55 -105q-64 -59 -161 -75q16 -25 54 -25q72 0 157 37
q61 26 96 54zM520 243q1 27 -22 27q-30 0 -61 -41.5t-32 -79.5v-13q49 18 84 55q30 32 31 52zM295 230q1 20 -2 28q-6 13 -24 12q-40 -2 -77 -54q-33 -46 -34 -79q-1 -42 30 -42q35 0 71 51q34 48 36 84z" />
    <glyph glyph-name="oslash" unicode="&#xf8;" horiz-adv-x="413" 
d="M437 435q-36 -51 -73 -103q49 -42 46 -127q-3 -92 -66 -158q-66 -68 -161 -68q-28 0 -59 9l-60 -85h-56l75 107q-49 40 -53 115q-4 86 62 158q72 80 181 80q31 0 51 -7l56 79h57zM271 280q-1 1 -6 1q-51 0 -84 -55q-28 -45 -30 -96q0 -11 1 -20zM297 209q0 13 -1 24
l-117 -166q6 -3 12 -3q45 0 77 53q27 45 29 92z" />
    <glyph glyph-name="questiondown" unicode="&#xbf;" horiz-adv-x="506" 
d="M437 610q-4 -28 -39 -54t-72 -26q-23 0 -36 19q-12 16 -10 34q4 28 32 53q32 27 71 27q30 0 45 -18q12 -14 9 -35zM262 -58q-82 0 -126 40q-41 37 -41 100q0 14 2 28q8 56 66 116q16 17 105 90q58 48 64 76q6 25 -24 25q-14 0 -27 -17t-13 -37q-18 30 -18 64
q0 32 26.5 59.5t66.5 27.5q79 0 79 -66q0 -50 -47 -110q-45 -51 -91 -102q-51 -60 -57 -106q-1 -10 -1 -19q0 -37 19 -55.5t45 -18.5q25 0 48 16.5t26 37.5q3 19 -6 29.5t-29 10.5q-29 -1 -43 -33q-15 22 -11 54q4 34 28 57q30 31 86 31q47 0 75 -31t28 -78q0 -81 -77 -137
q-69 -52 -153 -52z" />
    <glyph glyph-name="exclamdown" unicode="&#xa1;" horiz-adv-x="374" 
d="M354 590q-4 -28 -38.5 -53.5t-72.5 -25.5q-23 0 -36 17t-10 36q4 28 30 52q30 27 74 27q31 0 43.5 -16t9.5 -37zM344 29q-52 -92 -129 -92q-90 0 -90 107q0 13 2 27q6 47 50 165t46 130q3 24 -17 25q-16 1 -35 -35q-5 29 -3 48q3 30 27.5 53.5t59.5 23.5q68 0 68 -72
q0 -10 -2 -21q-18 -99 -44 -263q-2 -14 -2 -27q0 -34 12 -55t30 -21q14 0 27 7z" />
    <glyph glyph-name="logicalnot" unicode="&#xac;" horiz-adv-x="545" 
d="M517 359l-38 -269h-149l28 198h-301l10 71h450z" />
    <glyph glyph-name="florin" unicode="&#x192;" horiz-adv-x="517" 
d="M503 583q7 -13 7 -30q0 -35 -26 -55q-14 -11 -31 -11q-29 0 -40 17q-14 20 8 54q11 17 11 25q0 9 -14 10q-22 2 -41 -16q-38 -36 -46 -94l-16 -122h118l-6 -38h-118l-32 -179q-19 -109 -70 -221q-18 -39 -54 -80q-13 -15 -43 -31q-44 -24 -86 -24q-15 0 -29 3
q-33 7 -46 32q-8 15 -8 33q0 34 26 53q14 10 30 10q28 0 40 -17q14 -21 -7 -53q-11 -17 -11 -25q0 -9 12 -10q24 -2 44 16q35 32 44 93q37 260 71 400h-116l6 38h121q11 60 42 122q23 46 55 81q14 15 43 31q44 24 86 24q15 0 30 -3q32 -7 46 -33z" />
    <glyph glyph-name="guillemotleft" unicode="&#xab;" horiz-adv-x="431" 
d="M397 397l-79 -160l35 -158l-23 -16l-113 174l162 176zM239 397l-79 -160l35 -158l-23 -16l-113 174l162 176z" />
    <glyph glyph-name="guillemotright" unicode="&#xbb;" horiz-adv-x="412" 
d="M380 228l-155 -169l-17 16l75 153l-33 150l22 16zM229 228l-155 -169l-17 16l75 153l-33 150l22 16z" />
    <glyph glyph-name="ellipsis" unicode="&#x2026;" horiz-adv-x="901" 
d="M794 41q-5 -28 -30 -51q-30 -27 -74 -27q-60 0 -53 53q4 27 38.5 52.5t72.5 25.5q23 0 36 -17t10 -36zM533 41q-5 -28 -30 -51q-30 -27 -73 -27q-61 0 -53 53q4 27 38 52.5t72 25.5q23 0 36 -17t10 -36zM277 41q-5 -28 -30 -51q-30 -27 -73 -27q-61 0 -53 53
q4 27 38 52.5t72 25.5q23 0 36 -17t10 -36z" />
    <glyph glyph-name="nonbreakingspace" unicode="&#xa0;" horiz-adv-x="357" 
 />
    <glyph glyph-name="Agrave" unicode="&#xc0;" horiz-adv-x="673" 
d="M450 648l-12 -8l-100 143q-8 14 -8 16q-4 10 -4 21q0 22 13.5 38.5t34.5 16.5q37 0 45 -46zM865 -157q-7 -54 -48 -84q-37 -27 -86 -27q-106 0 -180.5 131t-94.5 346q-61 -25 -106 -68t-51 -87q-5 -38 27 -38q22 0 25 16q2 9 -12 30q-2 3 0 6q1 2 5 1q14 -5 26 -18
q14 -17 12 -35q-7 -55 -81 -55q-39 0 -84 26t-74 26q-28 0 -48 -12t-21 -23q-2 -21 15 -21q13 0 29 11q4 2 6 0q3 -1 0 -5q-6 -9 -13 -15q-16 -16 -34 -19q-23 -4 -44 7q-27 13 -23 42q5 41 86 94q95 61 116 93q13 19 39 65q-21 -8 -52 -5q-61 5 -94 49q-28 39 -28 100
q0 17 2 35q10 73 67 132q67 70 162 69q49 0 107 -4q55 -4 73 -4q64 0 69 34q3 20 -15 20q-14 0 -37 -12q-3 -2 -5 0q-3 3 0 6q10 11 20 20q25 20 48 23q25 3 42 -10q20 -16 15 -48q-4 -28 -37.5 -65.5t-35.5 -49.5q-13 -94 -7 -194q42 10 78 10q48 0 76.5 -26t28.5 -69
t-35 -78t-80 -43q10 16 13 40q4 28 -18 47t-53 21q22 -153 75 -254q55 -106 122 -106q43 0 49 44q4 26 -40 38q105 4 105 -88q0 -9 -1 -19zM363 490q4 25 -29 42q-27 14 -59 14q-40 0 -71 -23q-39 -30 -45 -86q-4 -33 15 -56t47 -23q29 0 48 17.5t19 45.5q0 41 -49 38
q33 23 64 21q30 -2 45 -28q12 20 15 38zM451 439q-38 -75 -118 -258q42 63 117 108q-2 60 1 150z" />
    <glyph glyph-name="Atilde" unicode="&#xc3;" horiz-adv-x="673" 
d="M865 -157q-7 -54 -48 -84q-37 -27 -86 -27q-106 0 -180.5 131t-94.5 346q-61 -25 -106 -68t-51 -87q-5 -38 27 -38q22 0 25 16q2 9 -12 30q-2 3 0 6q1 2 5 1q14 -5 26 -18q14 -17 12 -35q-7 -55 -81 -55q-39 0 -84 26t-74 26q-28 0 -48 -12t-21 -23q-2 -21 15 -21
q13 0 29 11q4 2 6 0q3 -1 0 -5q-6 -9 -13 -15q-16 -16 -34 -19q-23 -4 -44 7q-27 13 -23 42q5 41 86 94q95 61 116 93q13 19 39 65q-21 -8 -52 -5q-61 5 -94 49q-28 39 -28 100q0 17 2 35q10 73 67 132q67 70 162 69q49 0 107 -4q55 -4 73 -4q64 0 69 34v11q-34 -17 -68 -3
l-59 25q-23 10 -43 10q-49 0 -77 -48l-5 3q4 37 35 74q35 41 77 41q15 0 30 -6l60 -25q20 -8 39 -8q48 0 82 46l3 -4q-3 -28 -29 -64q28 -16 23 -53q-4 -28 -37.5 -65.5t-35.5 -49.5q-13 -94 -7 -194q42 10 78 10q48 0 76.5 -26t28.5 -69t-35 -78t-80 -43q10 16 13 40
q4 28 -18 47t-53 21q22 -153 75 -254q55 -106 122 -106q43 0 49 44q4 26 -40 38q105 4 105 -88q0 -9 -1 -19zM363 490q4 25 -29 42q-27 14 -59 14q-40 0 -71 -23q-39 -30 -45 -86q-4 -33 15 -56t47 -23q29 0 48 17.5t19 45.5q0 41 -49 38q33 23 64 21q30 -2 45 -28
q12 20 15 38zM451 439q-38 -75 -118 -258q42 63 117 108q-2 60 1 150z" />
    <glyph glyph-name="Otilde" unicode="&#xd5;" horiz-adv-x="809" 
d="M770 768q-5 -36 -35 -72q-35 -42 -76 -42q-16 0 -31 6l-59 24q-23 9 -44 9q-49 0 -76 -46l-5 3q4 37 35 74q35 41 77 41q15 0 30 -6l60 -25q20 -8 40 -8q48 0 81 45zM798 223q-20 -134 -119 -211q-85 -67 -185 -67q-83 0 -143 54q-71 64 -81 182q-49 -41 -110 -41
q-55 0 -91 40t-36 106q0 21 4 44q15 87 102 150t191 63q34 0 70 -9q54 47 124 74q55 22 94 23q69 2 118 -26q59 -35 59 -104q0 -15 -3 -31q-6 -34 -33 -67q42 -41 42 -137q0 -22 -3 -43zM659 496q4 21 -10 34.5t-42 12.5q-51 -2 -110 -58q57 -40 93 -41q60 -1 69 52z
M663 256q0 64 -45 64q-15 0 -28.5 -11.5t-16.5 -25.5t4 -34q-36 12 -36 49q0 20 11 45q-26 10 -53.5 33.5t-53.5 46.5q-32 -56 -40 -107q-5 -31 -5 -58q0 -82 45 -124q34 -31 77 -31q57 0 100 49q41 46 41 104zM349 477q-22 4 -27 4q-71 0 -125 -33q-59 -36 -71 -96
q-2 -11 -2 -20q0 -47 47 -47q24 0 45 16.5t25 40.5q5 34 -22 45q-11 5 -28 4q32 19 70 19q19 0 40 -18q16 45 48 85z" />
    <glyph glyph-name="OE" unicode="&#x152;" horiz-adv-x="1120" 
d="M955 -22q-19 -116 -112 -116q-68 0 -61 64q4 -7 9 -13q11 -13 27 -14q27 -2 32 36q3 23 -18 42q-26 23 -80 23q-41 0 -133 -27.5t-125 -27.5q-83 0 -143 54q-71 64 -81 182q-49 -41 -110 -41q-55 0 -91 40t-36 106q0 21 4 44q15 87 102 150t191 63q34 0 70 -9
q54 47 124 74q57 23 94 23q41 0 142 -24t147 -24q50 0 57 46q5 35 -32 35q-18 0 -49 -22q33 53 96 53q82 0 82 -99q0 -59 -38.5 -97.5t-98.5 -38.5q-46 0 -114 20q-6 -35 -26 -150q46 66 110 66q46 0 46 -45q0 -7 -1 -14q-4 -27 -34 -58q-37 -38 -85 -44q13 7 22 15
q22 19 25 38q2 15 -27 15q-15 0 -35 -36q-23 -41 -31 -97q-1 -10 -1 -19q0 -74 95 -74q100 0 107 75q2 18 -7 25t-25 6q-27 -2 -60 -53q35 151 134 148q82 -2 82 -104q0 -67 -39 -123q-42 -58 -105 -73zM659 496q4 21 -10 34.5t-42 12.5q-51 -2 -110 -58q57 -40 93 -41
q60 -1 69 52zM663 256q0 64 -45 64q-15 0 -28.5 -11.5t-16.5 -25.5t4 -34q-36 12 -36 49q0 20 11 45q-26 10 -53.5 33.5t-53.5 46.5q-32 -56 -40 -107q-5 -31 -5 -58q0 -82 45 -124q34 -31 77 -31q57 0 100 49q41 46 41 104zM349 477q-22 4 -27 4q-71 0 -125 -33
q-59 -36 -71 -96q-2 -11 -2 -20q0 -47 47 -47q24 0 45 16.5t25 40.5q5 34 -22 45q-11 5 -28 4q32 19 70 19q19 0 40 -18q16 45 48 85z" />
    <glyph glyph-name="oe" unicode="&#x153;" horiz-adv-x="699" 
d="M760 138q-29 -48 -114 -96q-106 -61 -215 -61q-75 0 -110 46q-61 -48 -138 -48q-79 0 -120 51q-30 38 -33 95q-5 86 62 158q72 80 181 80q80 0 117 -62q71 56 157 56q97 0 103 -80q4 -51 -55 -105q-64 -59 -161 -75q16 -25 54 -25q72 0 157 37q61 26 96 54zM533 243
q0 27 -22 27q-30 0 -61 -41.5t-32 -79.5v-13q49 18 85 55q30 32 30 52zM297 209q1 27 -7.5 49.5t-24.5 22.5q-51 0 -84 -55q-28 -45 -30 -96q-1 -25 9 -44q11 -22 31 -22q45 0 77 53q27 44 29 92z" />
    <glyph glyph-name="endash" unicode="&#x2013;" horiz-adv-x="506" 
d="M505 345l-14 -95h-459l14 95h459z" />
    <glyph glyph-name="emdash" unicode="&#x2014;" horiz-adv-x="908" 
d="M891 345l-14 -95h-845l14 95h845z" />
    <glyph glyph-name="quotedblleft" unicode="&#x201c;" horiz-adv-x="501" 
d="M447 642q-22 -17 -38 -35q-39 -42 -46 -81q34 5 51 -13q14 -16 11 -38q-4 -28 -38 -53t-72 -25q-23 0 -35.5 16.5t-10.5 36.5q8 66 52 122q47 61 119 82zM261 642q-22 -17 -38 -35q-39 -42 -46 -81q34 5 51 -13q14 -16 11 -38q-4 -28 -38 -53t-72 -25q-23 0 -35.5 16.5
t-10.5 36.5q8 66 52 122q47 61 119 82z" />
    <glyph glyph-name="quotedblright" unicode="&#x201d;" horiz-adv-x="532" 
d="M455 599q-8 -66 -52 -122q-49 -61 -120 -82l-6 12q22 17 38 35q39 42 45 81q-34 -5 -51 14q-14 15 -11 37q4 28 38.5 53t72.5 25q23 0 35.5 -16.5t10.5 -36.5zM267 599q-8 -66 -52 -122q-48 -61 -119 -82l-7 12q22 17 38 35q39 42 45 81q-34 -5 -51 14q-14 15 -11 37
q4 28 38.5 53t72.5 25q23 0 35.5 -16.5t10.5 -36.5z" />
    <glyph glyph-name="quoteleft" unicode="&#x2018;" horiz-adv-x="318" 
d="M261 642q-22 -17 -38 -35q-39 -42 -46 -81q34 5 51 -13q14 -16 11 -38q-4 -28 -38 -53t-72 -25q-23 0 -35.5 16.5t-10.5 36.5q8 66 52 122q47 61 119 82z" />
    <glyph glyph-name="quoteright" unicode="&#x2019;" horiz-adv-x="318" 
d="M267 599q-8 -66 -52 -122q-48 -61 -119 -82l-7 12q22 17 38 35q39 42 45 81q-34 -5 -51 14q-14 15 -11 37q4 28 38.5 53t72.5 25q23 0 35.5 -16.5t10.5 -36.5z" />
    <glyph glyph-name="divide" unicode="&#xf7;" horiz-adv-x="467" 
d="M339 401q-4 -24 -25 -44q-26 -23 -63 -23q-52 0 -45 45q4 24 33 45.5t61 21.5q19 0 30 -14.5t9 -30.5zM423 297l-13 -60h-347l12 60h348zM290 150q-4 -25 -25 -44q-25 -23 -62 -23q-53 0 -46 45q4 23 33 45t61 22q19 0 30 -14.5t9 -30.5z" />
    <glyph glyph-name="ydieresis" unicode="&#xff;" horiz-adv-x="459" 
d="M403 454q-2 -21 -22 -38q-23 -21 -57 -21q-46 0 -41 40q3 22 29.5 41t56.5 19q17 0 27.5 -13.5t6.5 -27.5zM248 454q-3 -21 -23 -39q-23 -20 -57 -20q-46 0 -40 40q3 22 29 41t55 19q18 0 28 -13t8 -28zM579 132q-58 -61 -191 -127q-42 -125 -99 -200q-67 -88 -139 -88
q-107 0 -98 97q5 56 73 105q48 35 156 84q11 28 19 68q-22 -21 -46 -37q-58 -39 -116 -43q-49 -4 -70 23q-17 22 -15 63q1 30 18.5 91t17.5 63q1 26 -18 26q-6 0 -34 -21l-23 27l64 58q43 38 65 40q32 3 49 -17.5t17 -53.5q0 -19 -11 -74q-12 -58 -13 -77q-1 -36 20 -36
q30 0 68.5 44.5t39.5 83.5q1 15 -8 26.5t-23 11.5q-17 0 -33 -7q29 107 122 104q77 -2 74 -85q-4 -103 -40 -222q110 53 158 99zM252 -61q-88 -43 -90 -69q-1 -14 15 -14q29 0 75 83z" />
    <glyph glyph-name="Ydieresis" unicode="&#x178;" horiz-adv-x="756" 
d="M703 803q-3 -21 -23 -38q-24 -21 -57 -21q-45 0 -40 40q3 22 29 41t56 19q17 0 27.5 -13t7.5 -28zM547 803q-3 -21 -22 -38q-24 -21 -58 -21q-46 0 -40 40q3 22 29 41t55 19q18 0 28 -13t8 -28zM809 524q-19 -134 -200 -255q-14 -47 -34 -139q-1 -8 -1 -15
q0 -30 13.5 -51.5t34.5 -21.5q37 0 41 29q2 17 -17 26q58 -5 50 -60q-9 -60 -74 -60q-8 0 -15 1q-17 3 -58 19q-33 13 -59 13q-24 0 -44 -16.5t-23 -35.5q-7 -46 38 -48q19 -1 31.5 12t12.5 29q0 5 -1 9q18 -18 15 -38t-24 -38q-25 -23 -61 -26q-46 -4 -84 20q-42 28 -35 76
q6 41 54 81q31 25 61 50q18 25 20 65q-22 -33 -58 -33q-50 0 -42 57q8 53 76 98q-26 -47 -26 -72q0 -19 18 -19q31 0 40 19q6 11 12 60q-120 231 -207 231q-40 0 -70 -23q-38 -29 -44 -85q-3 -33 15 -55t46 -22q29 0 47.5 17t18.5 45q0 40 -48 37q15 9 63 21q34 2 55 -31.5
t16 -68.5q-10 -78 -67 -120q-49 -36 -106 -32q-61 5 -93 48q-29 39 -29 99q0 17 3 35q12 83 68 158q68 92 160 92q52 0 115 -51q-6 17 -3 42q3 21 26.5 38.5t51.5 16.5q23 -1 41 -15q24 -17 24 -46t-24 -65q6 57 -33 57q-25 0 -31 -39q-4 -31 35 -94q4 -6 58 -81
q27 21 47 46q50 59 59 125q2 16 2 31q0 117 -135 117q-21 0 -39 -3q81 38 151 33q58 -4 105 -38q63 -45 63 -125q0 -15 -2 -31z" />
    <glyph glyph-name="currency" unicode="&#xa4;" horiz-adv-x="600" 
d="M584 388l-86 -77q21 -45 13 -98q-8 -55 -41 -97l66 -77l-73 -63l-66 74q-52 -26 -101 -26q-52 0 -95 28l-84 -76l-55 63l83 77q-21 45 -13 97q8 55 42 99l-64 76l74 64l65 -76q48 27 100 27q54 0 94 -28l87 77zM423 213q6 43 -19.5 72.5t-67.5 29.5q-47 0 -82 -35
t-35 -81q0 -37 25 -62t64 -25q42 0 75.5 29.5t39.5 71.5z" />
    <glyph glyph-name="guilsinglleft" unicode="&#x2039;" horiz-adv-x="273" 
d="M239 397l-79 -160l35 -158l-23 -16l-113 174l162 176z" />
    <glyph glyph-name="guilsinglright" unicode="&#x203a;" horiz-adv-x="261" 
d="M218 228l-155 -169l-17 16l76 153l-33 150l21 16z" />
    <glyph glyph-name="daggerdbl" unicode="&#x2021;" horiz-adv-x="369" 
d="M337 79q0 -42 -42 -42q-10 0 -41.5 12.5t-50.5 11.5q0 -21 11.5 -63.5t11.5 -52.5q0 -44 -43 -44q-44 0 -44 46q0 9 12.5 51t11.5 64q-18 0 -50.5 -12.5t-42.5 -12.5q-41 0 -41 42q0 38 40 38q6 0 44 -10q35 -9 60 -7q-2 13 -20 83q-16 61 -16 90q0 35 26 161
q-18 0 -51 -11t-43 -11q-40 0 -40 38q0 42 41 42q10 0 42.5 -12t50.5 -12q1 22 -11.5 63.5t-12.5 51.5q0 46 44 46q43 0 43 -45q0 -10 -11.5 -52t-11.5 -63q19 -1 50.5 11t41.5 12q42 0 42 -42q0 -38 -40 -38q-9 0 -42.5 11t-52.5 11q27 -101 27 -159q0 -33 -12 -96
q-7 -42 -15 -83q19 0 52.5 10.5t42.5 10.5q40 0 40 -38z" />
    <glyph glyph-name="periodcentered" unicode="&#xb7;" horiz-adv-x="374" 
d="M277 317q-5 -28 -30 -51q-30 -27 -73 -27q-31 0 -43.5 16t-9.5 37q4 28 38 53t72 25q23 0 36 -17t10 -36z" />
    <glyph glyph-name="periodcentered" unicode="&#x2219;" horiz-adv-x="374" 
d="M277 317q-5 -28 -30 -51q-30 -27 -73 -27q-31 0 -43.5 16t-9.5 37q4 28 38 53t72 25q23 0 36 -17t10 -36z" />
    <glyph glyph-name="quotesinglbase" unicode="&#x201a;" horiz-adv-x="374" 
d="M277 41q-8 -67 -52 -123q-47 -60 -119 -81l-7 12q22 17 38 35q39 42 46 80q-34 -5 -51 14q-14 15 -11 38q4 27 38 52.5t72 25.5q23 0 35.5 -17t10.5 -36z" />
    <glyph glyph-name="quotedblbase" unicode="&#x201e;" horiz-adv-x="556" 
d="M460 41q-8 -67 -52 -123q-47 -60 -119 -81l-7 12q22 17 38 35q39 42 45 80q-34 -5 -51 14q-14 15 -11 38q4 27 38.5 52.5t72.5 25.5q23 0 35.5 -17t10.5 -36zM277 41q-8 -67 -52 -123q-47 -60 -119 -81l-7 12q22 17 38 35q39 42 46 80q-34 -5 -51 14q-14 15 -11 38
q4 27 38 52.5t72 25.5q23 0 35.5 -17t10.5 -36z" />
    <glyph glyph-name="perthousand" unicode="&#x2030;" horiz-adv-x="1141" 
d="M1119 187q-3 -83 -60 -142q-60 -62 -145 -62q-71 0 -108 46q-28 35 -30 86q-4 77 56 143q66 72 163 72q63 0 96 -43q30 -40 28 -100zM750 187q-3 -83 -60 -142q-59 -62 -145 -62q-71 0 -108 46q-27 35 -30 86q-4 77 56 143q65 72 163 72q63 0 96 -43q30 -39 28 -100z
M614 623l-355 -626h-56l284 493q-40 -32 -94 -50q-7 -78 -62 -131q-58 -55 -141 -55q-72 0 -109 46q-27 34 -30 85q-4 77 56 143q65 72 163 72q106 0 123 -97q43 0 94 43q39 32 70 77h57zM1017 190q1 25 -7 45t-22 20q-46 0 -77 -49q-25 -42 -26 -87q-1 -59 37 -59
q40 0 69 47q24 41 26 83zM648 190q1 25 -7 45t-22 20q-46 0 -76 -49q-25 -41 -26 -87q-2 -59 36 -59q40 0 69 47q24 41 26 83zM290 436q-38 14 -38 55q0 16 11 34q-45 0 -76 -49q-25 -41 -26 -86q-2 -60 36 -60q36 0 63 36q23 30 30 70z" />
    <glyph glyph-name="Acircumflex" unicode="&#xc2;" horiz-adv-x="673" 
d="M865 -157q-7 -54 -48 -84q-37 -27 -86 -27q-106 0 -180.5 131t-94.5 346q-61 -25 -106 -68t-51 -87q-5 -38 27 -38q22 0 25 16q2 9 -12 30q-2 3 0 6q1 2 5 1q14 -5 26 -18q14 -17 12 -35q-7 -55 -81 -55q-39 0 -84 26t-74 26q-28 0 -48 -12t-21 -23q-2 -21 15 -21
q13 0 29 11q4 2 6 0q3 -1 0 -5q-6 -9 -13 -15q-16 -16 -34 -19q-23 -4 -44 7q-27 13 -23 42q5 41 86 94q95 61 116 93q13 19 39 65q-21 -8 -52 -5q-61 5 -94 49q-28 39 -28 100q0 17 2 35q10 73 67 132q67 70 162 69q49 0 107 -4q55 -4 73 -4q64 0 69 34q3 20 -15 20
q-14 0 -37 -12q-3 -2 -6 0q-2 3 1 6q5 7 26 25l-69 48l-129 -76l-20 23l164 141l100 -118q24 2 40.5 -13t12.5 -45q-4 -28 -37.5 -65.5t-35.5 -49.5q-13 -94 -7 -194q42 10 78 10q48 0 76.5 -26t28.5 -69t-35 -78t-80 -43q10 16 13 40q4 28 -18 47t-53 21q22 -153 75 -254
q55 -106 122 -106q43 0 49 44q4 26 -40 38q105 4 105 -88q0 -9 -1 -19zM363 490q4 25 -29 42q-27 14 -59 14q-40 0 -71 -23q-39 -30 -45 -86q-4 -33 15 -56t47 -23q29 0 48 17.5t19 45.5q0 41 -49 38q33 23 64 21q30 -2 45 -28q12 20 15 38zM451 439q-38 -75 -118 -258
q42 63 117 108q-2 60 1 150z" />
    <glyph glyph-name="Ecircumflex" unicode="&#xca;" horiz-adv-x="717" 
d="M582 -22q-19 -116 -112 -116q-68 0 -61 64q4 -7 9 -13q11 -13 27 -14q26 -2 32 36q4 23 -17 42q-27 23 -81 23q-43 0 -109 -20t-93 -20q-64 0 -64 68q0 11 3 22q7 30 30.5 55.5t51.5 25.5q13 0 25 -7q-11 -1 -19 -6q-19 -11 -23 -37t22 -26q34 0 54 72q7 26 30 160
q-39 -68 -118 -62q-58 5 -88 48q-28 39 -28 99q0 18 3 37q10 70 66 130q65 70 148 70q18 0 37 -4q132 -26 227 -22q50 2 57 46q4 24 -14 32l-15 -14l-19 14q-16 -6 -33 -19q4 7 22 26l-80 55l-129 -76l-20 23l164 141l103 -121q17 5 36 5q82 0 82 -99q0 -59 -38.5 -97.5
t-98.5 -38.5q-46 0 -114 20q-6 -35 -26 -150q46 66 110 66q46 0 46 -45q0 -7 -1 -14q-4 -27 -34 -58q-37 -38 -85 -44q13 7 22 15q22 19 25 38q2 15 -27 15q-15 0 -35 -36q-23 -41 -31 -97q-1 -10 -1 -19q0 -74 95 -74q100 0 107 75q2 18 -7 25t-25 6q-27 -2 -60 -53
q35 151 133 148q83 -2 83 -104q0 -67 -39 -123q-42 -58 -105 -73zM311 452q-5 94 -68 94q-38 0 -68 -23q-37 -30 -43 -86q-4 -33 14 -56t44 -23q28 0 46 18t18 46q0 40 -46 37q32 23 62 21q29 -2 41 -28z" />
    <glyph glyph-name="Aacute" unicode="&#xc1;" horiz-adv-x="673" 
d="M604 780l-14 -14l-142 -117l-11 7l74 156q3 6 9 17q18 21 46 21q20 0 34 -11.5t14 -31.5q0 -15 -10 -27zM865 -157q-7 -54 -48 -84q-37 -27 -86 -27q-106 0 -180.5 131t-94.5 346q-61 -25 -106 -68t-51 -87q-5 -38 27 -38q22 0 25 16q2 9 -12 30q-2 3 0 6q1 2 5 1
q14 -5 26 -18q14 -17 12 -35q-7 -55 -81 -55q-39 0 -84 26t-74 26q-28 0 -48 -12t-21 -23q-2 -21 15 -21q13 0 29 11q4 2 6 0q3 -1 0 -5q-6 -9 -13 -15q-16 -16 -34 -19q-23 -4 -44 7q-27 13 -23 42q5 41 86 94q95 61 116 93q13 19 39 65q-21 -8 -52 -5q-61 5 -94 49
q-28 39 -28 100q0 17 2 35q10 73 67 132q67 70 162 69q49 0 107 -4q55 -4 73 -4q64 0 69 34q3 20 -15 20q-14 0 -37 -12q-3 -2 -5 0q-3 3 0 6q10 11 20 20q25 20 48 23q25 3 42 -10q20 -16 15 -48q-4 -28 -37.5 -65.5t-35.5 -49.5q-13 -94 -7 -194q42 10 78 10
q48 0 76.5 -26t28.5 -69t-35 -78t-80 -43q10 16 13 40q4 28 -18 47t-53 21q22 -153 75 -254q55 -106 122 -106q43 0 49 44q4 26 -40 38q105 4 105 -88q0 -9 -1 -19zM363 490q4 25 -29 42q-27 14 -59 14q-40 0 -71 -23q-39 -30 -45 -86q-4 -33 15 -56t47 -23q29 0 48 17.5
t19 45.5q0 41 -49 38q33 23 64 21q30 -2 45 -28q12 20 15 38zM451 439q-38 -75 -118 -258q42 63 117 108q-2 60 1 150z" />
    <glyph glyph-name="Edieresis" unicode="&#xcb;" horiz-adv-x="717" 
d="M439 694q-3 -21 -23 -38q-23 -21 -57 -21q-46 0 -40 40q3 22 29 41t55 19q18 0 28 -13t8 -28zM582 -22q-19 -116 -112 -116q-68 0 -61 64q4 -7 9 -13q11 -13 27 -14q26 -2 32 36q4 23 -17 42q-27 23 -81 23q-43 0 -109 -20t-93 -20q-64 0 -64 68q0 11 3 22
q7 30 30.5 55.5t51.5 25.5q13 0 25 -7q-11 -1 -19 -6q-19 -11 -23 -37t22 -26q34 0 54 72q7 26 30 160q-39 -68 -118 -62q-58 5 -88 48q-28 39 -28 99q0 18 3 37q10 70 66 130q65 70 148 70q18 0 37 -4q132 -26 227 -22q50 2 57 46q4 24 -14 32q-23 -26 -61 -26
q-46 0 -41 40q3 22 29 41t56 19q17 0 27.5 -13.5t7.5 -27.5q3 1 11 1q82 0 82 -99q0 -59 -38.5 -97.5t-98.5 -38.5q-46 0 -114 20q-6 -35 -26 -150q46 66 110 66q46 0 46 -45q0 -7 -1 -14q-4 -27 -34 -58q-37 -38 -85 -44q13 7 22 15q22 19 25 38q2 15 -27 15q-15 0 -35 -36
q-23 -41 -31 -97q-1 -10 -1 -19q0 -74 95 -74q100 0 107 75q2 18 -7 25t-25 6q-27 -2 -60 -53q35 151 133 148q83 -2 83 -104q0 -67 -39 -123q-42 -58 -105 -73zM311 452q-5 94 -68 94q-38 0 -68 -23q-37 -30 -43 -86q-4 -33 14 -56t44 -23q28 0 46 18t18 46q0 40 -46 37
q32 23 62 21q29 -2 41 -28z" />
    <glyph glyph-name="Egrave" unicode="&#xc8;" horiz-adv-x="717" 
d="M450 643l-12 -8l-100 143q-8 11 -8 16q-4 10 -4 21q0 22 14 38.5t35 16.5q36 0 44 -47zM582 -22q-19 -116 -112 -116q-68 0 -61 64q4 -7 9 -13q11 -13 27 -14q26 -2 32 36q4 23 -17 42q-27 23 -81 23q-43 0 -109 -20t-93 -20q-64 0 -64 68q0 11 3 22q7 30 30.5 55.5
t51.5 25.5q13 0 25 -7q-11 -1 -19 -6q-19 -11 -23 -37t22 -26q34 0 54 72q7 26 30 160q-39 -68 -118 -62q-58 5 -88 48q-28 39 -28 99q0 18 3 37q10 70 66 130q65 70 148 70q18 0 37 -4q132 -26 227 -22q50 2 57 46q5 35 -32 35q-18 0 -49 -22q33 53 96 53q82 0 82 -99
q0 -59 -38.5 -97.5t-98.5 -38.5q-46 0 -114 20q-6 -35 -26 -150q46 66 110 66q46 0 46 -45q0 -7 -1 -14q-4 -27 -34 -58q-37 -38 -85 -44q13 7 22 15q22 19 25 38q2 15 -27 15q-15 0 -35 -36q-23 -41 -31 -97q-1 -10 -1 -19q0 -74 95 -74q100 0 107 75q2 18 -7 25t-25 6
q-27 -2 -60 -53q35 151 133 148q83 -2 83 -104q0 -67 -39 -123q-42 -58 -105 -73zM311 452q-5 94 -68 94q-38 0 -68 -23q-37 -30 -43 -86q-4 -33 14 -56t44 -23q28 0 46 18t18 46q0 40 -46 37q32 23 62 21q29 -2 41 -28z" />
    <glyph glyph-name="Iacute" unicode="&#xcd;" horiz-adv-x="548" 
d="M578 775q-3 -4 -15 -14l-141 -118l-12 7l75 157q2 6 9 16q17 22 47 22q19 0 33 -11.5t14 -30.5q0 -15 -10 -28zM601 624q-5 -37 -65 -97q-48 -48 -79 -266q-12 -83 -12 -139q0 -108 44 -106q20 1 23 16q2 9 -12 30q-2 3 0 6q1 2 5 1q14 -5 26 -18q14 -17 12 -35
q-7 -55 -81 -55q-39 0 -76 26t-66 26t-49 -12t-21 -23q-3 -21 15 -21q13 0 30 11q3 2 6 0q2 -1 0 -5q-6 -9 -13 -15q-16 -16 -35 -19q-23 -4 -44 7q-26 13 -22 42q3 24 42 59q46 43 62 74q35 67 46 170q-18 -28 -51 -47q-41 -23 -87 -19q-62 5 -95 49q-28 38 -28 99
q0 17 2 35q10 74 67 133q67 69 162 68q49 -1 96 -4q43 -4 61 -4q64 0 69 34q3 20 -15 20q-15 0 -37 -11q-3 -3 -5 0q-3 3 0 6q10 11 20 20q25 20 47 23q25 3 43.5 -12t14.5 -47zM347 442q-5 94 -72 94q-40 0 -72 -23q-39 -30 -45 -87q-3 -33 15.5 -55.5t46.5 -22.5
q29 0 48 17t19 46q0 41 -48 38q33 22 64 21q27 -1 44 -28z" />
    <glyph glyph-name="Icircumflex" unicode="&#xce;" horiz-adv-x="548" 
d="M601 624q-5 -37 -65 -97q-48 -48 -79 -266q-12 -83 -12 -139q0 -108 44 -106q20 1 23 16q2 9 -12 30q-2 3 0 6q1 2 5 1q14 -5 26 -18q14 -17 12 -35q-7 -55 -81 -55q-39 0 -76 26t-66 26t-49 -12t-21 -23q-3 -21 15 -21q13 0 30 11q3 2 6 0q2 -1 0 -5q-6 -9 -13 -15
q-16 -16 -35 -19q-23 -4 -44 7q-26 13 -22 42q3 24 42 59q46 43 62 74q35 67 46 170q-18 -28 -51 -47q-41 -23 -87 -19q-62 5 -95 49q-28 38 -28 99q0 17 2 35q10 74 67 133q67 69 162 68q49 -1 96 -4q43 -4 61 -4q64 0 69 34q3 20 -15 20q-15 0 -37 -11q-3 -3 -6 0
q-2 3 1 6q6 7 27 24l-77 54l-129 -76l-20 22l164 142l104 -123q25 2 42.5 -12.5t13.5 -46.5zM347 442q-5 94 -72 94q-40 0 -72 -23q-39 -30 -45 -87q-3 -33 15.5 -55.5t46.5 -22.5q29 0 48 17t19 46q0 41 -48 38q33 22 64 21q27 -1 44 -28z" />
    <glyph glyph-name="Idieresis" unicode="&#xcf;" horiz-adv-x="548" 
d="M432 701q-3 -21 -23 -38q-23 -21 -57 -21q-46 0 -40 40q3 21 29.5 40.5t55.5 19.5q18 0 27.5 -13t7.5 -28zM601 624q-5 -37 -65 -97q-48 -48 -79 -266q-12 -83 -12 -139q0 -108 44 -106q20 1 23 16q2 9 -12 30q-2 3 0 6q1 2 5 1q14 -5 26 -18q14 -17 12 -35
q-7 -55 -81 -55q-39 0 -76 26t-66 26t-49 -12t-21 -23q-3 -21 15 -21q13 0 30 11q3 2 6 0q2 -1 0 -5q-6 -9 -13 -15q-16 -16 -35 -19q-23 -4 -44 7q-26 13 -22 42q3 24 42 59q46 43 62 74q35 67 46 170q-18 -28 -51 -47q-41 -23 -87 -19q-62 5 -95 49q-28 38 -28 99
q0 17 2 35q10 74 67 133q67 69 162 68q49 -1 96 -4q43 -4 61 -4q65 0 69 34q2 13 -3 19q-12 -2 -21 -2q-46 0 -41 40q3 22 29 41t56 19q17 0 27.5 -13.5t7.5 -27.5q-2 -12 -10 -24q28 -14 23 -53zM347 442q-5 94 -72 94q-40 0 -72 -23q-39 -30 -45 -87q-3 -33 15.5 -55.5
t46.5 -22.5q29 0 48 17t19 46q0 41 -48 38q33 22 64 21q27 -1 44 -28z" />
    <glyph glyph-name="Igrave" unicode="&#xcc;" horiz-adv-x="548" 
d="M423 637l-11 -7l-100 143q-4 5 -8.5 15t-4.5 21q0 22 14.5 39t35.5 17q36 0 44 -47zM601 624q-5 -37 -65 -97q-48 -48 -79 -266q-12 -83 -12 -139q0 -108 44 -106q20 1 23 16q2 9 -12 30q-2 3 0 6q1 2 5 1q14 -5 26 -18q14 -17 12 -35q-7 -55 -81 -55q-39 0 -76 26
t-66 26t-49 -12t-21 -23q-3 -21 15 -21q13 0 30 11q3 2 6 0q2 -1 0 -5q-6 -9 -13 -15q-16 -16 -35 -19q-23 -4 -44 7q-26 13 -22 42q3 24 42 59q46 43 62 74q35 67 46 170q-18 -28 -51 -47q-41 -23 -87 -19q-62 5 -95 49q-28 38 -28 99q0 17 2 35q10 74 67 133q67 69 162 68
q49 -1 96 -4q43 -4 61 -4q64 0 69 34q3 20 -15 20q-15 0 -37 -11q-3 -3 -5 0q-3 3 0 6q10 11 20 20q25 20 47 23q25 3 43.5 -12t14.5 -47zM347 442q-5 94 -72 94q-40 0 -72 -23q-39 -30 -45 -87q-3 -33 15.5 -55.5t46.5 -22.5q29 0 48 17t19 46q0 41 -48 38q33 22 64 21
q27 -1 44 -28z" />
    <glyph glyph-name="Oacute" unicode="&#xd3;" horiz-adv-x="809" 
d="M761 796q-3 -4 -15 -14l-142 -118l-11 7l75 157q2 6 9 16q17 22 46 22q15 0 27 -7q20 -12 20 -36q0 -15 -9 -27zM798 223q-20 -134 -119 -211q-85 -67 -185 -67q-83 0 -143 54q-71 64 -81 182q-49 -41 -110 -41q-55 0 -91 40t-36 106q0 21 4 44q15 87 102 150t191 63
q34 0 70 -9q54 47 124 74q55 22 94 23q69 2 118 -26q59 -35 59 -104q0 -15 -3 -31q-6 -34 -33 -67q42 -41 42 -137q0 -22 -3 -43zM659 496q4 21 -10 34.5t-42 12.5q-51 -2 -110 -58q57 -40 93 -41q60 -1 69 52zM663 256q0 64 -45 64q-15 0 -28.5 -11.5t-16.5 -25.5t4 -34
q-36 12 -36 49q0 20 11 45q-26 10 -53.5 33.5t-53.5 46.5q-32 -56 -40 -107q-5 -31 -5 -58q0 -82 45 -124q34 -31 77 -31q57 0 100 49q41 46 41 104zM349 477q-22 4 -27 4q-71 0 -125 -33q-59 -36 -71 -96q-2 -11 -2 -20q0 -47 47 -47q24 0 45 16.5t25 40.5q5 34 -22 45
q-11 5 -28 4q32 19 70 19q19 0 40 -18q16 45 48 85z" />
    <glyph glyph-name="Ocircumflex" unicode="&#xd4;" horiz-adv-x="809" 
d="M749 670l-26 -23l-109 76l-130 -76l-20 23l165 141zM798 223q-20 -134 -119 -211q-85 -67 -185 -67q-83 0 -143 54q-71 64 -81 182q-49 -41 -110 -41q-55 0 -91 40t-36 106q0 21 4 44q15 87 102 150t191 63q34 0 70 -9q54 47 124 74q55 22 94 23q69 2 118 -26
q59 -35 59 -104q0 -15 -3 -31q-6 -34 -33 -67q42 -41 42 -137q0 -22 -3 -43zM659 496q4 21 -10 34.5t-42 12.5q-51 -2 -110 -58q57 -40 93 -41q60 -1 69 52zM663 256q0 64 -45 64q-15 0 -28.5 -11.5t-16.5 -25.5t4 -34q-36 12 -36 49q0 20 11 45q-26 10 -53.5 33.5
t-53.5 46.5q-32 -56 -40 -107q-5 -31 -5 -58q0 -82 45 -124q34 -31 77 -31q57 0 100 49q41 46 41 104zM349 477q-22 4 -27 4q-71 0 -125 -33q-59 -36 -71 -96q-2 -11 -2 -20q0 -47 47 -47q24 0 45 16.5t25 40.5q5 34 -22 45q-11 5 -28 4q32 19 70 19q19 0 40 -18
q16 45 48 85z" />
    <glyph glyph-name="Ograve" unicode="&#xd2;" horiz-adv-x="809" 
d="M601 669l-11 -8l-100 143q-4 5 -8.5 15.5t-4.5 21.5q0 22 14 38.5t35 16.5q36 0 44 -46zM798 223q-20 -134 -119 -211q-85 -67 -185 -67q-83 0 -143 54q-71 64 -81 182q-49 -41 -110 -41q-55 0 -91 40t-36 106q0 21 4 44q15 87 102 150t191 63q34 0 70 -9q54 47 124 74
q55 22 94 23q69 2 118 -26q59 -35 59 -104q0 -15 -3 -31q-6 -34 -33 -67q42 -41 42 -137q0 -22 -3 -43zM659 496q4 21 -10 34.5t-42 12.5q-51 -2 -110 -58q57 -40 93 -41q60 -1 69 52zM663 256q0 64 -45 64q-15 0 -28.5 -11.5t-16.5 -25.5t4 -34q-36 12 -36 49q0 20 11 45
q-26 10 -53.5 33.5t-53.5 46.5q-32 -56 -40 -107q-5 -31 -5 -58q0 -82 45 -124q34 -31 77 -31q57 0 100 49q41 46 41 104zM349 477q-22 4 -27 4q-71 0 -125 -33q-59 -36 -71 -96q-2 -11 -2 -20q0 -47 47 -47q24 0 45 16.5t25 40.5q5 34 -22 45q-11 5 -28 4q32 19 70 19
q19 0 40 -18q16 45 48 85z" />
    <glyph glyph-name="Uacute" unicode="&#xda;" horiz-adv-x="811" 
d="M735 754q-3 -4 -15 -14l-142 -117l-11 7l75 156q2 6 8 17q18 21 46 21q20 0 34 -12t14 -31q0 -15 -9 -27zM828 626q-48 -62 -85 -196q-44 -162 -44 -280q0 -126 64 -126q25 0 54 26q-52 -114 -135 -114q-50 0 -77 39q-23 32 -23 73q0 16 4 27q-21 -36 -46 -62
q-61 -64 -137 -70q-83 -7 -125 38q-31 34 -33 88q-1 42 14 103q12 45 25 90q-53 -75 -154 -69q-116 7 -116 140q0 25 4 53q12 84 86 136q59 42 121 45q79 4 138 -38q17 27 41 47q58 48 144 50q-25 -28 -47 -70q-53 -102 -82 -256q-15 -81 -15 -122q0 -64 36 -64q39 0 70 45
q24 34 28 62q4 24 -5 40.5t-25 16.5q-35 0 -49 -19q3 28 25 54q23 30 50 30q32 0 47 -28q7 31 7 67q0 95 -53 141q31 17 63 17q37 0 63 -25q60 103 167 111zM297 403q2 41 -17 70.5t-49 29.5q-52 0 -85 -31q-30 -27 -36 -69q-4 -31 9.5 -48.5t37.5 -17.5q65 0 73 53
q3 23 -13.5 37.5t-44.5 12.5q12 6 47 14q53 4 78 -51z" />
    <glyph glyph-name="Ucircumflex" unicode="&#xdb;" horiz-adv-x="811" 
d="M670 643l-25 -22l-109 76l-130 -76l-20 22l164 142zM828 626q-48 -62 -85 -196q-44 -162 -44 -280q0 -126 64 -126q25 0 54 26q-52 -114 -135 -114q-50 0 -77 39q-23 32 -23 73q0 16 4 27q-21 -36 -46 -62q-61 -64 -137 -70q-83 -7 -125 38q-31 34 -33 88q-1 42 14 103
q12 45 25 90q-53 -75 -154 -69q-116 7 -116 140q0 25 4 53q12 84 86 136q59 42 121 45q79 4 138 -38q17 27 41 47q58 48 144 50q-25 -28 -47 -70q-53 -102 -82 -256q-15 -81 -15 -122q0 -64 36 -64q39 0 70 45q24 34 28 62q4 24 -5 40.5t-25 16.5q-35 0 -49 -19q3 28 25 54
q23 30 50 30q32 0 47 -28q7 31 7 67q0 95 -53 141q31 17 63 17q37 0 63 -25q60 103 167 111zM297 403q2 41 -17 70.5t-49 29.5q-52 0 -85 -31q-30 -27 -36 -69q-4 -31 9.5 -48.5t37.5 -17.5q65 0 73 53q3 23 -13.5 37.5t-44.5 12.5q12 6 47 14q53 4 78 -51z" />
    <glyph glyph-name="Ugrave" unicode="&#xd9;" horiz-adv-x="811" 
d="M596 611l-12 -8l-100 144q-3 5 -7.5 15.5t-4.5 21.5q0 21 14 38t35 17q36 0 44 -47zM828 626q-48 -62 -85 -196q-44 -162 -44 -280q0 -126 64 -126q25 0 54 26q-52 -114 -135 -114q-50 0 -77 39q-23 32 -23 73q0 16 4 27q-21 -36 -46 -62q-61 -64 -137 -70
q-83 -7 -125 38q-31 34 -33 88q-1 42 14 103q12 45 25 90q-53 -75 -154 -69q-116 7 -116 140q0 25 4 53q12 84 86 136q59 42 121 45q79 4 138 -38q17 27 41 47q58 48 144 50q-25 -28 -47 -70q-53 -102 -82 -256q-15 -81 -15 -122q0 -64 36 -64q39 0 70 45q24 34 28 62
q4 24 -5 40.5t-25 16.5q-35 0 -49 -19q3 28 25 54q23 30 50 30q32 0 47 -28q7 31 7 67q0 95 -53 141q31 17 63 17q37 0 63 -25q60 103 167 111zM297 403q2 41 -17 70.5t-49 29.5q-52 0 -85 -31q-30 -27 -36 -69q-4 -31 9.5 -48.5t37.5 -17.5q65 0 73 53q3 23 -13.5 37.5
t-44.5 12.5q12 6 47 14q53 4 78 -51z" />
    <glyph glyph-name="circumflex" unicode="&#x2c6;" horiz-adv-x="329" 
d="M326 503l-25 -23l-110 77l-129 -77l-20 23l164 141z" />
    <glyph glyph-name="tilde" unicode="&#x2dc;" horiz-adv-x="404" 
d="M384 637q-5 -36 -35 -72q-34 -41 -76 -41q-15 0 -31 6l-59 24q-23 9 -43 9q-50 0 -77 -46l-5 2q4 37 35 75q36 41 77 41q15 0 30 -6l60 -26q20 -9 40 -9q48 0 81 47z" />
    <glyph glyph-name="macron" unicode="&#xaf;" horiz-adv-x="329" 
d="M308 604l-11 -48h-240l11 48h240z" />
    <glyph glyph-name="macron" unicode="&#x2c9;" horiz-adv-x="329" 
d="M308 604l-11 -48h-240l11 48h240z" />
    <glyph glyph-name="cedilla" unicode="&#xb8;" horiz-adv-x="295" 
d="M265 -132q-7 -52 -52 -83q-38 -26 -86 -26q-42 0 -67.5 23.5t-22.5 56.5q3 31 28 52q22 19 49 19q25 0 37 -18t9 -42q-10 18 -22 18q-26 0 -31 -29t31 -29q16 0 32.5 18.5t19.5 43.5t-21 45t-59 20l42 125l45 1l-28 -93q31 3 63 -22q40 -31 33 -80z" />
    <glyph glyph-name="Scaron" unicode="&#x160;" horiz-adv-x="634" 
d="M625 844l-172 -147l-125 147l26 24l115 -80l135 80zM683 630q4 -32 -19.5 -50.5t-51.5 -16.5q1 -27 -23 -57q-33 -42 -98 -42q-38 0 -71 19q15 -25 79 -77q69 -57 98 -96q48 -63 48 -136q0 -15 -2 -31q-11 -84 -72 -139q-22 -19 -110 -70q-59 -35 -64 -69q-3 -20 20 -20
q17 0 50 34q-41 -78 -114 -78q-63 0 -55 44q6 35 72 72q-28 -2 -50 -2q-51 0 -107 33q-80 47 -80 135q0 13 2 27q7 50 50 101t48 89q5 37 -23 37q-26 0 -39 -26q-10 -20 -10 -47q-14 28 -11 51q5 30 27 52q28 25 71 25q36 0 54.5 -21t14.5 -48q-4 -33 -19 -38q40 17 81 17
q38 0 67 -24q33 -28 33 -74q0 -9 -1 -18q-12 -86 -100 -89q-23 -1 -40 12.5t-21 35.5q25 -8 41 -8q35 0 41 43q5 38 -42 42q-27 2 -54 -18q-34 -25 -37 -72q-3 -45 32 -65q29 -17 78 -14q57 3 94.5 46.5t37.5 101.5q0 54 -54 105l-100 88q-54 55 -54 118q0 27 6 44
q-4 1 -12 1q-32 0 -56.5 -17.5t-27.5 -43.5q-6 -46 43 -46q20 0 41 23q-22 -63 -101 -63q-45 0 -70 24.5t-25 66.5q0 11 2 22q8 53 55 88.5t107 35.5q45 0 85 -27q57 50 134 50q50 0 89 -26t49 -26q22 0 25 19q2 14 -15 32q15 -6 26 -13q27 -15 28 -26zM535 560q5 33 -44 33
q-41 0 -67 -32q43 -34 72 -34q35 0 39 33z" />
    <glyph glyph-name="scaron" unicode="&#x161;" horiz-adv-x="383" 
d="M422 552l-172 -148l-126 148l26 24l115 -80l136 80zM377 302q4 -29 -14.5 -49t-46.5 -20q-38 0 -55 37q1 0 6 -1t6 -1q18 0 18 17q1 6 -6.5 10.5t-14.5 4.5q-27 0 -32 -33q-3 -22 50 -77q59 -62 66 -87q4 -15 4 -28q0 -49 -51 -77q-44 -24 -107 -24t-106 21
q-54 28 -51 82q2 34 26.5 56t65.5 19q46 -4 46 -52q0 -6 -1 -13q-8 12 -32 10q-23 -2 -21 -23q1 -15 29 -18q29 -3 45.5 10t14.5 35q-1 16 -32 46q-41 40 -53 58q-27 40 -22 81q4 31 37 56q42 31 109 31q113 0 122 -71z" />
    <glyph glyph-name="brokenbar" unicode="&#xa6;" horiz-adv-x="270" 
d="M233 623l-43 -307h-87l43 307h87zM182 263l-50 -360h-87l50 360h87z" />
    <glyph glyph-name="Eth" unicode="&#xd0;" horiz-adv-x="777" 
d="M792 183q-15 -95 -96 -155q-72 -54 -164 -58q-39 -2 -90 9q-55 11 -75 11q-65 0 -72 -51q-4 -32 42 -49q-21 -14 -43 -13q-25 1 -44 20t-15 45q2 17 8 34q-15 -18 -50 -18q-24 0 -44 21t-20 58q0 44 26 80.5t69 36.5q13 0 26 -4q-12 -6 -22 -13q-22 -18 -25 -39
q-3 -19 7.5 -28t30.5 -7q71 5 100 215q3 19 4 34q-38 -89 -144 -89q-45 0 -75 25l-70 -23l7 44l35 11q-21 39 -21 92q0 29 6 57q14 64 68 115q63 59 146 59q65 0 86 -32q-11 21 -11 49q0 10 2 21q5 34 34 55q24 17 53 17q46 0 51 -65q-13 25 -35 25q-24 0 -28 -29
q-5 -39 84 -85q129 -66 171 -103q93 -83 93 -209q0 -30 -5 -64zM654 232q6 102 -65 174q-33 32 -106 71q-8 -24 -17 -79l63 20l-7 -43l-64 -21l-17 -105q21 44 66 44q32 0 47 -29q11 -22 8 -46q-3 -20 -14 -41q-3 62 -37 62q-46 0 -53 -68q-4 -39 19 -60q19 -18 48 -18
q41 0 74 23q50 35 55 116zM353 445q-6 97 -70 99q-52 1 -82.5 -37t-30.5 -90q0 -68 53 -68q51 0 60 62q7 46 -25 46q-14 0 -31 -12q24 42 66 42q40 0 60 -42z" />
    <glyph glyph-name="eth" unicode="&#xf0;" horiz-adv-x="472" 
d="M420 326q0 -126 -49 -227q-58 -122 -158 -122q-45 0 -97 27q-25 13 -48 50q-29 46 -29 98q0 54 32 107q54 90 147 90q64 0 108 -39q4 34 4 64q0 68 -22 118l-143 -93l-18 40l138 90q-25 31 -58 41q-12 4 -25 4q-43 0 -87 -44l-51 67q75 31 127 31q26 0 50 -6
q54 -14 96 -59l61 40l19 -40l-54 -35q57 -90 57 -202zM316 247q-28 40 -77 40q-73 0 -98 -117q-6 -27 -6 -55q0 -60 27 -75q18 -10 36 -10q45 0 84 73q22 41 34 144z" />
    <glyph glyph-name="Yacute" unicode="&#xdd;" horiz-adv-x="756" 
d="M719 863q-9 -9 -15 -13l-141 -118l-12 7l75 157q3 5 9 16q17 22 46 22q15 0 27 -7q21 -11 21 -35q0 -16 -10 -29zM809 524q-19 -134 -200 -255q-14 -47 -34 -139q-1 -8 -1 -15q0 -30 13.5 -51.5t34.5 -21.5q37 0 41 29q2 17 -17 26q58 -5 50 -60q-9 -60 -74 -60
q-8 0 -15 1q-17 3 -58 19q-33 13 -59 13q-24 0 -44 -16.5t-23 -35.5q-7 -46 38 -48q19 -1 31.5 12t12.5 29q0 5 -1 9q18 -18 15 -38t-24 -38q-25 -23 -61 -26q-46 -4 -84 20q-42 28 -35 76q6 41 54 81q31 25 61 50q18 25 20 65q-22 -33 -58 -33q-50 0 -42 57q8 53 76 98
q-26 -47 -26 -72q0 -19 18 -19q31 0 40 19q6 11 12 60q-120 231 -207 231q-40 0 -70 -23q-38 -29 -44 -85q-3 -33 15 -55t46 -22q29 0 47.5 17t18.5 45q0 40 -48 37q15 9 63 21q34 2 55 -31.5t16 -68.5q-10 -78 -67 -120q-49 -36 -106 -32q-61 5 -93 48q-29 39 -29 99
q0 17 3 35q12 83 68 158q68 92 160 92q52 0 115 -51q-6 17 -3 42q3 21 26.5 38.5t51.5 16.5q23 -1 41 -15q24 -17 24 -46t-24 -65q6 57 -33 57q-25 0 -31 -39q-4 -31 35 -94q4 -6 58 -81q27 21 47 46q50 59 59 125q2 16 2 31q0 117 -135 117q-21 0 -39 -3q81 38 151 33
q58 -4 105 -38q63 -45 63 -125q0 -15 -2 -31z" />
    <glyph glyph-name="yacute" unicode="&#xfd;" horiz-adv-x="459" 
d="M407 516l-142 -118l-11 7l75 157q2 6 8 16q17 22 47 22q19 0 33 -12t14 -31q0 -25 -24 -41zM579 132q-58 -61 -191 -127q-42 -125 -99 -200q-67 -88 -139 -88q-107 0 -98 97q5 56 73 105q48 35 156 84q11 28 19 68q-22 -21 -46 -37q-58 -39 -116 -43q-49 -4 -70 23
q-17 22 -15 63q1 30 18.5 91t17.5 63q1 26 -18 26q-6 0 -34 -21l-23 27l64 58q43 38 65 40q32 3 49 -17.5t17 -53.5q0 -19 -11 -74q-12 -58 -13 -77q-1 -36 20 -36q30 0 68.5 44.5t39.5 83.5q1 15 -8 26.5t-23 11.5q-17 0 -33 -7q29 107 122 104q77 -2 74 -85
q-4 -103 -40 -222q110 53 158 99zM252 -61q-88 -43 -90 -69q-1 -14 15 -14q29 0 75 83z" />
    <glyph glyph-name="Thorn" unicode="&#xde;" horiz-adv-x="730" 
d="M766 457q7 -27 7 -58q0 -107 -71 -191q-77 -91 -185 -84q-50 3 -80 42q-4 -25 -4 -47q0 -50 16 -77t40 -26q20 1 23 16q2 9 -12 30q-2 3 0 6q1 2 5 1q14 -5 26 -18q14 -17 12 -35q-7 -55 -81 -55q-39 0 -76 26t-66 26t-49 -12t-21 -23q-3 -21 15 -21q13 0 30 11q3 2 6 0
q2 -1 0 -5q-6 -9 -13 -15q-16 -16 -35 -19q-23 -4 -44 7q-26 13 -22 42q3 24 43 59q48 42 64 74l15 30q5 13 12 52q-51 -77 -137 -70q-61 5 -94 49q-29 39 -29 100q0 17 3 35q10 74 67 136q67 74 160 74q18 0 36 -3q-2 67 -71 76q35 35 73 36q58 2 90 -44q23 -32 27 -76
q41 47 162 53q57 3 101 -24.5t57 -77.5zM644 423q-5 57 -54 57q-109 0 -135 -172l1 1q1 2 1 1q33 33 71 33q-24 -20 -27 -41q-2 -17 6.5 -29.5t23.5 -12.5q41 0 79.5 55t33.5 108zM333 350q-6 94 -73 94q-40 0 -71 -23q-40 -30 -46 -86q-4 -33 15.5 -55.5t47.5 -22.5
q29 0 48 17t19 45q0 41 -49 38q34 23 65 21q29 -2 44 -28z" />
    <glyph glyph-name="thorn" unicode="&#xfe;" horiz-adv-x="450" 
d="M450 230q-8 -75 -53 -138q-63 -89 -171 -102q-38 -5 -67 5q-6 -47 -7 -92q-1 -50 18 -75q12 -15 24 -15q15 0 31 8q-39 -107 -129 -104q-82 3 -79 100q2 55 40.5 287.5t39.5 275.5q3 20 -14 20q-7 0 -33 -21l-24 27q5 4 63 59q41 38 56 39q29 2 46 -26q15 -24 12 -57
l-14 -155q85 92 168 91q94 -2 94 -108q0 -10 -1 -19zM319 217q1 38 -31 38q-35 0 -71 -52q-33 -47 -36 -85q-1 -17 6 -27.5t25 -9.5q40 2 76 56q30 46 31 80z" />
    <glyph glyph-name="minus" unicode="&#xad;" horiz-adv-x="467" 
d="M423 297l-13 -60h-347l12 60h348z" />
    <glyph glyph-name="minus" unicode="&#x2212;" horiz-adv-x="467" 
d="M423 297l-13 -60h-347l12 60h348z" />
    <glyph glyph-name="multiply" unicode="&#xd7;" horiz-adv-x="467" 
d="M395 370l-118 -103l87 -102l-47 -43l-88 102l-115 -101l-37 41l115 103l-87 101l48 43l88 -102l116 101z" />
    <glyph glyph-name="onesuperior" unicode="&#xb9;" horiz-adv-x="271" 
d="M245 271q-7 -35 -59 -36q-19 0 -47.5 14t-39.5 14q-24 0 -26 -16q-1 -10 14 -19q-40 2 -37 29q3 20 24 33q31 19 35 24q13 16 26 87q12 66 11 107q-17 -15 -35 -15q-35 0 -35 50q0 8 1 17q15 -14 35 -14q48 0 94 77q7 -27 34 -39q-13 -39 -39 -170q-13 -92 -13 -108
q0 -39 25 -39q21 0 24 24q10 -9 8 -20z" />
    <glyph glyph-name="twosuperior" unicode="&#xb2;" horiz-adv-x="376" 
d="M337 317q-4 -37 -36 -56q-24 -15 -52 -15q-24 0 -62.5 18t-66.5 18q-64 0 -62 -40q-11 9 -8 28q5 28 69 85q-10 -5 -18 -5q-15 0 -13 20q2 13 18.5 28.5t39.5 22.5q-7 -4 -12 -8q-12 -10 -13 -20q0 -13 16 -13q31 1 67 54t36 87q0 38 -28 38q-41 0 -45 -37q-3 -28 23 -28
q18 0 31 14q-8 -19 -19 -32q-26 -32 -63 -33q-52 -1 -52 56q0 13 3 25q7 29 38 57q41 37 100 37q44 0 71 -21q29 -24 29 -67q0 -10 -1 -20q-7 -48 -72 -101l-102 -72q26 11 48 8q16 -2 31 -12t27 -10q19 0 23 20q1 19 -20 31q81 4 75 -57z" />
    <glyph glyph-name="threesuperior" unicode="&#xb3;" horiz-adv-x="363" 
d="M340 553q-14 -6 -28 -15q-34 -22 -62 -55q79 -26 79 -96q0 -8 -1 -16q-8 -61 -61 -97q-46 -31 -104 -31q-49 0 -79 28.5t-27 66.5q3 37 33 62q27 23 59 23q30 0 44 -22t10 -50q-11 20 -26 20q-12 0 -23 -10t-13 -24q-5 -33 36 -33q20 0 39 21.5t23 51.5q4 28 -9 47
q-12 16 -33 19q-37 5 -44 7q-24 7 -21 24q3 21 34 28q-4 -3 -9 -15q0 -9 10 -9q30 0 64 59q-34 -10 -56 -10q-24 0 -43 16q-24 19 -20 51q7 49 58 58q-7 -6 -17 -32q-3 -18 19 -26q19 -7 55 -6q46 1 96 27q-4 -12 -4 -24q0 -28 21 -38z" />
    <glyph glyph-name="onehalf" unicode="&#xbd;" horiz-adv-x="654" 
d="M605 57q-3 -36 -35 -55q-25 -15 -53 -15q-24 0 -62.5 18t-66.5 18q-64 0 -62 -40q-12 9 -9 28q5 27 70 85q-10 -5 -18 -5q-16 0 -13 19q2 14 18.5 29.5t39.5 22.5q-7 -4 -12 -8q-12 -10 -13 -20q0 -13 15 -13q32 1 69 55q35 51 35 86q0 38 -28 38q-40 0 -45 -37
q-4 -28 23 -28q18 0 31 14q-8 -19 -19 -32q-26 -33 -63 -34q-52 -1 -52 58q0 12 3 24q7 29 37 57q42 37 101 37q44 0 71 -21q29 -24 29 -67q0 -10 -1 -20q-7 -48 -72 -101l-102 -72q26 11 48 8q16 -2 31 -12.5t27 -10.5q19 0 23 20q1 20 -20 32q81 3 75 -58zM537 605
l-385 -608h-50l384 608h51zM245 271q-7 -35 -59 -36q-19 0 -47.5 14t-39.5 14q-24 0 -26 -16q-1 -10 14 -19q-40 2 -37 29q3 20 24 33q31 19 35 24q13 16 26 87q12 66 11 107q-17 -15 -35 -15q-35 0 -35 50q0 8 1 17q15 -14 35 -14q48 0 94 77q7 -27 34 -39
q-13 -39 -39 -170q-13 -92 -13 -108q0 -39 25 -39q21 0 24 24q10 -9 8 -20z" />
    <glyph glyph-name="onequarter" unicode="&#xbc;" horiz-adv-x="654" 
d="M578 203l-1 1zM620 154q-9 -57 -81 -57h-9q0 -25 12 -39q10 -9 20.5 -19t8.5 -26q-3 -26 -37 -30q4 4 9 21q2 14 -25 14q-4 0 -38 -11.5t-51 -11.5q-45 0 -39 37q4 24 27 31q-4 -6 -9 -20q-2 -13 14 -13q32 0 49 77q-17 4 -38 4q-33 0 -90 -30q-16 29 -41 66q50 38 90 76
q95 91 121 164q8 -13 17 -23q20 -24 40 -29q-12 -54 -35 -175q17 -2 21 -2q28 1 31 28q4 17 -9 17q13 -4 25 -14q20 -15 17 -35zM537 605l-385 -608h-50l384 608h51zM245 271q-7 -35 -59 -36q-19 0 -47.5 14t-39.5 14q-24 0 -26 -16q-1 -10 14 -19q-40 2 -37 29q3 20 24 33
q31 19 35 24q13 16 26 87q12 66 11 107q-17 -15 -35 -15q-35 0 -35 50q0 8 1 17q15 -14 35 -14q48 0 94 77q7 -27 34 -39q-13 -39 -39 -170q-13 -92 -13 -108q0 -39 25 -39q21 0 24 24q10 -9 8 -20zM483 242q-18 -21 -84 -81q12 4 63 11q12 0 18 -2q7 55 3 72z" />
    <glyph glyph-name="threequarters" unicode="&#xbe;" horiz-adv-x="654" 
d="M609 203l-2 1zM650 154q-9 -57 -80 -57h-10q1 -27 11.5 -37.5t21.5 -20.5t9 -26q-3 -24 -38 -30q4 4 9 21q3 14 -24 14q-4 0 -38.5 -11.5t-51.5 -11.5q-45 0 -39 37q4 24 28 31q-4 -6 -10 -20q-2 -13 14 -13q33 0 50 77q-17 4 -39 4q-33 0 -90 -30q-16 29 -41 66
q51 38 91 76q95 91 120 164q8 -13 17 -23q20 -24 41 -29q-12 -54 -36 -175q17 -2 21 -2q29 1 31 28q4 17 -8 17q13 -4 25 -14q19 -15 16 -35zM567 605l-384 -608h-51l385 608h50zM312 553q-14 -6 -28 -15q-34 -22 -61 -55q78 -26 78 -96q0 -8 -1 -16q-8 -61 -61 -97
q-46 -31 -103 -31q-50 0 -79.5 28t-26.5 67q3 37 33 62q26 23 58 23q30 0 44 -22t11 -50q-12 20 -26 20q-32 0 -37 -34q-5 -33 37 -33q19 0 38 21.5t23 51.5q4 28 -9 47q-12 16 -32 19q-38 5 -44 7q-25 7 -22 24q3 21 34 28q-3 -4 -8 -15q-1 -9 9 -9q30 0 64 59
q-34 -10 -56 -10q-24 0 -43 16q-24 19 -20 51q7 49 59 58q-8 -6 -18 -32q-3 -18 19 -26q19 -7 55 -6q47 1 96 27q-4 -12 -4 -24q0 -28 21 -38zM513 242q-18 -21 -83 -81q12 4 62 11q12 0 18 -2q7 55 3 72z" />
    <glyph glyph-name="dotlessi" unicode="&#x131;" horiz-adv-x="237" 
d="M339 143q-29 -54 -81 -99q-70 -61 -140 -61q-32 0 -49.5 20.5t-15.5 53.5q2 34 21.5 105.5t19.5 79.5q1 26 -18 26q-7 0 -36 -22l-24 29q33 30 67 60q45 40 67 42q34 3 50.5 -20.5t11.5 -60.5q-14 -64 -29 -162q-1 -45 33 -45q14 0 52 31q32 27 51 49z" />
    <glyph glyph-name="Lslash" unicode="&#x141;" horiz-adv-x="751" 
d="M757 187q-14 -72 -74 -136q-48 -51 -93 -70q46 -30 39 -78q-6 -39 -39 -63.5t-72 -21.5q-66 5 -66 59q22 -25 49 -23q44 3 49 45q3 27 -17 47q-26 26 -84 25q-87 -2 -163 -12q-72 -9 -109 -9q-89 0 -89 70q0 10 2 21q5 29 35 52t58 23q-13 -7 -23 -16q-23 -22 -26 -50
q-2 -14 9 -21.5t29 -6.5q32 1 69.5 38t48.5 78q1 4 16 85l-103 -71l7 44q52 36 104 71q2 13 6 35q-46 -62 -121 -56q-59 5 -91 49q-28 39 -28 99q0 96 61.5 166t157.5 70q53 0 100 -18q51 -20 76 -22q31 -2 52.5 8t23.5 25q4 30 -23 30q-23 0 -51 -33q34 76 78 76
q56 0 56 -55q0 -9 -2 -19q-7 -39 -40 -77q-30 -30 -58.5 -60.5t-47.5 -114.5l112 76l-7 -43l-114 -79q-2 -14 -4 -22q-16 -117 -16 -151q0 -84 44 -85q53 -1 90 49q30 42 36 92q3 27 -9 43q-11 13 -27 13q-14 0 -27.5 -11t-16.5 -22q-4 -18 3 -48q-31 16 -31 65q0 9 1 19
q7 54 52 85q39 26 89 26q46 0 81 -31q43 -39 43 -109q0 -24 -5 -50zM342 473q-5 94 -69 94q-39 0 -69 -24q-37 -29 -43 -86q-3 -33 14.5 -55.5t44.5 -22.5q29 0 46.5 17.5t17.5 45.5q0 41 -46 38q32 23 62 21q28 -2 42 -28z" />
    <glyph glyph-name="lslash" unicode="&#x142;" horiz-adv-x="548" 
d="M601 624q-5 -37 -65 -97q-42 -42 -68 -201l99 64l-7 -43l-99 -64q-2 -7 -4 -22q-11 -83 -11 -139q0 -108 43 -106q20 1 23 16q2 9 -12 30q-2 3 0 6q1 2 5 1q14 -5 26 -18q14 -17 12 -35q-7 -55 -81 -55q-39 0 -76 26t-66 26t-49 -12t-21 -23q-3 -21 15 -21q13 0 30 11
q3 2 6 0q2 -1 0 -5q-6 -9 -13 -15q-16 -16 -35 -19q-23 -4 -44 7q-26 13 -22 42q3 24 42 59q46 42 62 74q14 27 28 79l-166 -107l7 43l170 111q6 27 7 44q-18 -28 -51 -47q-41 -23 -87 -19q-62 5 -95 49q-28 38 -28 99q0 17 2 35q10 74 67 133q67 69 162 68q49 -1 96 -4
q43 -4 61 -4q64 0 69 34q3 20 -15 20q-15 0 -37 -11q-3 -3 -5 0q-3 3 0 6q10 11 20 20q25 20 47 23q25 3 43.5 -12t14.5 -47zM347 442q-5 94 -72 94q-40 0 -72 -23q-39 -30 -45 -87q-3 -33 15.5 -55.5t46.5 -22.5q29 0 48 17t19 46q0 41 -48 38q33 22 64 21q27 -1 44 -28z
" />
    <glyph glyph-name="Zcaron" unicode="&#x17d;" horiz-adv-x="636" 
d="M615 766l-172 -148l-126 148l26 24l115 -80l136 80zM718 610q-49 -50 -84 -88q-85 -90 -87 -105q-4 -30 29 -30q13 0 45 39q-51 -140 -126 -140q-31 0 -31 27q0 19 13 44l-195 -200q44 16 80 12q39 -4 89 -59t92 -55q59 0 67 57q3 22 -30 64q85 -28 85 -125q0 -15 -2 -31
q-8 -58 -58 -93q-44 -33 -100 -33q-57 0 -114 43q-48 39 -97 78q-60 42 -125 42q-66 0 -72 -49q-4 -32 28 -32q17 0 31 14q-20 -47 -68 -47q-60 0 -60 58q0 10 2 21q5 34 83.5 109.5t84.5 116.5q4 30 -25 30q-21 0 -54 -38q33 107 105 97q32 -5 32 -41q0 -13 -4 -32l237 239
q-34 -20 -69 -20q-20 0 -57.5 9.5t-49.5 9.5q-21 0 -40 -15.5t-22 -36.5q-3 -19 8 -34.5t29 -15.5q8 0 15 3q-34 -34 -87 -34q-41 0 -68 25t-27 72q0 12 2 24q8 59 64 97q53 36 125 36q48 0 105 -24.5t98 -24.5q78 0 203 36z" />
    <glyph glyph-name="zcaron" unicode="&#x17e;" horiz-adv-x="460" 
d="M427 531l-172 -148l-125 148l26 24l114 -80l136 80zM530 137q-28 -53 -77 -96q-67 -58 -134 -58q-38 0 -88.5 12t-80.5 12q-10 0 -41.5 -8.5t-40.5 -8.5q-32 0 -31 19q0 11 26 36l204 195q-24 -1 -73 13.5t-79 14.5q-29 0 -57 -9q19 42 55 69t72 27q34 0 74.5 -13
t67.5 -13q45 0 88 24q8 4 19.5 -1.5t12.5 -17.5q1 -19 -10 -30l-200 -193q62 -27 115 -27q26 0 53 6q22 5 58 31q32 22 48 41z" />
    <glyph glyph-name="caron" unicode="&#x2c7;" horiz-adv-x="343" 
d="M333 625l-172 -148l-125 148l26 24l115 -80l135 80z" />
    <glyph glyph-name="breve" unicode="&#x2d8;" horiz-adv-x="329" 
d="M318 598q-67 -134 -164 -134q-79 0 -120 134l25 23q49 -77 110 -77q66 0 129 77z" />
    <glyph glyph-name="dotaccent" unicode="&#x2d9;" horiz-adv-x="227" 
d="M237 493q-1 -25 -25 -48q-27 -26 -64 -26q-57 0 -55 50q1 26 30.5 50t65.5 24q21 0 35 -16.5t13 -33.5z" />
    <glyph glyph-name="ring" unicode="&#x2da;" horiz-adv-x="333" 
d="M160 430q-39 0 -65 25.5t-26 63.5q0 48 36 84t84 36q40 0 65.5 -25.5t25.5 -63.5q0 -48 -36 -84t-84 -36zM234 535q4 24 -11 41.5t-40 17.5t-44.5 -17.5t-22.5 -41.5q-3 -25 11.5 -42t38.5 -17q25 0 44.5 17t23.5 42z" />
    <glyph glyph-name="ogonek" unicode="&#x2db;" horiz-adv-x="245" 
d="M214 -152l-27 -66q-48 1 -89.5 44t-39.5 97q1 47 38 94q32 41 61 51l20 -20q-47 -48 -47 -115q0 -28 25 -55q26 -30 59 -30z" />
    <glyph glyph-name="hungarumlaut" unicode="&#x2dd;" horiz-adv-x="459" 
d="M380 566q-3 -4 -15 -14l-142 -117l-11 7l75 156q2 5 9 17q17 22 46 22q15 0 27 -7q20 -12 20 -36q0 -16 -9 -28zM223 566l-14 -14l-142 -117l-11 7l74 156q3 6 9 17q17 22 47 22q19 0 33 -12t14 -31q0 -16 -10 -28z" />
    <glyph glyph-name="Delta" unicode="&#x394;" horiz-adv-x="556" 
d="M553 0h-547l378 625zM445 44l-115 426l-259 -426h374z" />
    <glyph glyph-name="Delta" unicode="&#x2206;" horiz-adv-x="556" 
d="M553 0h-547l378 625zM445 44l-115 426l-259 -426h374z" />
    <glyph glyph-name="Omega" unicode="&#x3a9;" horiz-adv-x="661" 
d="M666 339q-14 -100 -92 -163q-55 -45 -129 -65l-5 -24h137q28 0 42 13q10 10 21 39h13l-19 -139h-255l33 130q52 23 77 48q59 57 74 161q4 28 4 55q0 173 -155 173q-110 0 -168 -87q-37 -56 -49 -141q-3 -23 -3 -44q0 -117 96 -165l-5 -130h-254l19 139h14q3 -30 12 -41
t37 -11h136l2 24q-61 18 -102 56q-58 54 -58 136q0 128 101 211q94 78 226 78q124 0 193 -69q59 -61 59 -151q0 -16 -2 -33z" />
    <glyph glyph-name="Omega" unicode="&#x2126;" horiz-adv-x="661" 
d="M666 339q-14 -100 -92 -163q-55 -45 -129 -65l-5 -24h137q28 0 42 13q10 10 21 39h13l-19 -139h-255l33 130q52 23 77 48q59 57 74 161q4 28 4 55q0 173 -155 173q-110 0 -168 -87q-37 -56 -49 -141q-3 -23 -3 -44q0 -117 96 -165l-5 -130h-254l19 139h14q3 -30 12 -41
t37 -11h136l2 24q-61 18 -102 56q-58 54 -58 136q0 128 101 211q94 78 226 78q124 0 193 -69q59 -61 59 -151q0 -16 -2 -33z" />
    <glyph glyph-name="mu" unicode="&#xb5;" horiz-adv-x="475" 
d="M582 137q-28 -52 -78 -96q-66 -58 -134 -58q-26 0 -44.5 20t-18.5 51q0 11 3 23q-25 -23 -50 -40q-62 -42 -120 -46q-21 -2 -38 4q-12 -16 -13 -63q0 -58 -5 -74q-10 -35 -45 -35q-22 0 -34.5 16.5t-9.5 39.5q4 27 19 50q19 30 25 47q13 37 16 101q1 29 17.5 88t16.5 66
q1 26 -18 26q-6 0 -34 -21l-23 27l64 58q43 38 65 40q32 3 49.5 -17.5t16.5 -53.5q-1 -25 -11.5 -78.5t-10.5 -72.5q-1 -36 20 -36q30 0 68.5 44.5t39.5 83.5q1 15 -8 26.5t-24 11.5q-16 0 -33 -7q30 107 123 104q76 -2 74 -83q-1 -26 -12 -78q-12 -55 -13 -68
q-3 -47 35 -47q41 0 106 72z" />
    <glyph glyph-name="mu" unicode="&#x3bc;" horiz-adv-x="475" 
d="M582 137q-28 -52 -78 -96q-66 -58 -134 -58q-26 0 -44.5 20t-18.5 51q0 11 3 23q-25 -23 -50 -40q-62 -42 -120 -46q-21 -2 -38 4q-12 -16 -13 -63q0 -58 -5 -74q-10 -35 -45 -35q-22 0 -34.5 16.5t-9.5 39.5q4 27 19 50q19 30 25 47q13 37 16 101q1 29 17.5 88t16.5 66
q1 26 -18 26q-6 0 -34 -21l-23 27l64 58q43 38 65 40q32 3 49.5 -17.5t16.5 -53.5q-1 -25 -11.5 -78.5t-10.5 -72.5q-1 -36 20 -36q30 0 68.5 44.5t39.5 83.5q1 15 -8 26.5t-24 11.5q-16 0 -33 -7q30 107 123 104q76 -2 74 -83q-1 -26 -12 -78q-12 -55 -13 -68
q-3 -47 35 -47q41 0 106 72z" />
    <glyph glyph-name="pi" unicode="&#x3c0;" horiz-adv-x="464" 
d="M455 349l-9 -62h-90q-25 -105 -33 -168q-5 -36 12 -53q9 -12 25 -12q13 0 26 9q19 13 25 45h15q-11 -81 -66 -111q-17 -9 -35 -9q-16 0 -27 8q-28 28 -28 75q0 44 14 100l28 116h-82q-34 -155 -67 -251q-15 -42 -46 -50q-15 -4 -27.5 5.5t-13.5 22.5q-2 19 23 48
q12 13 24 25q15 17 20 36l44 164h-34q-31 0 -50 -23l-18 -22h-13q9 19 43 69q32 38 72 38h268z" />
    <glyph glyph-name="fraction" unicode="&#x2044;" horiz-adv-x="421" 
d="M423 623l-355 -626h-57l355 626h57z" />
    <glyph glyph-name="partialdiff" unicode="&#x2202;" horiz-adv-x="472" 
d="M420 326q0 -126 -49 -227q-58 -122 -158 -122q-45 0 -97 27q-25 13 -48 50q-29 46 -29 98q0 54 32 107q54 90 147 90q64 0 108 -39q4 34 4 64q0 162 -103 196q-13 4 -25 4q-43 0 -87 -44l-51 67q75 31 127 31q26 0 50 -6q91 -24 141 -127q38 -81 38 -169zM316 247
q-28 40 -77 40q-73 0 -98 -117q-6 -27 -6 -55q0 -60 27 -75q18 -10 36 -10q45 0 84 73q22 41 34 144z" />
    <glyph glyph-name="product" unicode="&#x220f;" horiz-adv-x="590" 
d="M612 607l-2 -17q-67 0 -77 -71l-63 -449q-1 -8 -1 -15q0 -44 61 -44l-2 -15h-219l2 15q36 0 52 11q20 13 25 48l70 498h-199l-70 -498q-1 -8 -1 -15q0 -44 62 -44l-2 -15h-220l2 15q37 0 53 10q20 13 25 49l63 449q1 9 1 16q0 55 -59 55l3 17h496z" />
    <glyph glyph-name="summation" unicode="&#x2211;" horiz-adv-x="552" 
d="M557 604l-14 -115h-13q-7 46 -18 59q-20 23 -82 23h-188l159 -259l-245 -243h268q41 0 61.5 16t45.5 65h18q-29 -74 -54 -161q-6 1 -27 5q-17 3 -27 3h-363q-8 0 -21.5 -1.5t-20.5 -1.5l292 287l-205 328q63 -5 76 -5h358z" />
    <glyph glyph-name="radical" unicode="&#x221a;" horiz-adv-x="438" 
d="M440 743l-250 -829l-66 339l-73 -36l-8 10l102 133l58 -175l227 564z" />
    <glyph glyph-name="infinity" unicode="&#x221e;" horiz-adv-x="734" 
d="M705 276q-2 -60 -52 -110q-55 -54 -121 -47q-59 6 -106 42q-22 17 -55 56q-48 -41 -69 -55q-59 -37 -120 -43q-58 -5 -96 35q-35 37 -35 90q0 63 51 111t114 48q31 0 60 -13q43 -20 107 -87q84 66 133 87q32 13 63 13q55 0 91.5 -37t34.5 -90zM637 256q5 28 -12 52
q-19 28 -55 28q-16 0 -34 -6q-33 -11 -114 -71q35 -39 50 -51q21 -16 54 -24q9 -2 19 -2q32 0 59.5 21t32.5 53zM332 259q-61 59 -93 71q-17 6 -33 6q-36 0 -63 -28q-23 -24 -26 -52q-4 -32 17.5 -53t52.5 -21q10 0 20 2q36 8 61 24q18 12 64 51z" />
    <glyph glyph-name="integral" unicode="&#x222b;" horiz-adv-x="287" 
d="M321 552q0 -19 -15.5 -35t-34.5 -16q-16 0 -28 14q-5 5 -9 5t-4 -5q-16 -286 -55 -465q-32 -145 -71 -187q-20 -21 -57 -21q-11 0 -19 4q-30 16 -30 46q0 19 11.5 33t29.5 14q22 0 43 -26q4 -5 7 -5q8 0 16 72q37 336 65 461q28 118 72 144q14 8 28 8q18 0 34.5 -11.5
t16.5 -29.5z" />
    <glyph glyph-name="approxequal" unicode="&#x2248;" horiz-adv-x="467" 
d="M441 390l-12 -60q-72 -35 -116 -35q-20 0 -58 18t-54 18q-47 0 -125 -37l12 60q77 37 123 37q17 0 56 -18t54 -18q46 0 120 35zM417 273l-12 -60q-71 -36 -115 -36q-20 0 -58.5 18.5t-54.5 18.5q-47 0 -125 -37l12 60q77 37 124 37q17 0 55.5 -18.5t53.5 -18.5
q46 0 120 36z" />
    <glyph glyph-name="approxequal" unicode="&#x22f2;" horiz-adv-x="467" 
d="M441 390l-12 -60q-72 -35 -116 -35q-20 0 -58 18t-54 18q-47 0 -125 -37l12 60q77 37 123 37q17 0 56 -18t54 -18q46 0 120 35zM417 273l-12 -60q-71 -36 -115 -36q-20 0 -58.5 18.5t-54.5 18.5q-47 0 -125 -37l12 60q77 37 124 37q17 0 55.5 -18.5t53.5 -18.5
q46 0 120 36z" />
    <glyph glyph-name="notequal" unicode="&#x2260;" horiz-adv-x="467" 
d="M436 354l-13 -60h-120l-39 -55h150l-12 -60h-181q-22 -31 -83 -116h-56l82 116h-110l12 60h141l39 55h-170l12 60h201l80 112h56l-80 -112h91z" />
    <glyph glyph-name="lessequal" unicode="&#x2264;" horiz-adv-x="525" 
d="M497 407l-342 -136l303 -141l-30 -52l-362 170l7 47l409 164zM423 60l-13 -60h-347l12 60h348z" />
    <glyph glyph-name="greaterequal" unicode="&#x2265;" horiz-adv-x="525" 
d="M501 291l-7 -47l-409 -164l-15 52l342 136l-303 141l30 52zM440 60l-12 -60h-348l12 60h348z" />
    <glyph glyph-name="lozenge" unicode="&#x25ca;" horiz-adv-x="402" 
d="M423 307l-202 -307h-49l-114 307l199 299h49zM374 307l-98 255l-169 -255l96 -264z" />
    <glyph glyph-name="fi" unicode="&#xf001;" horiz-adv-x="581" 
d="M546 493q-1 -25 -25 -48q-27 -26 -64 -26q-28 0 -41.5 15t-12.5 35q1 26 30.5 50t64.5 24q22 0 35.5 -16t12.5 -34zM634 137q-28 -52 -78 -96q-66 -58 -133 -58q-31 0 -48 20t-15 52t20.5 101t18.5 75q2 26 -17 26q-23 0 -70 -71q-72 -111 -89 -132q-59 -71 -110 -71
q-65 0 -63 72q2 62 30 235h-32q-11 0 -9 10l9 43q1 7 9 7h32q11 68 14 83q39 185 165 185q37 0 50 -28q1 -3 12 -53q7 -28 27 -28q12 0 44 34q1 -50 -26 -96q-30 -52 -73 -52q-27 0 -37 23q-5 10 -8 42q-3 23 -12 23q-18 0 -45 -133h88q11 0 9 -10l-9 -43q-1 -7 -9 -7h-89
q-16 -86 -19 -168q-1 -37 25 -37q8 0 54 72q59 90 95 132q62 72 108 72q68 0 59 -78q-14 -60 -28 -155q-1 -43 32 -43q14 0 50 30q30 25 49 47z" />
    <glyph glyph-name="fl" unicode="&#xf002;" horiz-adv-x="545" 
d="M602 137q-28 -52 -78 -96q-66 -58 -134 -58q-64 0 -62 72q2 77 55 406q-32 -66 -81 -66q-27 0 -37 23q-5 10 -8 42q-3 23 -12 23q-18 0 -45 -133h88q11 0 9 -10l-9 -43q-1 -7 -9 -7h-89q-16 -86 -19 -168q-1 -37 35 -37q14 0 50 30q30 25 49 47l19 -25q-28 -53 -77 -96
q-67 -58 -134 -58q-65 0 -63 72q2 62 30 235h-32q-11 0 -9 10l9 43q1 7 9 7h32q11 68 14 83q39 185 165 185q37 0 50 -28q1 -3 12 -53q7 -28 27 -28q14 0 36 26q1 2 1 3q3 39 14 56q14 22 49 22q63 0 63 -42q0 -76 -32 -223q-33 -153 -36 -223q-2 -43 31 -43q14 0 50 30
q29 24 50 47z" />
    <glyph glyph-name="apple" unicode="&#xf000;" horiz-adv-x="601" 
d="M430 614q4 -65 -27 -99q-36 -41 -94 -46q-2 44 29 90.5t92 54.5zM557 162q-76 -164 -146 -164q-17 0 -50.5 12.5t-50.5 12.5q-14 0 -46 -13t-51 -13q-71 0 -139 146q-35 74 -35 151q0 53 22 89q54 88 135 88q30 0 69.5 -12.5t45.5 -12.5q9 0 46.5 13.5t64.5 13.5
q62 0 119 -62q-24 -11 -47.5 -48t-23.5 -73q0 -54 36 -93q24 -26 51 -35z" />
    <glyph glyph-name="glyph247" horiz-adv-x="1000" 
 />
  </font>
</defs>
</svg>
