<?xml version="1.0" standalone="no"?>
<!DOCTYPE svg PUBLIC "-//W3C//DTD SVG 1.1//EN" "http://www.w3.org/Graphics/SVG/1.1/DTD/svg11.dtd" >
<svg xmlns="http://www.w3.org/2000/svg" xmlns:xlink="http://www.w3.org/1999/xlink" version="1.1">
<metadata>
Created by FontForge 20170924 at Sat Aug 19 01:30:29 2017
 By www-data
(c) Bright Ideas
</metadata>
<defs>
<font id="BlackRose" horiz-adv-x="911" >
  <font-face 
    font-family="Black Rose"
    font-weight="400"
    font-stretch="normal"
    units-per-em="2048"
    panose-1="0 0 4 0 0 0 0 0 0 0"
    ascent="1638"
    descent="-410"
    x-height="727"
    cap-height="1399"
    bbox="-312.36 -733 2251 1913"
    underline-thickness="34"
    underline-position="-390"
    unicode-range="U+000D-25FC"
  />
<missing-glyph horiz-adv-x="748" 
d="M68 0v1365h544v-1365h-544zM136 68h408v1229h-408v-1229z" />
    <glyph glyph-name=".notdef" horiz-adv-x="748" 
d="M68 0v1365h544v-1365h-544zM136 68h408v1229h-408v-1229z" />
    <glyph glyph-name="glyph1" horiz-adv-x="0" 
 />
    <glyph glyph-name="uni000D" unicode="&#xd;" horiz-adv-x="731" 
 />
    <glyph glyph-name="space" unicode=" " horiz-adv-x="731" 
 />
    <glyph glyph-name="exclam" unicode="!" horiz-adv-x="765" 
d="M713 1094q-14 -96 -104.5 -338t-94.5 -267q-6 -49 37 -51q33 -2 70 74q12 -61 8 -100q-6 -61 -56.5 -109.5t-121.5 -48.5q-139 0 -140 147q0 20 4 43q35 203 91 539q4 29 4 55q0 72 -26 114t-62 42q-27 0 -56 -12q109 188 266 188q184 0 185 -219q0 -28 -4 -57zM567 84
q-10 -57 -61 -104q-61 -55 -150 -56q-125 0 -108 109q8 55 77.5 107.5t147.5 52.5q47 0 73.5 -35t20.5 -74z" />
    <glyph glyph-name="quotedbl" unicode="&#x22;" horiz-adv-x="684" 
d="M637 1145q-2 -16 -12 -43l-142 -381h-30l-31 383q-2 35 -2 41q6 45 43 76.5t82 31.5t72.5 -31.5t19.5 -76.5zM375 1145q-2 -16 -13 -43l-141 -381h-31l-30 383q-2 37 -2 41q8 45 45 76.5t80 31.5q45 0 72.5 -31.5t19.5 -76.5z" />
    <glyph glyph-name="numbersign" unicode="#" horiz-adv-x="1277" 
d="M1348 887l-54 -137h-272l-96 -273h272l-53 -137h-264l-123 -344h-135l120 344h-264l-121 -344h-135l121 344h-276l53 137h268l96 273h-268l53 137h265l122 350h136l-123 -350h266l123 350h135l-123 -350h277zM887 750h-266l-95 -273h265z" />
    <glyph glyph-name="dollar" unicode="$" horiz-adv-x="909" 
d="M864 989q10 -74 -38 -127t-115 -53q-98 0 -136 98q12 -6 31 -6q43 0 43 45q2 12 -16.5 24.5t-36.5 12.5q-66 0 -76 -86q-8 -59 119 -248q139 -211 154 -270q10 -39 10 -74q0 -115 -105 -186q-90 -61 -227 -74l-29 -221h-69l30 219q-33 0 -51 2l-30 -221h-68l31 229
q-274 49 -265 254q4 88 67 145.5t165 51.5q113 -8 113 -137q0 -16 -3 -33q-18 31 -81 28q-53 -2 -50 -59q2 -45 72 -51q74 -6 113 26.5t35 92.5q-2 41 -74 145q-96 137 -125 197q-63 127 -53 235q6 59 61 117q63 66 168 92l29 215h69l-26 -203q33 4 49 5l24 198h70l-27 -201
q228 -22 248 -182z" />
    <glyph glyph-name="percent" unicode="%" horiz-adv-x="1599" 
d="M1536 383q-6 -170 -123 -291q-121 -127 -297 -127q-145 0 -221 94q-55 72 -61 177q-8 158 114 292q133 147 334 148q129 0 197 -88q61 -80 57 -205zM1257 1276l-727 -1282h-114l581 1010q-82 -66 -192 -103q-14 -160 -127 -268q-119 -113 -289 -113q-147 0 -223 94
q-55 70 -62 174q-8 158 115 293q133 147 334 148q217 0 252 -199q88 0 192 88q80 66 144 158h116zM1327 389q2 51 -14.5 92t-44.5 41q-94 0 -156 -100q-51 -84 -53 -178q-4 -121 74 -121q82 0 141 96q49 84 53 170zM594 893q-78 29 -78 113q0 33 23 69q-92 0 -156 -100
q-51 -84 -53 -176q-4 -123 73 -123q74 0 129 74q48 61 62 143z" />
    <glyph glyph-name="ampersand" unicode="&#x26;" horiz-adv-x="1368" 
d="M1350 819q-25 -145 -263 -192q123 -98 111 -283q-10 -176 -146.5 -298t-320.5 -122q-180 0 -289 86q-115 92 -114 258q0 152 82 271q-66 -39 -162 -27q-86 10 -137.5 73.5t-51.5 159.5q0 23 2 46q16 127 129 206q102 74 232 74q72 0 147 -14q43 92 140 147q88 53 182 51
q121 -2 194 -59q68 -55 74 -145q6 -80 -68.5 -141.5t-181.5 -61.5q-78 0 -172 26q16 -106 174 -139q-88 -20 -153 -59q-156 -92 -180 -260q-4 -27 -5 -51q0 -178 197 -179q82 0 160 66q88 74 92 174q6 141 -86 141q-84 0 -94 -80q-4 -31 7 -41t38 -6q33 4 67 29
q-55 -143 -143 -143q-66 0 -96.5 37.5t-22.5 97.5q25 176 312 248q76 18 139 59t67 78q6 43 -34 55q-18 6 -43 6q29 16 108 33q111 2 111 -94q0 -13 -2 -27zM989 1044q0 31 -30.5 53.5t-77.5 16.5q-92 -10 -131 -121q88 -33 147 -32q39 0 65.5 25t26.5 58zM635 731
q-27 18 -45 45q-45 61 -47 150q-37 6 -82 6q-88 0 -142 -43q-45 -37 -53 -90q-14 -96 82 -97q66 0 72 64q2 31 -29 82q29 -18 49 -39q51 -45 58 -84q8 -51 -11 -94q70 65 148 100z" />
    <glyph glyph-name="quotesingle" unicode="'" horiz-adv-x="362" 
d="M375 1145q-2 -16 -13 -43l-141 -381h-31l-30 383q-2 37 -2 41q8 45 45 76.5t80 31.5q45 0 72.5 -31.5t19.5 -76.5z" />
    <glyph glyph-name="parenleft" unicode="(" horiz-adv-x="663" 
d="M774 1380l-20 -104q-100 -53 -222 -221q-147 -205 -172 -410q-6 -53 -6 -110q0 -205 74 -402q68 -176 143 -235l-26 -88q-111 41 -240 221q-168 231 -168 501q0 53 6 107q39 309 287 537q182 165 344 204z" />
    <glyph glyph-name="parenright" unicode=")" horiz-adv-x="663" 
d="M694 549q-39 -309 -286 -537q-182 -166 -345 -205l23 105q100 53 221 219q147 207 172 412q6 55 6 112q0 203 -73 400q-68 176 -146 235l27 88q113 -41 242 -221q166 -231 165 -502q0 -53 -6 -106z" />
    <glyph glyph-name="asterisk" unicode="*" horiz-adv-x="817" 
d="M788 1059q-31 -61 -98 -70q-6 0 -82 -4q-35 0 -90 -24q-6 -4 2 -5q47 -25 84 -27.5t76 -4.5q74 -12 80 -68q10 -29 -18.5 -66.5t-59.5 -44.5q-59 -10 -96 48q-14 29 -29.5 57.5t-64.5 67.5q-4 4 -9 4q-8 0 -4 -11q-4 -63 8.5 -96t24.5 -63q12 -53 -15.5 -94.5
t-80.5 -41.5q-41 0 -62 25q-37 43 2 113q20 31 42 61.5t34 95.5q0 2 -2 2q-59 -37 -81.5 -67.5t-45.5 -61.5q-51 -55 -110 -45q-35 6 -50 45q-16 31 0 66q27 57 99 68q41 2 82 6q33 2 86 26q10 10 4 13q-47 25 -82 26q-41 4 -80 6q-68 10 -80 68q0 33 24.5 68.5t55.5 42.5
q59 12 98 -46q14 -29 28.5 -57.5t63.5 -66.5q4 -4 4 4q4 66 -9 96.5t-25 60.5q-4 12 -4 27q0 45 28.5 78t73.5 33q51 0 59 -25q33 -43 -2 -113q-20 -31 -41.5 -63.5t-31.5 -95.5q2 -4 6 -7q59 37 82.5 67t46.5 60q41 45 94 45q45 0 61 -43.5t4 -68.5z" />
    <glyph glyph-name="plus" unicode="+" horiz-adv-x="956" 
d="M866 608l-26 -123h-289l-43 -309h-123l43 309h-299l25 123h290l41 281h123l-41 -281h299z" />
    <glyph glyph-name="comma" unicode="," horiz-adv-x="765" 
d="M567 84q-16 -137 -106 -252q-96 -123 -244 -166l-14 25q45 35 78 71q80 86 94 164q-70 -10 -105 29q-29 31 -22 78q8 55 77.5 107.5t147.5 52.5q47 0 72.5 -35t21.5 -74z" />
    <glyph glyph-name="hyphen" unicode="-" horiz-adv-x="780" 
d="M860 739q-16 -127 -80 -231q-74 -119 -159 -119q-74 0 -144 35q-80 41 -117 47q-16 2 -32 2q-59 0 -133 -35q-51 -27 -101 -53q33 104 107 193q88 104 172 104q70 0 127 -31q68 -35 116 -41q16 -2 33 -2q137 0 211 131z" />
    <glyph glyph-name="period" unicode="." horiz-adv-x="765" 
d="M567 84q-10 -57 -61 -104q-61 -55 -150 -56q-125 0 -108 109q8 55 77.5 107.5t147.5 52.5q47 0 73.5 -35t20.5 -74z" />
    <glyph glyph-name="slash" unicode="/" horiz-adv-x="704" 
d="M809 1276l-678 -1475h-115l676 1475h117z" />
    <glyph glyph-name="zero" unicode="0" horiz-adv-x="1110" 
d="M1133 600q-39 -270 -252 -467q-178 -162 -308 -162q-123 0 -249 127q-160 160 -160 418q0 57 8 119q39 285 272 477q184 152 324 152q47 0 127 -54q102 -68 166 -174q80 -137 80 -315q0 -60 -8 -121zM872 723q0 121 -51 221q-47 88 -86 88t-80 -42t-47 -87
q-8 -47 13.5 -83t62.5 -36q51 0 90 80q41 -31 41 -94q0 -12 -2 -27q-20 -139 -158 -139q-63 0 -104 49q-49 59 -47 172q-16 -33 -47 -166q-10 -63 -11 -131q0 -139 39 -235q41 -102 109 -103q113 0 203 213q75 183 75 320z" />
    <glyph glyph-name="one" unicode="1" horiz-adv-x="727" 
d="M731 106q-29 -123 -201 -124q-63 0 -161.5 47t-135.5 47q-82 0 -88 -51q-4 -39 48 -66q-137 4 -127 96q8 72 84 119q104 63 116 78q45 53 90 297q41 225 39 366q-57 -51 -119 -51q-47 0 -84.5 45t-37.5 129q0 25 4 54q53 -47 121 -48q166 0 319 261q23 -90 119 -129
q-27 -86 -51 -175q-57 -213 -84 -407q-45 -313 -45 -371q0 -131 86 -131q68 0 82 82q34 -31 26 -68z" />
    <glyph glyph-name="two" unicode="2" horiz-adv-x="1122" 
d="M1102 225q-10 -125 -121 -190q-84 -51 -182 -49q-80 2 -213 61t-228 59q-213 0 -211 -135q-31 23 -30 72q0 74 90 174q35 39 149 139q-33 -14 -63 -14q-51 0 -43 64q6 47 61.5 100t134.5 76q-23 -12 -38 -27q-41 -35 -46 -70q-2 -14 12.5 -27.5t41.5 -13.5q88 2 211 157
t139 273q4 29 4 54q0 127 -96 127q-53 0 -96 -31q-49 -35 -58 -98q-12 -96 80 -97q57 0 102 52q-14 -63 -45 -111q-76 -111 -231 -113q-178 -4 -178 191q0 43 10 88q25 98 129 192q141 127 342 127q150 0 242 -73q100 -80 100 -230q0 -31 -4 -65q-16 -117 -131 -240
q-86 -92 -240 -201q-113 -76 -225 -151q90 37 164 27q55 -8 106.5 -41t92.5 -33q70 0 75 65q6 68 -67 109q278 12 260 -197z" />
    <glyph glyph-name="three" unicode="3" horiz-adv-x="1089" 
d="M1104 997q-49 -23 -96 -53q-115 -76 -209 -186q268 -90 268 -328q0 -27 -4 -55q-29 -211 -209 -332q-156 -104 -352 -104q-172 0 -273.5 96t-89.5 229q12 125 113 209q94 80 201 80q92 0 139 -60.5t47 -148.5q0 -18 -2 -37q-39 68 -88 68q-43 0 -80 -34t-45 -81
q-8 -49 27.5 -81t99.5 -32q66 0 129 73t78 175q4 23 4 43q0 162 -142.5 184.5t-152.5 24.5q-84 25 -74 82q12 72 119 94q-14 -12 -31 -51q-2 -31 31 -31q104 0 219 199q-115 -33 -192 -33q-72 0 -136 47q-78 57 -77 152q0 16 2 33q20 152 198 196q-16 -14 -26 -30
q-29 -39 -35 -78q-8 -61 65 -90q66 -25 189 -23q160 2 325 94q-10 -39 -10 -80q0 -98 70 -131z" />
    <glyph glyph-name="four" unicode="4" horiz-adv-x="1165" 
d="M1042 674q-4 2 -6 2q2 0 6 -2zM717 803q12 -59 -8 -242q-20 4 -62 4q-125 -12 -217 -39q152 123 287 277zM1186 504q14 104 -144 170q39 -14 31 -62q-14 -92 -106 -94q-33 0 -72 8q33 207 123 596q-156 39 -199 178q-129 -373 -719 -821q102 -84 140 -225
q190 104 307 104q33 0 129 -14q-29 -147 -86 -217q-41 -47 -80 -47q-53 0 -49 45q2 29 35 70q-25 -10 -45 -23q-45 -35 -52 -84q-16 -129 133 -129q59 0 175 41t131 41q90 0 84 -47q-6 -41 -31 -74q35 12 59 27q61 35 68 76q8 55 -31 92q-33 31 -67 61q-37 45 -43 133
q33 0 32 0q248 2 277 195z" />
    <glyph glyph-name="five" unicode="5" horiz-adv-x="1089" 
d="M1085 1094q-14 -106 -108 -162q-76 -45 -168 -45t-221 45q-12 -55 -51 -150q45 31 145 31q172 0 281 -94q139 -125 98 -369q-35 -201 -217 -317q-158 -102 -346 -103q-162 0 -275 80q-119 86 -119 219q0 20 2 41q20 143 130 224q86 66 186 65q98 0 133 -53
q-51 -18 -88 -41q-90 -55 -100 -131q-12 -90 61 -133q55 -31 129 -27q76 4 150 53q84 55 100 135q-68 -63 -135 -63q-109 0 -92 107q12 76 116 137q-10 -16 -26 -70q-6 -49 45 -49q59 0 69 74q6 41 -47 89t-125 48q-92 0 -184 -43q-20 33 -47 59q-61 66 -133 92
q147 215 147 396q0 29 -4 55q158 -80 340 -80q127 0 170 33q25 18 33 72q6 43 -47 94q201 -20 200 -185q0 -16 -2 -34z" />
    <glyph glyph-name="six" unicode="6" horiz-adv-x="1132" 
d="M578 -35q-205 0 -318 141q-104 129 -104 336q0 53 8 111q33 233 196 442q199 250 459 250q158 0 234 -74q66 -63 53 -153q-10 -84 -68.5 -142.5t-138.5 -58.5q-137 0 -158 160q12 -45 70 -45q43 0 55 72q4 27 -16.5 46t-67.5 17q-86 -4 -180 -119q-104 -129 -131 -307
q96 133 311 133q156 0 248 -98q84 -92 84 -230q0 -209 -166 -348q-157 -133 -370 -133zM825 418q4 72 -30.5 113.5t-85.5 41.5q-102 0 -115 -90q-6 -43 20.5 -69.5t85.5 -18.5q-74 -82 -168 -82q-39 0 -57 17q35 -129 146 -129q94 0 151 73q47 62 53 144z" />
    <glyph glyph-name="seven" unicode="7" horiz-adv-x="1036" 
d="M1180 1167q-12 -90 -160 -252l-262 -286q-139 -168 -140 -271q0 -96 99 -96q45 0 79.5 44t32.5 110q35 -74 35 -150q0 -18 -2 -35q-12 -90 -92 -172q-98 -104 -242 -104q-133 0 -198 76q-55 61 -56 162q0 172 185 382q154 156 309 314q-80 -20 -164 -8q-41 6 -89 35.5
t-87 29.5q-100 0 -119 -72q-8 -33 29 -90q-123 68 -123 197q0 25 6 53q23 104 117 164q80 49 170 49q66 0 199 -51t229 -49q143 2 235 100q15 -37 9 -80z" />
    <glyph glyph-name="eight" unicode="8" horiz-adv-x="1132" 
d="M1251 1133q-14 -104 -145 -222q-76 -70 -275 -202q131 -78 189 -138q84 -90 84 -204q0 -23 -2 -45q-29 -215 -238 -316q-143 -70 -319 -69q-145 0 -256 61q-147 80 -148 244q0 25 4 51q27 205 336 397q-147 109 -147 240q0 23 4 47q25 154 168 235q111 63 237 64
q100 0 177 -62q80 -68 67 -155q-6 -53 -29 -88q131 98 142 170q8 66 -43 65q-33 0 -76 -28q80 90 158 90q57 0 87.5 -42t24.5 -93zM809 1020q8 66 -90 65q-41 0 -84 -32.5t-51 -89.5q-12 -82 92 -160q41 23 121 67h-4q-104 0 -111 109q23 -31 57 -31q60 0 70 72zM813 324
q2 16 2 30q0 115 -170 228q-193 -139 -205 -234q-18 -127 127 -127q51 0 60 43q6 35 -25 35q-20 0 -65 -27q59 100 125 101q86 0 86 -80q0 -41 -27 -74q23 10 41 23q43 33 51 82z" />
    <glyph glyph-name="nine" unicode="9" horiz-adv-x="1132" 
d="M1169 649q-33 -238 -200 -448q-201 -254 -469 -256q-158 -2 -236 73q-66 66 -53 158q12 84 70.5 143.5t138.5 59.5q139 0 145 -133q-31 43 -71 43q-47 0 -56 -70q-4 -31 15 -47q20 -23 71 -20q88 2 185 106q113 123 137 303q-102 -139 -309 -139q-158 0 -250 100
q-84 92 -84 236q0 213 166 356q160 137 379 137q207 0 323 -145q106 -133 107 -346q-1 -54 -9 -111zM840 874q-39 119 -138 119q-166 0 -194 -205q-8 -63 27.5 -104t85.5 -41q98 0 108 84q6 41 -20.5 66.5t-83.5 17.5q72 78 161 78q29 -1 54 -15z" />
    <glyph glyph-name="colon" unicode=":" horiz-adv-x="765" 
d="M653 641q-10 -57 -61 -104q-61 -55 -150 -56q-125 0 -108 109q8 55 77.5 107.5t147.5 52.5q47 0 73.5 -35t20.5 -74zM567 84q-10 -57 -61 -104q-61 -55 -150 -56q-125 0 -108 109q8 55 77.5 107.5t147.5 52.5q47 0 73.5 -35t20.5 -74z" />
    <glyph glyph-name="semicolon" unicode=";" horiz-adv-x="765" 
d="M653 641q-10 -57 -61 -104q-61 -55 -150 -56q-125 0 -108 109q8 55 77.5 107.5t147.5 52.5q47 0 73.5 -35t20.5 -74zM567 84q-16 -137 -106 -252q-96 -123 -244 -166l-14 25q45 35 78 71q80 86 94 164q-70 -10 -105 29q-29 31 -22 78q8 55 77.5 107.5t147.5 52.5
q47 0 72.5 -35t21.5 -74z" />
    <glyph glyph-name="less" unicode="&#x3c;" horiz-adv-x="1075" 
d="M1018 834l-701 -279l621 -289l-61 -106l-742 348l15 96l837 336z" />
    <glyph glyph-name="equal" unicode="=" horiz-adv-x="956" 
d="M893 725l-27 -123h-710l24 123h713zM848 489l-25 -122h-712l24 122h713z" />
    <glyph glyph-name="greater" unicode="&#x3e;" horiz-adv-x="1075" 
d="M1026 596l-14 -96l-838 -336l-31 106l701 279l-621 289l62 106z" />
    <glyph glyph-name="question" unicode="?" horiz-adv-x="1083" 
d="M1104 1038q-18 -121 -141 -245q-35 -39 -226 -195q-123 -102 -137 -162q-14 -55 51 -55q31 0 58.5 37t27.5 80q39 -63 39 -136q0 -70 -57 -129t-141 -59q-170 0 -170 141q0 109 100 238q98 109 194 217q111 129 123 225q2 23 2 43q0 80 -39.5 119t-97.5 39
q-53 0 -103 -35t-57 -82q-6 -45 21 -67q20 -18 57 -19q59 2 90 72q35 -49 25 -117q-10 -72 -59 -121q-66 -66 -185 -65q-102 0 -161.5 65.5t-59.5 167.5q0 172 164 293q150 111 328 111q176 0 270 -86q88 -80 88 -215q0 -29 -4 -60zM711 27q-8 -59 -70 -113
q-68 -57 -152 -57q-63 0 -94 37q-27 31 -20 75q8 59 81.5 114.5t155.5 55.5q49 0 77 -36.5t22 -75.5z" />
    <glyph glyph-name="at" unicode="@" horiz-adv-x="1333" 
d="M1352 793q-14 -170 -125 -281q-113 -117 -277 -117q-53 0 -99 31t-52 80q-39 -49 -121 -80q-74 -29 -139 -29q-145 0 -129 183q8 98 84 194q96 125 254 150q27 4 55 4q137 0 174 -62q-45 -96 -51 -254q-4 -115 63 -114q96 0 180 87t95 214q12 147 -101 270
q-127 141 -338 141q-258 0 -456.5 -195.5t-198.5 -453.5q0 -205 138 -342t347 -137q287 0 494 190l59 -63q-227 -215 -553 -215q-248 0 -410.5 161.5t-162.5 403.5q0 47 6 94q39 268 255 457.5t482 189.5q256 0 410 -174q133 -153 117 -333zM788 745q2 29 -4 44.5t-32 13.5
q-57 -2 -111 -78q-45 -66 -47 -113q-2 -59 41 -59q51 0 102 74q47 65 51 118z" />
    <glyph glyph-name="A" unicode="A" horiz-adv-x="1378" 
d="M1772 -322q-14 -111 -99 -172q-76 -55 -176 -55q-217 0 -369.5 268.5t-193.5 708.5q-125 -51 -217 -139t-105 -178q-10 -78 56 -78q45 0 51 33q4 18 -25 61q-4 6 0 12q2 4 11 2q29 -10 53 -37q29 -35 24 -71q-14 -113 -166 -113q-80 0 -172 53.5t-151 53.5q-57 0 -98 -25
t-43 -47q-4 -43 30 -43q27 0 60 22q8 4 12 0q6 -2 0 -10q-12 -18 -27 -30q-33 -33 -69 -39q-47 -8 -90 14q-55 27 -48 86q10 84 177 192q195 125 237 191q27 39 80 133q-43 -16 -106 -10q-125 10 -193 100q-57 80 -57 205q0 35 4 72q20 150 137 270q137 143 332 141
q100 0 219 -8q113 -8 149 -8q131 0 142 70q6 41 -31 40q-29 0 -76 -24q-6 -4 -10 0q-6 6 0 12q20 23 41 41q51 41 98 47q51 6 86 -20q41 -33 31 -99q-8 -57 -76.5 -133.5t-73.5 -101.5q-27 -193 -14 -397q86 20 160 20q98 0 156.5 -53t58.5 -141t-71.5 -160t-164.5 -88
q20 33 27 82q8 57 -37 96t-108 43q45 -313 153 -520q113 -217 250 -217q88 0 100 90q8 53 -81 78q215 8 215 -181q0 -19 -2 -39zM743 1004q8 51 -59 86q-55 29 -121 28q-82 0 -145 -47q-80 -61 -92 -176q-8 -68 30.5 -115t96.5 -47q59 0 98 36t39 93q0 84 -101 78
q68 47 132 43q61 -4 92 -57q24 41 30 78zM924 899q-78 -154 -242 -528q86 129 240 221q-4 123 2 307z" />
    <glyph glyph-name="B" unicode="B" horiz-adv-x="1568" 
d="M1550 313q6 -158 -135 -286.5t-336 -128.5q-80 0 -147 28q-84 35 -103 99q-100 2 -232 -54.5t-208 -54.5q-147 2 -131 131q8 57 54 103.5t104 54.5q-16 -8 -29 -21q-29 -29 -33 -67q-4 -41 43 -41q63 0 133 110q82 129 125 353q-106 -156 -280 -142q-125 10 -193 101
q-57 80 -57 202q0 35 4 72q20 150 133 268q135 143 326 144q37 0 78 -6q-25 45 -19 92q6 53 53 84q39 23 84 24q51 2 82 -47q-27 0 -45 -6q-45 -16 -51 -61q-10 -82 107 -82q25 0 171 41t216 47q127 10 205.5 -43t74.5 -158q-4 -111 -99 -216t-235 -148q92 -61 187 -123
q147 -117 153 -269zM1270 983q6 45 -19.5 74.5t-76.5 25.5q-176 -12 -226 -217q57 53 148 54q-18 -10 -31 -23q-33 -29 -37 -53q-8 -53 47 -53q76 0 130.5 58t64.5 134zM1296 354q0 76 -82 133q-4 4 -163 93q-100 55 -129 112q-39 -297 -29 -411q72 72 156 71
q-49 -41 -56 -86q-4 -31 25 -56.5t61 -25.5q84 0 144 39q73 45 73 131zM680 862q-12 193 -150 193q-82 0 -145 -49q-80 -59 -92 -177q-8 -66 30.5 -112.5t96.5 -46.5q59 0 98 34.5t39 94.5q0 84 -100 78q70 45 133 43q59 -3 90 -58z" />
    <glyph glyph-name="C" unicode="C" horiz-adv-x="1511" 
d="M1565 1126q-8 -117 -105.5 -194.5t-238.5 -77.5q-147 0 -322 61q-119 -143 -151 -362q-6 -37 -7 -72q0 -119 66 -184q59 -61 156 -61q201 0 219 145q8 63 -20.5 96t-69.5 33q-39 0 -76 -29q-45 -33 -45 -86q0 -16 6 -35q-70 70 -57 152q10 76 90 141q94 78 221 78
q123 0 200.5 -69.5t77.5 -194.5q0 -49 -12 -105q-45 -184 -229 -305q-133 -86 -310 -123q-182 -39 -198 -155q-12 -86 78 -129q-254 -10 -254 135q0 18 4 37q16 78 74 119q27 18 96 45q-254 121 -254 424q0 49 8 102l10 51q-92 -82 -209 -71q-100 8 -160.5 80.5t-60.5 187.5
q0 27 4 55q20 154 154 250q123 88 276 88q123 0 318 -76q262 254 504 254q98 0 157 -47q66 -54 60 -158zM1305 1073q8 68 -82 68q-23 0 -80 -25q-80 -33 -150 -92q92 -35 174 -35q128 0 138 84zM745 963q-102 25 -170 24q-106 0 -169 -51q-55 -45 -64 -109
q-8 -53 19.5 -84.5t76.5 -31.5q78 0 88 75q4 37 -34 99q27 -10 49 -25q49 -37 61 -92q49 84 143 195z" />
    <glyph glyph-name="D" unicode="D" horiz-adv-x="1591" 
d="M1622 375q-31 -195 -197 -318q-147 -111 -335 -118q-80 -4 -185 18q-113 23 -153 23q-133 0 -148 -105q-8 -66 86 -100q-43 -29 -88 -27q-51 2 -90 41t-31 92q4 35 17 70q-31 -37 -103 -37q-49 0 -90 43t-41 119q0 90 53.5 164.5t141.5 74.5q27 0 53 -8q-25 -12 -45 -26
q-45 -37 -51 -80q-6 -39 15.5 -57.5t62.5 -14.5q145 10 204 440q6 39 9 70q-78 -182 -295 -182q-127 0 -195 96q-59 82 -59 211q0 57 12 115q29 131 139 235q129 121 299 121q133 0 176 -66q-23 43 -22 101q0 20 4 43q10 70 70 112q49 35 108 35q94 0 105 -133
q-27 51 -72 51q-49 0 -57 -59q-10 -80 172 -174q264 -135 350 -211q190 -170 190 -428q0 -61 -10 -131zM1339 475q12 209 -133 356q-68 66 -217 146q-31 -104 -86 -467q43 90 135 90q66 0 97 -59q23 -45 16 -95q-6 -41 -29 -84q-6 127 -75 127q-94 0 -109 -139
q-8 -80 39 -123q39 -37 98 -37q84 0 152 48q102 71 112 237zM723 911q-12 199 -143 203q-106 2 -169 -75.5t-63 -184.5q0 -139 109 -139q104 0 123 127q14 94 -52 94q-29 0 -63 -25q49 86 135 86q82 0 123 -86z" />
    <glyph glyph-name="E" unicode="E" horiz-adv-x="1468" 
d="M1192 -45q-39 -238 -229 -238q-139 0 -125 131q8 -14 18 -26q23 -27 55 -29q53 -4 66 74q8 47 -35 86q-55 47 -166 47q-88 0 -223 -41t-191 -41q-131 0 -131 139q0 23 7 45q14 61 62 113.5t106 52.5q27 0 51 -14q-23 -2 -39 -12q-39 -23 -47 -76t45 -53q70 0 110 147
q14 53 62 328q-80 -139 -242 -127q-119 10 -180 98q-57 80 -57 203q0 37 6 76q20 143 135 266q133 143 303 143q37 0 76 -8q270 -53 465 -45q102 4 116 94q10 72 -65 72q-37 0 -101 -45q68 109 197 108q168 0 168 -202q0 -121 -79 -200t-202 -79q-94 0 -233 41
q-12 -72 -53 -307q94 135 225 135q94 0 94 -92q0 -14 -2 -29q-8 -55 -69 -119q-76 -78 -175 -90q27 14 46 31q45 39 51 78q4 31 -56 31q-31 0 -71 -74q-47 -84 -64 -199q-2 -20 -2 -39q0 -152 195 -151q205 0 219 153q4 37 -14.5 51.5t-51.5 12.5q-55 -4 -123 -109
q72 309 273 303q170 -4 170 -213q0 -137 -80 -252q-86 -118 -215 -149zM637 926q-10 193 -139 192q-78 0 -140 -47q-76 -61 -88 -176q-8 -68 29 -115t90 -47q57 0 94 37t37 94q0 82 -94 76q66 47 127 43q59 -4 84 -57z" />
    <glyph glyph-name="F" unicode="F" horiz-adv-x="1425" 
d="M1276 936q-123 0 -246 43q-23 -76 -67 -334q37 53 75 92q92 92 176 97q92 6 136 -56q33 -51 24 -116q-12 -84 -74 -148q-90 -88 -256 -88q35 12 62 27q63 39 72 94q12 74 -78 74q-43 0 -92 -52q-63 -70 -82 -194q-2 -20 -2 -41q0 -98 107.5 -196.5t107.5 -184.5
q0 -18 -2 -39q-18 -127 -164 -127q-45 0 -74 24.5t-22 71.5q8 61 53 78q-12 -25 -12 -47q0 -47 61 -47q39 0 45 37q6 43 -32 74.5t-109 29.5q-59 -2 -205 -42t-205 -40q-84 0 -128 44t-36 112q10 82 148 123q-12 -8 -23 -19q-25 -25 -31 -59q-4 -27 7.5 -46.5t38.5 -19.5
q84 2 139 99q72 125 114 428q-80 -141 -253 -127q-125 10 -193 100q-59 80 -59 205q0 35 6 72q20 152 125 266q125 139 315 139q31 0 66 -4q-6 14 2 61q14 92 151 127q-14 -23 -37 -92q-6 -53 52 -100q80 -66 247 -64q233 2 252 132q4 27 -25.5 54t-76.5 27q-29 0 -62 -12
q121 49 191 49q72 0 133 -39q80 -49 80 -143q0 -121 -108.5 -212t-231.5 -91zM754 926q-12 193 -150 192q-82 0 -145 -47q-80 -61 -92 -176q-8 -68 30.5 -115t96.5 -47q59 0 98 36t39 93q0 84 -101 78q68 47 132 43q61 -4 92 -57z" />
    <glyph glyph-name="G" unicode="G" horiz-adv-x="1601" 
d="M1581 743q-129 -172 -207 -491q43 53 94 53t82 -41q25 -37 25 -86q-2 -98 -96 -172q23 23 22 72q0 51 -47 51q-82 0 -121 -121q-23 -104 -45 -211q-119 -530 -467 -530q-162 0 -264 82q-111 86 -115 235q-4 147 86 240q84 86 217 86q162 0 213 -205q-53 68 -120 68
q-96 0 -95 -111q0 -49 38 -82t96 -33q80 0 174 107q119 133 125 334q-86 -53 -230 -54q-209 0 -338 136q-145 154 -139 442q0 12 4 51q-86 -82 -201 -71q-113 10 -185.5 100t-70.5 223q2 154 123 250q111 88 264 88q125 0 328 -76q231 254 473 254q98 0 166 -47
q78 -55 84 -158q6 -115 -85 -193.5t-234 -78.5q-147 0 -328 61q-102 -143 -109 -362q-4 -152 72 -238q70 -80 180 -79q125 0 209 79q76 70 78 158q-41 12 -84 25.5t-90 13.5q-39 0 -70 -20q-37 -25 -39 -68q-2 -45 19 -78q-96 72 -94 174q2 86 70.5 149.5t170.5 63.5
q49 0 140.5 -27.5t119.5 -27.5q129 -1 201 65zM1194 1073q2 68 -92 68q-25 0 -76 -25q-76 -33 -139 -92q96 -35 180 -35q125 0 127 84zM647 963q-109 25 -174 24q-104 0 -162 -51q-49 -45 -51 -109q-2 -53 30 -84.5t81 -31.5q76 0 78 75q2 39 -46 99q29 -10 52 -25
q53 -37 71 -92q39 84 121 195z" />
    <glyph glyph-name="H" unicode="H" horiz-adv-x="1363" 
d="M1602 1425q-94 -131 -162 -292q-166 -389 -176 -877q-8 -389 137 -389q84 0 94 74q6 41 -45 98q127 -39 127 -178q0 -20 -4 -43q-14 -100 -100 -150q-66 -37 -138 -35q-147 6 -231 166q-66 -156 -182 -155q-72 0 -103 43q-27 35 -20 82q6 51 53 104q-12 -117 53 -117
q29 0 41 51q4 12 19 117q8 51 8 133q0 395 -185 539q-25 -168 -24 -281q0 -53 35 -133t35 -121q0 -61 -38 -106t-98 -45q-49 0 -61 59q37 -23 57 -22q33 0 41 35q2 18 -20.5 36.5t-65.5 18.5q-27 0 -148.5 -43t-183.5 -43q-152 0 -141 131q8 100 162 135q-18 -8 -33 -18
q-33 -23 -37 -47q-4 -27 10.5 -39.5t40.5 -10.5q121 4 187 289q-61 -82 -176 -82q-74 0 -125 41q-63 47 -64 142q0 18 2 40q18 133 168 211q131 68 256 56q10 94 13 162q-80 -53 -148 -54q-59 0 -104 33q-57 43 -58 119q0 14 2 31q14 88 80 133q47 33 97 32q41 0 63 -38
q-33 16 -61 16q-63 0 -74 -80q-10 -76 92 -80q172 -6 496 287q-27 -80 -52 -168q-61 -215 -100 -440q133 -68 207 -193q14 82 39 240q12 90 12 151q0 127 -51 121q-41 -4 -47 -41q-4 -23 22 -47q-68 29 -55 113q8 63 64.5 108t115.5 49q84 6 129 -65q37 66 86 115
q115 116 267 122zM555 666q-72 0 -127 -27q-66 -31 -72 -82q-10 -78 58 -78q18 0 35.5 17.5t19.5 38.5q6 39 -20 63q70 0 88 -55q8 43 18 123z" />
    <glyph glyph-name="I" unicode="I" horiz-adv-x="1122" 
d="M1231 1278q-10 -76 -133 -199q-98 -98 -162 -544q-25 -170 -25 -285q0 -221 90 -217q41 2 48 33q4 18 -25 61q-4 6 0 12q2 4 10 2q29 -10 53 -37q29 -35 25 -71q-14 -113 -166 -113q-80 0 -155.5 53.5t-135.5 53.5q-59 0 -100 -25t-43 -47q-6 -43 31 -43q27 0 61 22
q6 4 12 0q4 -2 0 -10q-12 -18 -26 -30q-33 -33 -72 -39q-47 -8 -90 14q-53 27 -45 86q6 49 86 121q94 88 127 151q72 137 94 348q-37 -57 -104 -96q-84 -47 -178 -39q-127 10 -195 101q-57 78 -57 202q0 35 4 72q20 152 137 272q137 141 332 140q100 -2 196 -8q88 -8 125 -9
q131 0 142 70q6 41 -31 41q-31 0 -76 -23q-6 -6 -10 0q-6 6 0 13q20 23 41 41q51 41 96 47q51 6 89 -24.5t30 -96.5zM711 905q-10 193 -148 193q-82 0 -147 -47q-80 -61 -92 -179q-6 -68 31.5 -113.5t95.5 -45.5q59 0 98 34.5t39 94.5q0 84 -99 78q68 45 132 43
q55 -3 90 -58z" />
    <glyph glyph-name="J" unicode="J" horiz-adv-x="1159" 
d="M1417 1155q-12 -84 -117 -127q-123 -49 -147.5 -89t-54.5 -159q-35 -150 -35 -282q0 -221 102 -334q-119 -27 -207 -68q-209 -98 -227 -252q-2 -20 -2 -37q0 -49 25 -61q10 -6 57 -6q41 0 92 45q-82 -197 -252 -197q-121 0 -121 133q0 47 66 150q-25 -27 -57 -45
q-78 -43 -185 -45q-135 -2 -209 78q-68 74 -67 194q0 143 100 271q109 137 248 137q174 0 188 -195q-39 70 -94 70q-47 0 -89 -43t-50 -94q-14 -102 96 -103q158 0 268 236q76 162 105 366q-90 -133 -287 -133q-98 0 -174 68q-92 82 -92 231q0 35 6 72q27 184 184 291
q135 90 285 86q92 -2 237.5 -67.5t190.5 -65.5q94 0 105 63q6 45 -52 70q166 0 166 -129q0 -13 -2 -29zM866 965q-2 215 -157 215q-115 0 -195 -76t-80 -186q0 -125 131 -125q121 0 137 106q8 59 -71 119q43 10 86 10q106 0 149 -63z" />
    <glyph glyph-name="K" unicode="K" horiz-adv-x="1490" 
d="M813 1317zM707 803q-35 94 -129 94q-100 0 -166 -100q41 43 73 43q80 0 68 -84q-6 -49 -45 -81t-92 -32q-137 0 -137 154q0 20 4 43q12 94 90 161.5t159 67.5q169 0 175 -266zM1882 -352q2 23 2 43q0 201 -231 192q104 -29 96 -82q-14 -100 -117 -100q-172 0 -272 209
q-82 174 -82 385q0 78 16 143q150 82 150 207q0 41 -17 72q-45 -115 -147 -115q-92 0 -127 86q197 104 260 154q184 139 207 299q4 23 4 43q0 90 -54 143t-143 53q-96 0 -159.5 -51t-71.5 -125q-4 -41 4 -90q49 119 100 119q70 0 70 -70q0 -16 -4 -37q-31 -174 -422 -348
q14 109 71.5 219.5t69.5 190.5q4 25 5 45q0 152 -152 151q-57 0 -119 -61q47 27 68 27q61 0 55 -88q-4 -51 -44 -82t-85 -31q-29 0 -102 14q-82 14 -121 19q-141 12 -281 -82q-164 -113 -207 -314q-12 -55 -12 -104q0 -139 86 -219q80 -74 203 -74q102 0 190 57
q82 51 121 129v-14q-31 -240 -123 -373q-68 -96 -123 -96q-59 0 -55 51q10 51 78 97q-72 -2 -132.5 -57.5t-68.5 -116.5q-8 -66 31 -107q41 -47 123 -47q57 0 171 52t175 52q100 0 92 -67q-8 -63 -102 -55q25 -37 67 -37q115 0 127 104q8 70 -37 172q-51 111 -51 178
q0 61 45 279q72 -61 123 -256q47 -176 47 -340q0 -49 -6 -86q-25 -172 -186 -154q57 -74 114 -73q63 0 121 79q53 -160 174 -256q127 -102 293 -102q111 0 191 59q90 66 104 187z" />
    <glyph glyph-name="L" unicode="L" horiz-adv-x="1538" 
d="M1550 383q-29 -147 -151 -279q-98 -104 -191 -143q94 -61 80 -160q-12 -80 -79.5 -130t-147.5 -44q-135 10 -135 121q45 -51 100 -47q90 6 100 92q6 55 -34 96q-53 53 -172 52q-178 -4 -334 -25q-147 -18 -224 -18q-182 0 -182 143q0 20 4 43q10 59 71.5 106.5
t119.5 47.5q-27 -14 -47 -33q-47 -45 -54 -103q-4 -29 18.5 -44t59.5 -13q66 2 142.5 78t99.5 160q16 57 61 335q-94 -127 -247 -114q-121 10 -187 100q-57 80 -57 203q0 197 126 340t322 143q109 0 205 -37q104 -41 156 -45q63 -4 107 16.5t48 51.5q8 61 -47 61
q-47 0 -104 -67q70 156 160 155q115 0 114 -112q0 -18 -4 -39q-14 -80 -82 -158q-61 -61 -121 -123q-82 -94 -122 -375q-33 -233 -33 -309q0 -172 90 -174q109 -2 184 101q61 86 74 188q6 55 -18 88q-23 27 -56 27q-29 0 -56.5 -22.5t-33.5 -45.5q-8 -37 6 -98
q-63 33 -63 133q0 18 2 39q14 111 106 174q80 53 183 53q94 0 166 -63q88 -80 88 -224q-1 -49 -11 -102zM700 969q-10 193 -141 192q-80 0 -141 -49q-76 -59 -88 -176q-6 -68 29.5 -114t91.5 -46q59 0 95 36t36 93q0 84 -95 78q66 47 127 43q57 -4 86 -57z" />
    <glyph glyph-name="M" unicode="M" horiz-adv-x="1824" 
d="M2118 -133q-23 -135 -125 -213q-92 -70 -211 -70q-209 0 -309 271q-51 -100 -138 -101q-170 0 -159 185q14 -53 84 -54q55 0 105 86t67 211q8 55 8 144q0 152 -21 356q-66 -115 -114 -205q-119 -217 -136 -282q-8 -29 -8 -52q0 -80 82 -80q16 0 31 5q-68 -61 -139 -62
q-70 0 -121 76q-63 92 -80 272q-18 223 -41 357q-111 -412 -111 -435q0 -63 21 -159q16 -82 12 -113q-8 -61 -62.5 -103t-131.5 -42q-59 0 -70 71q27 -35 74 -34q59 0 71 84q14 88 -116 88q-39 0 -141.5 -37t-157.5 -37q-174 0 -154 143q14 100 147 101q-27 -8 -47 -19
q-47 -27 -49 -65q-4 -61 78 -62q61 0 147 111q92 121 144 295q-88 -63 -197 -54q-127 10 -192 101q-59 78 -60 200q0 37 6 74q23 158 138 275q135 139 338 139q66 0 180 -19.5t147 -19.5q55 0 110.5 24.5t59.5 57.5q10 76 -47 76q-31 0 -57 -27q53 45 96 45q76 0 76 -108
q0 -25 -4 -58q-31 -207 -31 -360q0 -154 29 -252q55 88 98 168q102 190 119 315q4 31 4 58q0 98 -51 98q-59 0 -68 -57q-6 -39 10 -52q-39 10 -30 62q20 139 178 139q76 0 128 -17.5t81 -17.5q55 0 97 34t48 79q8 55 -53 67q96 -2 82 -102q-6 -43 -49 -199.5t-60 -279.5
q-20 -154 -20 -334q0 -623 262 -623q82 0 112.5 23.5t38.5 75.5q8 57 -24 88q82 -41 82 -174q0 -35 -6 -76zM702 940q2 20 3 37q0 119 -179 119q-94 0 -161 -45q-86 -59 -99 -174q-8 -66 31 -113t96 -47q61 0 100 34.5t39 92.5q0 84 -100 78q70 47 131 43q98 -6 117 -103
q10 25 22 78z" />
    <glyph glyph-name="N" unicode="N" horiz-adv-x="1521" 
d="M1630 1415q-143 -195 -278 -1159q-18 -129 -19 -227q0 -270 129 -271q49 0 101 29q-43 -80 -164 -80q-180 0 -266 152q-63 -68 -144 -68q-63 0 -100 57q20 -6 41 -6q51 0 86 45q29 41 37 97q6 47 -31 153q-12 31 -84 209q-55 135 -182 316q-16 -55 -49 -232
q-6 -41 -7 -90q0 -98 23 -168q27 -82 76 -82q51 0 51 47q0 33 -21 74q86 -45 74 -121q-8 -61 -53 -98t-111 -37q-49 0 -136 38t-107 38q-92 0 -101 -58q-6 -51 49 -51q23 0 45 6q-66 -70 -118 -69q-117 0 -107 104q4 41 82 182q92 170 146 349q-76 -86 -173 -88
q-100 -2 -172 43q-106 68 -106 227q0 35 6 74q33 244 252 364q137 76 252 76q51 0 96 -6q16 66 94 108q72 39 133 33q66 -6 80 -47q-27 12 -53 12q-27 0 -53 -24q-31 -31 -39 -84q-14 -109 123 -353q47 -84 188 -276q12 76 37 246q8 59 8 116q0 221 -106 222q-61 0 -62 -70
q0 -37 17 -84q-86 102 -78 170q18 156 188 156q119 0 154 -133q100 176 352 239zM541 797q4 49 4 86q0 154 -88 153q-92 0 -161 -79.5t-69 -174.5q0 -133 121 -133q43 0 79 33t42 68q10 63 -55 63q-41 0 -78 -39q43 74 110 74q70 0 95 -51z" />
    <glyph glyph-name="O" unicode="O" horiz-adv-x="1656" 
d="M1634 457q-41 -274 -243 -432q-174 -137 -379 -138q-170 0 -293 111q-145 131 -166 373q-100 -84 -225 -84q-113 0 -186.5 82t-73.5 217q0 43 8 90q31 178 209 307t391 129q70 0 143 -18q111 96 254 151q113 45 193 47q141 4 241 -53q121 -72 121 -213q0 -31 -6 -63
q-12 -70 -68 -138q86 -84 86 -280q0 -45 -6 -88zM1350 1016q8 43 -21 70.5t-86 25.5q-104 -4 -225 -119q117 -82 190 -84q124 -2 142 107zM1358 524q0 131 -92 131q-31 0 -58.5 -23.5t-33.5 -51.5q-6 -29 8 -70q-74 25 -74 100q0 41 22 92q-53 20 -109 68.5t-110 95.5
q-66 -115 -82 -219q-10 -63 -10 -119q0 -168 92 -254q70 -63 158 -63q117 0 205 100q84 94 84 213zM715 977q-45 8 -56 8q-145 0 -256 -67q-121 -74 -145 -197q-4 -23 -4 -41q0 -96 96 -96q49 0 92 33.5t52 82.5q10 70 -45 93q-23 10 -58 8q66 39 144 39q39 0 81 -37
q33 92 99 174z" />
    <glyph glyph-name="P" unicode="P" horiz-adv-x="1495" 
d="M1595 1081q14 -55 15 -118q0 -219 -144 -394q-156 -188 -374 -176q-106 6 -170 92q-20 -150 -21 -247q0 -209 100 -205q41 2 48 33q4 18 -25 61q-4 6 0 12q2 4 10 2q29 -10 53 -37q29 -35 25 -71q-14 -113 -166 -113q-80 0 -155.5 53.5t-135.5 53.5q-59 0 -100 -25
t-43 -47q-6 -43 31 -43q27 0 61 22q6 4 12 0q4 -2 0 -10q-12 -18 -26 -30q-33 -33 -72 -39q-47 -8 -90 14q-53 27 -45 86q6 49 88 121q98 86 132 153.5t81 309.5q-106 -156 -281 -142q-125 10 -192 101q-57 80 -57 202q0 35 4 72q20 152 137 279q135 152 326 151q37 0 75 -6
q-25 45 -18 94q6 53 53 84q37 23 82 25q53 2 86 -47q-27 0 -45 -6q-49 -16 -55 -64q-8 -49 24 -59q10 -4 70 -4q14 0 155.5 33.5t223.5 37.5q117 6 206.5 -50.5t116.5 -158.5zM1346 1012q-12 115 -111 114q-215 0 -277 -352l3 2q2 6 2 2q66 70 145 70q-49 -45 -55 -86
q-4 -35 13 -60.5t48 -25.5q84 0 164 113.5t68 222.5zM709 862q-12 193 -150 193q-82 0 -145 -49q-80 -59 -92 -177q-8 -66 30.5 -112.5t96.5 -46.5q59 0 98 34.5t39 94.5q0 84 -101 78q70 45 133 43q60 -3 91 -58z" />
    <glyph glyph-name="Q" unicode="Q" horiz-adv-x="1712" 
d="M1808 -57q-27 -184 -186 -258q-109 -51 -231 -41q-111 10 -205 88q-72 72 -144 143q-80 74 -163 74q-123 0 -138 -103q-6 -45 43 -94q-133 51 -118 166q8 61 64 117.5t136 66.5q-76 16 -145 95q-76 84 -94 188q-98 -98 -244 -98q-113 0 -187.5 82t-74.5 219q0 43 8 88
q31 178 210 307t392 129q70 0 143 -18q109 94 252 149q111 43 195 49q156 12 268 -53q131 -76 131 -225q0 -84 -39 -148q51 -117 43 -217q-20 -258 -204 -428q-133 -123 -285 -155q127 -139 260 -140q131 0 154 135q4 18 4 35q0 88 -72 140q231 -25 231 -238q0 -26 -4 -55z
M1405 1016q8 43 -20.5 70.5t-86.5 25.5q-102 -4 -227 -119q63 -43 92 -57q53 -25 101 -27q121 -2 141 107zM1481 643q2 18 -2 66q-80 -29 -181 -29q-106 0 -213 78q-74 66 -147 131q-88 -131 -88 -293q0 -121 75.5 -191.5t188.5 -70.5q152 0 258 100q93 88 109 209zM770 977
q-29 8 -55 8q-145 0 -256 -67q-121 -74 -146 -197q-4 -23 -4 -41q0 -96 97 -96q49 0 92 33.5t51 82.5q10 70 -45 93q-23 10 -58 8q66 39 144 39q39 0 82 -37q35 82 98 174z" />
    <glyph glyph-name="R" unicode="R" horiz-adv-x="1505" 
d="M1808 -322q-14 -111 -98 -172q-74 -55 -176 -55q-152 0 -277 152q-117 141 -163 354q-43 -80 -113 -74q-74 6 -107 70q147 -14 170 141q4 35 5 72q0 111 -42 210t-112 152q-23 -84 -23 -168q0 -176 107 -237q-96 8 -242 -47q-72 -29 -184 -103q-84 -57 -137 -57
q-152 0 -133 131q8 57 54 103.5t105 54.5q-16 -8 -28 -21q-31 -29 -35 -67q-6 -41 43 -41q61 0 125 110q74 127 119 353q-106 -156 -279 -142q-127 10 -192 101q-57 80 -58 204q0 35 4 70q20 150 133 268q133 143 324 144q37 0 78 -6q-25 45 -19 92q6 53 56 84q37 23 82 24
q53 2 84 -47q-27 0 -45 -6q-47 -16 -54 -61q-10 -82 107 -82q27 0 179.5 41t221.5 47q129 10 212 -47.5t73 -167.5q-12 -141 -131 -269q-125 -135 -305 -180q104 -96 184 -90q-39 -90 -47 -254q-10 -178 59 -338q86 -195 244 -194q98 0 98 92q0 55 -82 76q217 8 217 -181
q0 -19 -2 -39zM1292 1008q6 78 -69 77q-12 0 -25 -2q-133 -20 -199 -114q-51 -76 -73 -226q94 -2 145 43q-57 10 -53 68q4 57 55 90q45 29 107 29q-27 -18 -58 -66q-8 -53 37 -53q37 0 78 37q49 47 55 117zM690 862q-12 193 -149 193q-82 0 -146 -49q-80 -59 -92 -177
q-8 -66 31 -112.5t96 -46.5q61 0 100 33.5t39 93.5q0 86 -100 80q68 45 131 43q59 -3 90 -58z" />
    <glyph glyph-name="S" unicode="S" horiz-adv-x="1298" 
d="M1399 1290q8 -66 -40 -103.5t-106 -33.5q2 -55 -47 -117q-68 -86 -200 -86q-78 0 -146 39q31 -51 162 -158q141 -117 201 -196q98 -129 98 -279q0 -31 -4 -63q-23 -172 -148 -285q-45 -39 -225 -143q-121 -72 -131 -141q-6 -41 41 -41q35 0 102 69q-84 -160 -233 -160
q-129 0 -113 91q12 72 148 147q-57 -4 -103 -4q-104 0 -219 68q-164 96 -164 276q0 27 4 55q14 102 102.5 207t98.5 182q10 76 -47 76q-53 0 -80 -53q-20 -41 -20 -96q-29 57 -23 104q10 61 55 107q57 51 146 51q74 0 111.5 -43t29.5 -98q-8 -68 -39 -78q82 35 166 34
q78 0 137 -49q68 -57 68 -151q0 -18 -2 -37q-25 -176 -205 -182q-47 -2 -82 25.5t-43 72.5q51 -16 84 -16q72 0 84 88q10 78 -86 86q-55 4 -110 -37q-70 -51 -76 -148q-6 -92 65 -133q59 -35 160 -28q117 6 193.5 95t76.5 208q0 111 -110 215q-102 90 -205 180
q-111 113 -111 242q0 55 13 90q-8 2 -25 2q-66 0 -116 -36t-56 -89q-12 -94 88 -94q41 0 84 47q-45 -129 -207 -129q-92 0 -143 50t-51 136q0 23 4 45q16 109 112.5 181.5t219.5 72.5q92 0 174 -55q117 102 274 102q102 0 182 -53t101 -53q45 0 51 39q4 29 -31 65
q31 -12 53 -27q56 -30 58 -53zM1096 1147q10 68 -90 67q-84 0 -138 -65q88 -70 148 -70q72 0 80 68z" />
    <glyph glyph-name="T" unicode="T" horiz-adv-x="1454" 
d="M1577 1143q-33 -145 -248 -217q49 -31 39 -103q-6 -51 -55 -78q-39 -23 -84 -22q-43 0 -99 61q20 -6 44 -6q66 0 73 66q8 63 -41 80q-47 4 -94 10l-115 -651q0 -113 43 -177q37 -53 86 -53q51 0 58 39q4 33 -31 60q80 -53 80 -101q0 -12 -2 -26q-16 -100 -135 -101
q-61 0 -170 50.5t-154 50.5q-109 0 -121 -93q-12 -84 80 -84q43 0 82 72q-61 -150 -164 -149q-166 0 -166 143q0 16 2 35q10 82 82 172q119 150 133 176q78 125 103.5 295t25.5 282q0 86 -14 119q-115 84 -272 74q-84 -6 -160 -59q-82 -59 -100 -144q-6 -31 -7 -59
q0 -133 136 -133q55 0 102 46t53 93q8 70 -63 70q-31 0 -84 -43q59 143 182 143q160 0 160 -180q0 -25 -4 -51q-12 -94 -101 -177q-102 -100 -247 -100q-131 0 -203 90q-61 78 -62 195q0 209 158 364q154 147 365 166q33 2 65 2q129 0 268.5 -54t190.5 -52q131 6 141 82
q4 35 -18 43q-6 2 -39 2q-18 0 -76 -35q72 109 193 108q86 0 139 -47t53 -131q0 -30 -8 -63z" />
    <glyph glyph-name="U" unicode="U" horiz-adv-x="1660" 
d="M1696 1282q-98 -127 -174 -401q-90 -332 -90 -574q0 -258 131 -258q51 0 110 53q-106 -233 -276 -233q-102 0 -158 80q-47 66 -47 149q0 33 8 56q-43 -74 -94 -127q-125 -131 -281 -144q-170 -14 -256 78q-63 70 -67 180q-2 86 28 211q25 92 52 185q-109 -154 -316 -142
q-238 14 -237 287q0 51 8 109q25 172 176 278q121 86 248 92q162 8 282 -78q35 55 84 97q119 98 295 102q-51 -57 -96 -143q-109 -209 -168 -525q-31 -166 -31 -249q0 -131 74 -132q80 0 143 93q49 70 58 127q8 49 -10.5 82.5t-51.5 33.5q-72 0 -100 -39q6 57 51 111
q47 61 103 61q66 0 96 -57q14 63 14 137q0 195 -108 289q63 35 129 35q76 0 129 -51q123 211 342 227zM608 825q4 84 -34.5 144.5t-100.5 60.5q-106 0 -174 -63q-61 -55 -74 -142q-8 -63 19.5 -99t77.5 -36q133 0 149 109q6 47 -27.5 76.5t-91.5 25.5q25 12 97 29
q108 8 159 -105z" />
    <glyph glyph-name="V" unicode="V" horiz-adv-x="1613" 
d="M1677 961q-23 -199 -145 -386q-37 -55 -215 -270q-109 -133 -109 -209q0 -90 82 -90q35 0 76 39t33 82q-2 12 -2 18v2q4 0 12 -49t4 -84q-6 -53 -52 -89t-108 -29q-43 4 -145 69q-94 59 -174 55q-86 -6 -96 -71q-4 -29 24.5 -52.5t61.5 -19.5q-53 -43 -136 -43
q-53 0 -83.5 28.5t-30.5 69.5q0 63 106.5 141.5t114.5 137.5q4 33 -102 553q-70 336 -258 336q-82 0 -148 -47q-80 -61 -92 -176q-6 -66 32 -113t95 -47q59 0 99 34.5t40 92.5q0 84 -100 78q49 37 112 36q68 0 114 -57t46 -137q0 -139 -108.5 -234.5t-245.5 -85.5
q-127 10 -193 99q-59 80 -59 202q0 37 6 74q23 154 127 271q131 145 330 145q68 0 193.5 -23.5t154.5 -23.5q100 0 109 65q4 33 -18.5 55.5t-53.5 14.5q33 10 67 10q113 0 119 -123q2 -66 -33 -149q-39 -98 -47 -160q-4 -31 -4 -63q0 -168 82 -357q29 37 53 78
q63 102 107 213q-49 -25 -70 -24q-41 0 -66.5 45t-17.5 96q14 100 140 182q-14 -16 -25 -33q-25 -41 -31 -75q-10 -66 68 -66q68 0 84 115q14 104 -35 239q-68 184 -225 242q158 -16 270 -68q270 -123 270 -397q0 -32 -4 -67z" />
    <glyph glyph-name="W" unicode="W" horiz-adv-x="2002" 
d="M2130 961q-23 -199 -145 -386q-35 -55 -213 -270q-111 -131 -111 -209q0 -90 80 -90q37 0 78 39t30 82q23 -51 15 -113q-6 -51 -53.5 -84.5t-104.5 -33.5q-39 0 -96.5 24.5t-91.5 24.5q-66 0 -207 -70q37 33 65 70q70 84 80 159q4 27 4 58q0 137 -102 387
q-74 -113 -127 -199q-129 -209 -135 -258q-4 -25 9 -48.5t36 -23.5q47 0 53 52q2 25 -23 73q141 -37 129 -133q-10 -76 -70.5 -122t-129.5 -46q-66 0 -141.5 93.5t-141.5 93.5q-119 0 -196 -76q12 20 81 92q51 41 102.5 85t57.5 99q18 197 -55 492q-92 377 -272 377
q-82 0 -148 -47q-80 -61 -92 -176q-6 -66 32 -113t95 -47q59 0 99 34.5t40 92.5q0 84 -100 78q49 37 112 36q68 0 114 -57t46 -137q0 -139 -108.5 -234.5t-245.5 -85.5q-127 10 -193 99q-59 80 -59 202q0 37 6 74q23 154 129 275q131 147 332 155q70 2 193.5 -29.5
t150.5 -31.5q100 0 109 65q4 33 -18.5 55.5t-53.5 14.5q33 10 67 10q113 0 119 -123q2 -66 -31 -149q-41 -100 -49 -160q-6 -43 -6 -96q0 -111 21 -236q51 96 209 320q47 57 157 176q8 -131 78 -260q115 -213 125 -236q18 12 107 203q-61 -25 -72 -24q-41 0 -65.5 45
t-16.5 96q14 100 139 182q-14 -16 -26 -33q-27 -39 -31 -75q-8 -66 67 -66q70 0 86 115q14 104 -34 239q-68 184 -226 242q158 -16 271 -68q270 -123 270 -397q0 -32 -4 -67z" />
    <glyph glyph-name="X" unicode="X" horiz-adv-x="1581" 
d="M1829 -289q-8 -123 -103 -196q-82 -63 -186 -64q-178 0 -328 275q-92 168 -227 575q-121 -119 -145 -143q-61 -66 -66 -88q-10 -76 49 -97q25 -8 62 -6q-55 -55 -115 -55q-143 0 -135 127q-90 -78 -191 -78q-72 0 -113.5 43t-41.5 115q0 127 94 218t221 77
q-33 -10 -59 -25q-59 -33 -66 -82q-4 -37 12.5 -54t55.5 -13q63 6 352 303q-109 309 -160 393q-76 123 -196 123q-209 0 -230 -193q-8 -68 31 -113.5t96 -45.5q59 0 97 34.5t38 92.5q0 82 -98 75q31 18 129 43q70 4 115 -67q39 -66 29 -137q-23 -160 -138 -246
q-100 -74 -217 -66q-125 10 -188 99q-57 80 -57 202q0 35 4 72q23 166 116 283q119 150 310 149q131 0 247 -104q-12 35 -4 86q6 43 53.5 78.5t104.5 33.5q53 -2 96 -28q57 -33 58 -95q0 -51 -43 -116q14 115 -66 114q-53 0 -63 -77q-8 -57 30 -172q14 -47 90 -240
q135 133 174 184q72 94 86 201q4 33 5 61q0 242 -279 242q-43 0 -80 -6q166 78 311 67q348 -23 349 -292q0 -29 -4 -62q-18 -135 -101 -260q-57 -88 -59 -92q-31 -53 -37 -92q-6 -45 35 -45q51 0 110 90q8 -57 2 -96q-10 -76 -59 -142q-55 -72 -121 -71q-53 0 -79.5 35.5
t-20.5 82.5q6 43 41 113q-86 -84 -174 -160q133 -379 184 -485q111 -233 221 -234q86 0 99 93q6 53 -82 75q241 8 225 -217z" />
    <glyph glyph-name="Y" unicode="Y" horiz-adv-x="1548" 
d="M1657 1073q-39 -274 -410 -522q-29 -96 -69 -285q-2 -16 -2 -30q0 -61 27.5 -105.5t70.5 -44.5q76 0 84 59q4 35 -35 54q119 -10 102 -123q-18 -123 -151 -123q-16 0 -31 2q-35 6 -119 39q-68 27 -120 26q-49 0 -90.5 -33.5t-47.5 -72.5q-14 -94 78 -98q39 -2 64.5 24.5
t25.5 59.5q0 10 -2 18q37 -37 31 -78t-49 -78q-51 -47 -125 -53q-94 -8 -172 41q-86 57 -72 156q12 84 111 166q63 51 125 102q37 51 41 133q-45 -68 -119 -67q-102 0 -86 116q16 109 155 201q-53 -96 -53 -147q0 -39 37 -39q63 0 82 39q12 23 25 122q-246 473 -424 474
q-82 0 -144 -48q-78 -59 -90 -174q-6 -68 31 -112.5t94 -44.5q59 0 97 34.5t38 92.5q0 82 -98 75q31 18 129 43q70 4 113 -64.5t32 -139.5q-20 -160 -137 -246q-100 -74 -217 -66q-125 10 -190 99q-59 80 -60 202q0 35 6 72q25 170 140 324q139 188 327 188q106 0 236 -104
q-12 35 -6 86q6 43 54 78.5t105 33.5q47 -2 84 -30q49 -35 50 -95q0 -59 -50 -133q12 117 -67 117q-51 0 -64 -80q-8 -63 72 -192q8 -12 119 -166q55 43 96 94q102 121 121 256q4 33 4 63q0 240 -277 240q-43 0 -79 -6q166 78 309 67q119 -8 215 -77q129 -92 129 -256
q0 -31 -4 -64z" />
    <glyph glyph-name="Z" unicode="Z" horiz-adv-x="1302" 
d="M1470 1249q-100 -102 -172 -180q-174 -184 -178 -215q-8 -61 60 -61q27 0 92 79q-104 -287 -258 -286q-63 0 -64 55q0 39 27 90l-399 -409q90 33 163 24q80 -8 182.5 -120.5t188.5 -112.5q121 0 137 116q6 45 -61 131q174 -57 174 -256q0 -31 -4 -63q-16 -119 -119 -191
q-90 -68 -205 -67q-117 0 -233 88q-98 80 -199 160q-123 86 -256 86q-135 0 -147 -101q-8 -66 57 -65q35 0 63 29q-41 -96 -139 -97q-123 0 -123 119q0 20 4 43q10 70 171 224.5t174 238.5q8 61 -52 61q-43 0 -110 -77q68 219 215 198q66 -10 65 -84q0 -27 -8 -65l485 489
q-70 -41 -141 -41q-41 0 -117.5 19.5t-101.5 19.5q-43 0 -82 -31.5t-45 -74.5q-6 -39 16.5 -71t59.5 -32q16 0 31 6q-70 -70 -179 -69q-84 0 -139 51t-55 147q0 25 4 50q16 121 131 198q109 74 256 74q98 0 215 -50t201 -50q159 -1 415 73z" />
    <glyph glyph-name="bracketleft" unicode="[" horiz-adv-x="552" 
d="M616 1350l-28 -111h-117l-190 -1374h133l-29 -111h-301l221 1596h311z" />
    <glyph glyph-name="backslash" unicode="\" horiz-adv-x="704" 
d="M702 -199h-114l-471 1475h116z" />
    <glyph glyph-name="bracketright" unicode="]" horiz-adv-x="552" 
d="M553 1350l-219 -1596h-314l29 111h119l188 1374h-131l27 111h301z" />
    <glyph glyph-name="asciicircum" unicode="^" horiz-adv-x="673" 
d="M668 1030l-52 -47l-225 158l-264 -158l-41 47l336 289z" />
    <glyph glyph-name="underscore" unicode="_" horiz-adv-x="1126" 
d="M1247 -283l-14 -90h-1276l14 90h1276z" />
    <glyph glyph-name="grave" unicode="`" horiz-adv-x="362" 
d="M354 813l-22 -14l-205 293q-8 10 -17.5 31.5t-9.5 41.5q0 45 29 80t72 35q66 0 92 -96z" />
    <glyph glyph-name="a" unicode="a" 
d="M1126 281q-57 -109 -157 -197q-137 -119 -275 -119q-133 0 -127 137q-53 -51 -141 -90q-98 -43 -178 -41q-117 2 -162 97q-33 68 -25 163q14 145 119 281q139 180 365 215q39 6 78 6q88 0 157.5 -26.5t87.5 -61.5q-27 -78 -37 -115q-27 -111 -32 -249q-4 -96 71 -97
q45 0 119 58q57 43 98 90zM604 471q2 41 -4 57q-12 27 -49 25q-82 -4 -158 -111q-68 -94 -69 -161q-2 -86 61 -86q72 0 145 104q70 98 74 172z" />
    <glyph glyph-name="b" unicode="b" horiz-adv-x="866" 
d="M889 455q-14 -156 -111 -291q-133 -186 -362 -213q-27 -4 -51 -4q-141 0 -211 98q-51 72 -50 156q4 115 27 336q29 266 33 329q8 104 -35 158q-27 33 -53 33q-35 0 -70 -15q86 219 277 213q168 -6 166 -206q-2 -135 -91 -504q162 176 336 174q121 -2 170 -96
q33 -68 25 -168zM610 430q2 76 -63 76q-72 0 -148 -109q-72 -100 -77 -180q-2 -35 14 -57.5t55 -20.5q82 4 156 119q61 98 63 172z" />
    <glyph glyph-name="c" unicode="c" horiz-adv-x="823" 
d="M1059 281q-70 -104 -244 -205q-229 -131 -469 -121q-106 4 -178 55q-113 80 -107 256q6 162 150 305q158 160 373 160q92 0 151.5 -43t61.5 -121q2 -90 -56 -168q-66 -84 -161 -75q-84 8 -84 106q0 27 6 57q14 -37 51 -36q20 0 36.5 21.5t18.5 47.5q4 53 -43 53
q-94 0 -172 -96q-70 -86 -71 -172q-4 -170 174 -170q164 0 335 80q115 53 189 117z" />
    <glyph glyph-name="d" unicode="d" horiz-adv-x="937" 
d="M1126 281q-57 -109 -157 -197q-137 -119 -275 -119q-131 0 -127 148q-53 -55 -141 -97q-98 -47 -178 -45q-117 2 -162 97q-33 68 -25 163q14 145 119 281q139 180 365 215q39 6 104 6q4 51 13 150q8 104 -41 155q-29 33 -60 33q-33 0 -67 -12q86 219 276 213
q168 -6 166 -207q0 -70 -66 -371q-68 -307 -71 -413q-4 -96 71 -97q45 0 119 58q57 43 98 90zM604 471q2 41 -4 57q-12 27 -49 25q-82 -4 -158 -111q-68 -94 -69 -161q-2 -86 61 -86q72 0 145 104q70 98 74 172z" />
    <glyph glyph-name="e" unicode="e" horiz-adv-x="804" 
d="M1008 283q-59 -98 -234 -197q-217 -125 -440 -125q-166 0 -238 111q-51 76 -49 180q2 166 148 315q160 164 376 164q201 0 213 -164q8 -104 -114 -215q-131 -121 -330 -153q37 -51 111 -52q147 0 321 76q125 53 197 111zM543 498q2 55 -45 55q-61 0 -125 -85t-66 -163
v-26q100 37 174 112q60 66 62 107z" />
    <glyph glyph-name="f" unicode="f" horiz-adv-x="514" 
d="M821 1112q2 -102 -53 -197q-61 -106 -150 -106q-55 0 -75 47q-10 20 -17 86q-6 47 -24 47q-37 0 -92 -272h180q23 0 18 -21l-18 -88q-2 -14 -19 -14h-182q-33 -176 -39 -344q-2 -76 72 -76q29 0 102 62q61 51 101 96l39 -51q-57 -109 -158 -197q-137 -119 -275 -119
q-133 0 -129 148q4 127 62 481h-66q-23 0 -18 20l18 88q2 14 19 15h65q23 139 29 170q80 379 338 379q76 0 102 -58q2 -6 25 -108q14 -57 55 -58q24 0 90 70z" />
    <glyph glyph-name="g" unicode="g" horiz-adv-x="872" 
d="M1155 270q-113 -121 -385 -258q-168 -592 -494 -592q-219 0 -200 199q10 115 151 217q100 72 320 170q25 74 39 137q-164 -174 -340 -172q-121 2 -168 97q-33 70 -25 170q18 215 172 361t369 146q98 0 188 -25.5t109 -57.5q-29 -193 -94 -543q231 111 325 205zM596 479
q2 37 -13.5 58.5t-54.5 19.5q-82 -4 -155 -119q-61 -98 -66 -172q-4 -76 68 -76t145 109q70 100 76 180zM485 -125q-180 -88 -184 -141q-2 -29 31 -29q59 0 153 170z" />
    <glyph glyph-name="h" unicode="h" horiz-adv-x="915" 
d="M1114 281q-57 -109 -158 -197q-137 -119 -274 -119q-63 0 -97 41t-32 107q2 68 22.5 161t22.5 142q4 76 -41 76q-68 0 -147 -109q-88 -119 -93 -252q-4 -117 15 -160q-139 -4 -201 66q-49 57 -45 156q4 111 31 339q31 256 37 334q8 106 -35 158q-29 33 -56 33
q-33 0 -69 -15q88 219 278 213q168 -6 166 -206q-2 -135 -90 -504q49 47 103 82q127 82 243 92q100 8 144 -47q33 -45 30 -129q-2 -57 -27.5 -167t-25.5 -126q-2 -43 8.5 -59.5t48.5 -16.5q29 0 103 62q61 51 100 96z" />
    <glyph glyph-name="i" unicode="i" horiz-adv-x="458" 
d="M485 1010q-2 -51 -51 -99q-55 -53 -131 -53q-117 0 -113 103q2 53 62.5 102t134.5 49q43 0 71.5 -33.5t26.5 -68.5zM664 281q-57 -109 -158 -197q-137 -119 -275 -119q-63 0 -97 41t-32 107q2 68 42 209t40 151q0 53 -37 53q-12 0 -69 -43l-47 56q66 59 131 118
q88 78 131 82q68 6 99.5 -40t23.5 -119q-27 -125 -58 -318q-2 -88 64 -88q29 0 102 62q61 51 101 96z" />
    <glyph glyph-name="j" unicode="j" horiz-adv-x="485" 
d="M485 1010q-2 -51 -51 -99q-55 -53 -131 -53q-117 0 -113 103q2 53 62.5 102t134.5 49q43 0 71.5 -33.5t26.5 -68.5zM672 270q-109 -117 -338 -254q-121 -580 -412 -602q-96 -8 -166 45q-78 57 -67 160q10 115 135 217q90 74 282 170q66 262 78 467q2 53 -37 53
q-12 0 -69 -43l-47 56q66 59 131 118q88 78 131 82q68 6 99.5 -40t23.5 -119q-29 -268 -60 -449q186 98 281 193zM61 -143q-152 -96 -153 -150q0 -31 31 -31q63 1 122 181z" />
    <glyph glyph-name="k" unicode="k" horiz-adv-x="913" 
d="M1137 281q-59 -109 -156 -197q-133 -121 -264 -121q-92 0 -216 100.5t-169 208.5q-8 -229 0 -301q-139 -4 -201 66q-49 57 -45 156q4 111 31 339q31 256 37 334q8 106 -35 158q-29 33 -56 33q-33 0 -69 -15q88 219 278 213q168 -6 166 -206q-2 -135 -94 -533
q47 84 127 154q113 96 231 96q82 0 138 -55q49 -53 55 -131q-61 29 -127 18q-68 -10 -145 -70q-68 -51 -101 -100q16 -98 127 -188q102 -82 180 -82q119 0 269 174z" />
    <glyph glyph-name="l" unicode="l" horiz-adv-x="452" 
d="M649 281q-57 -109 -157 -197q-137 -119 -275 -119q-63 0 -97 41t-32 107q4 121 51 444q23 162 47 326q8 106 -39 155q-31 33 -59 33q-35 0 -68 -12q84 219 275 213q176 -6 170 -207q-4 -104 -62.5 -433t-58.5 -370q-2 -88 64 -88q29 0 102 62q61 51 100 96z" />
    <glyph glyph-name="m" unicode="m" horiz-adv-x="1409" 
d="M1567 281q-57 -109 -158 -197q-137 -119 -274 -119q-133 0 -129 148q2 66 25.5 157.5t25.5 143.5q2 78 -47 78q-53 0 -127 -127q-78 -133 -84 -259q-4 -88 16 -135q-143 -4 -201 47q-51 45 -47 150q2 66 20.5 131.5t20.5 116.5q4 76 -55 76q-51 0 -110.5 -117t-65.5 -244
q-4 -115 14 -160q-141 -4 -201 60q-49 53 -45 162q2 53 19.5 148t19.5 148q4 37 -18 37q-12 0 -70 -43l-49 56q10 8 129 118q86 80 117 82q53 4 86 -44t33 -111q0 -20 -4 -39q31 47 71 82q94 82 211 92q100 8 144 -47q35 -45 32 -129q14 12 31 26q47 55 92 88q76 55 158 62
q98 8 141 -47q37 -45 33 -129q-2 -57 -27.5 -167t-25.5 -126q-2 -43 8 -59.5t49 -16.5q29 0 102 62q61 51 101 96z" />
    <glyph glyph-name="n" unicode="n" horiz-adv-x="927" 
d="M1130 281q-57 -109 -157 -197q-137 -119 -275 -119q-133 0 -129 148q2 68 22.5 161t22.5 142q4 76 -41 76q-68 0 -147 -109q-88 -119 -92 -252q-4 -131 14 -174q-254 -6 -254 193q0 20 2 43q35 119 70 292q2 41 -19 41q-12 0 -69 -43l-47 56q10 8 129 120q84 80 114 80
q94 0 95 -133q0 -31 -7 -61q51 47 105 82q127 82 244 92q98 8 141 -47q37 -45 33 -129q-2 -57 -28 -167t-26 -126q-2 -43 8.5 -59.5t49.5 -16.5q29 0 102 62q61 51 101 96z" />
    <glyph glyph-name="o" unicode="o" horiz-adv-x="845" 
d="M840 420q-8 -188 -139.5 -325.5t-325.5 -137.5q-162 0 -246 104q-61 78 -68 195q-10 176 127 324q147 164 371 163q143 0 217 -96q70 -88 64 -227zM608 428q2 55 -15.5 101t-49.5 46q-104 0 -172 -112q-57 -92 -62 -197q-2 -51 19 -90q23 -45 63 -45q92 0 158 109
q55 90 59 188z" />
    <glyph glyph-name="p" unicode="p" horiz-adv-x="921" 
d="M922 471q-16 -154 -109 -283q-129 -182 -350 -208q-78 -10 -137 10q-12 -96 -15 -189q-2 -102 37 -153q25 -31 49 -31q31 0 64 16q-80 -219 -264 -213q-168 6 -162 205q4 113 69.5 441.5t67.5 418.5q6 41 -29 41q-14 0 -67 -43l-49 56q10 8 129 118q84 80 114 82
q55 4 88 -44t33 -113q0 -18 -4 -37q174 188 344 186q193 -4 193 -221q0 -21 -2 -39zM653 444q2 78 -63 78q-72 0 -146 -106q-68 -96 -73 -174q-2 -35 12 -56.5t51 -19.5q82 4 156 115q61 93 63 163z" />
    <glyph glyph-name="q" unicode="q" horiz-adv-x="884" 
d="M946 -350q-86 -221 -276 -215q-168 6 -166 207q2 137 90 503q-164 -176 -338 -174q-121 2 -168 97q-35 70 -25 170q14 154 111 288q133 186 365 215q27 4 51 4q139 0 209 -98q51 -72 49 -158q-4 -111 -27 -333q-29 -260 -33 -332q-8 -106 35 -156q27 -33 56 -33
q32 1 67 15zM608 479q2 35 -14 57.5t-55 20.5q-82 -4 -156 -119q-61 -98 -64 -172q-2 -76 66 -76q72 0 147 109q72 100 76 180z" />
    <glyph glyph-name="r" unicode="r" horiz-adv-x="790" 
d="M879 588q2 -104 -58 -211q-66 -121 -153 -121q-61 0 -84 55q-6 14 -25 105q-10 55 -39 55q-33 0 -82 -102q-55 -115 -59 -244q-2 -106 12 -154q-141 -4 -201 60q-51 53 -47 162q2 55 22.5 149t22.5 147q2 37 -28 37q-12 0 -70 -43l-47 56q10 8 129 118q84 80 115 82
q55 4 90 -49q29 -47 29 -110q0 -18 -3 -35q78 106 97 127q70 72 149 71q63 0 80 -59q4 -53 10 -106q6 -59 49 -60q25 0 91 70z" />
    <glyph glyph-name="s" unicode="s" horiz-adv-x="784" 
d="M776 643q8 -57 -30.5 -100t-96.5 -45q-80 -4 -114 71h14q10 -2 12 -2q37 0 37 37q2 12 -13.5 20.5t-31.5 8.5q-55 -2 -66 -70q-6 -47 105 -157q123 -123 137 -175q8 -31 8 -57q0 -102 -106 -164q-92 -53 -221 -57q-131 -4 -220 37q-113 53 -106 166q4 70 55 118t135 43
q96 -4 97 -106q0 -14 -2 -27q-18 25 -68 21q-47 -4 -43 -49q2 -33 59 -37q61 -4 95 24.5t30 73.5q-2 33 -65 94q-84 80 -111 117q-55 78 -45 164q8 66 76 119q86 68 225 71q236 8 254 -139z" />
    <glyph glyph-name="t" unicode="t" horiz-adv-x="579" 
d="M776 281q-51 -96 -186 -197q-160 -119 -299 -119q-170 0 -172 148q-2 104 63 481h-84q-23 0 -18 20l18 88q2 14 19 15h84l32 196q8 49 101 99q86 45 139 45q29 0 25 -17q-18 -90 -68 -323h137q23 0 19 -21l-19 -88q0 -14 -16 -14h-145q-41 -213 -46 -344q-2 -76 99 -76
q76 0 168 62q68 45 110 96z" />
    <glyph glyph-name="u" unicode="u" horiz-adv-x="972" 
d="M1192 281q-57 -106 -160 -197q-135 -119 -274 -119q-53 0 -91 41t-38 105q0 23 6 47q-51 -47 -103 -82q-127 -86 -245 -94q-100 -8 -144 47q-35 45 -30 129q2 59 35.5 180t33.5 135q2 53 -37 53q-12 0 -69 -43l-47 56q66 59 131 118q88 78 133 82q66 6 101.5 -35.5
t33.5 -109.5q-2 -51 -23.5 -160.5t-21.5 -148.5q-2 -74 41 -74q61 0 140 91t81 171q2 31 -16.5 54.5t-48.5 23.5q-33 0 -68 -14q61 219 252 213q156 -4 151 -170q-2 -53 -24 -160q-25 -113 -27 -139q-6 -96 72 -97q84 0 217 148z" />
    <glyph glyph-name="v" unicode="v" horiz-adv-x="923" 
d="M946 567q-6 -133 -186 -364q-186 -242 -316 -242q-80 0 -135 148q-37 135 -73 270q-41 147 -89 147q-10 0 -71 -43l-43 56q68 59 133 118q90 78 135 82q106 10 131 -145q27 -168 37 -209q31 -139 68 -139q29 0 86 90t61 137q8 78 -61 78q-33 0 -68 -14q68 219 258 213
q141 -5 133 -183z" />
    <glyph glyph-name="w" unicode="w" horiz-adv-x="1261" 
d="M1262 580q-2 -74 -54 -197q-66 -166 -172 -268q-139 -133 -325 -133q-74 0 -121 57q-41 49 -39 104q-31 -47 -98 -96q-94 -66 -191 -65q-180 0 -174 176q2 61 35 180q35 127 35 135q0 53 -37 53q-12 0 -70 -43l-47 56q66 59 131 118q88 78 131 82q68 6 104 -35.5
t33 -109.5q-2 -53 -22.5 -161.5t-22.5 -147.5q-2 -74 41 -74q57 0 111.5 88t58.5 174q2 31 -15 54.5t-48 23.5q-33 0 -68 -14q61 219 252 213q80 -2 107 -52q18 -35 16 -118q-2 -49 -27.5 -159t-25.5 -140q-2 -70 59 -70q57 0 111.5 88t58.5 174q2 31 -15.5 54.5t-47.5 23.5
q-33 0 -68 -14q61 219 252 213q158 -4 152 -170z" />
    <glyph glyph-name="x" unicode="x" 
d="M1042 281q-180 -336 -434 -324q-154 6 -207 215q-66 -55 -243 -209q-14 -10 -29 4l-39 80q-8 8 4 19l279 241q-23 129 -29 154q-20 66 -53 65q-29 0 -80 -45l-43 58q137 127 154 141q76 59 133 59q94 0 133 -243l266 231q18 8 27 -6l45 -76q6 -12 -6 -22l-310 -267
q37 -178 111 -178q76 0 170 60q66 43 113 94z" />
    <glyph glyph-name="y" unicode="y" horiz-adv-x="940" 
d="M1186 270q-119 -125 -391 -260q-86 -256 -203 -409q-137 -180 -285 -181q-219 0 -201 199q10 115 150 215q98 72 319 172q23 57 39 139q-45 -43 -94 -75q-119 -80 -237 -88q-100 -8 -144 47q-35 45 -30 129q2 61 37.5 186t35.5 129q2 53 -37 53q-12 0 -69 -43l-47 56
q66 59 131 118q88 78 133 82q66 6 100.5 -35.5t34.5 -109.5q0 -39 -22 -152q-25 -119 -27 -157q-2 -74 41 -74q61 0 140 91t81 171q2 31 -16.5 54.5t-46.5 23.5q-35 0 -68 -14q59 219 250 213q158 -4 151 -175q-8 -211 -82 -454q225 109 324 203zM516 -125
q-180 -88 -184 -141q-2 -29 30 -29q60 0 154 170z" />
    <glyph glyph-name="z" unicode="z" horiz-adv-x="942" 
d="M1085 281q-57 -109 -157 -197q-137 -119 -275 -119q-78 0 -181 24.5t-165 24.5q-20 0 -84.5 -17t-83.5 -17q-66 0 -63 38q0 23 53 74l418 400q-49 -2 -149.5 27.5t-161.5 29.5q-59 0 -117 -19q39 86 112.5 141.5t147.5 55.5q70 0 152.5 -26.5t138.5 -26.5q92 0 180 49
q16 8 39.5 -3t25.5 -36q2 -39 -20 -61l-410 -396q127 -55 236 -55q53 0 108 12q45 10 119 64q66 45 99 84z" />
    <glyph glyph-name="braceleft" unicode="{" horiz-adv-x="772" 
d="M795 1319q-63 -18 -111 -47q-111 -63 -125 -156l-47 -325q-14 -104 -123 -191q-98 -80 -182 -78q84 2 165 -82t66 -188l-47 -328q-20 -141 178 -203h-170q-111 0 -172 91q-47 72 -39 135l52 366q16 111 -201 211q72 27 123 56q125 72 135 145l51 371q8 61 78 133
q86 90 197 90h172z" />
    <glyph glyph-name="bar" unicode="|" horiz-adv-x="552" 
d="M477 1276l-207 -1475h-178l207 1475h178z" />
    <glyph glyph-name="braceright" unicode="}" horiz-adv-x="772" 
d="M762 516q-72 -27 -123 -55q-125 -72 -135 -146l-51 -370q-8 -63 -78 -135q-86 -90 -197 -91h-172q63 18 111 48q111 63 125 157l47 326q14 104 123 190q98 80 182 78q-84 -2 -162 80q-84 86 -70 190l48 326q20 143 -179 203h172q111 0 170 -88q47 -72 39 -135l-51 -367
q-16 -111 201 -211z" />
    <glyph glyph-name="asciitilde" unicode="~" horiz-adv-x="827" 
d="M786 1305q-10 -74 -71 -148q-70 -84 -156 -84q-31 0 -63 12l-121 50q-47 18 -88 18q-102 0 -158 -94l-10 4q8 76 71 154q74 84 158 83q31 0 62 -12l122 -53q41 -18 82 -18q98 0 166 96z" />
    <glyph glyph-name="uni00A0" unicode="&#xa0;" horiz-adv-x="731" 
 />
    <glyph glyph-name="exclamdown" unicode="&#xa1;" horiz-adv-x="765" 
d="M725 1208q-8 -57 -79 -109t-148 -52q-47 0 -74 34.5t-21 73.5q8 57 62 107q61 55 151 55q63 0 89 -33t20 -76zM705 59q-106 -188 -265 -188q-184 0 -184 219q0 27 4 55q12 96 102.5 338t94.5 267q6 49 -35 51q-33 2 -72 -72q-10 59 -6 98q6 61 56.5 109.5t121.5 48.5
q139 0 140 -147q0 -20 -5 -43q-37 -203 -90 -539q-4 -29 -4 -55q0 -70 24.5 -113t61.5 -43q29 0 56 14z" />
    <glyph glyph-name="cent" unicode="&#xa2;" horiz-adv-x="884" 
d="M860 385q-150 -127 -348 -149l-27 -195h-69l26 188q-16 2 -49 4q-281 29 -270 318q4 135 117 264q123 141 297 174l22 178h68l-21 -172q8 2 23 2q199 0 205 -157q4 -88 -54 -160q-61 -82 -155 -74q-82 6 -82 101q0 27 8 57q6 -35 47 -35q51 0 55 68q4 51 -45 51
q-90 0 -164 -94q-68 -84 -69 -166q-6 -178 151 -201q25 -4 49 -4q125 0 265 74z" />
    <glyph glyph-name="sterling" unicode="&#xa3;" horiz-adv-x="978" 
d="M993 1057q-6 -80 -62.5 -138.5t-131.5 -58.5q-129 0 -142 150q10 -41 64 -41q41 0 57 67q6 29 -9 51.5t-60 22.5q-115 -2 -125 -149q-4 -49 4 -138.5t6 -111.5h217l-31 -133h-198q-27 -160 -105 -330q104 -41 170 -41q170 0 252 129q-10 -61 -45 -141q-59 -131 -149 -187
q-51 -31 -125 -31q-53 0 -84 17q-18 8 -117 115q-35 -51 -41 -56q-35 -41 -86 -59.5t-96 -18.5q-55 0 -94 28t-39 91t26 103q61 88 160 104q39 6 151 -10q10 166 -16 287h-182l28 133h156q-25 129 2 239.5t109 196.5q111 119 280 119q135 0 205 -72q55 -59 51 -137zM324 168
q-35 55 -119 55q-49 0 -87 -34.5t-38 -82.5q0 -29 16.5 -53t61.5 -24q39 0 69 18q66 39 97 121z" />
    <glyph glyph-name="currency" unicode="&#xa4;" horiz-adv-x="1228" 
d="M1196 795l-176 -158q43 -92 27 -201q-16 -113 -84 -198l135 -158l-150 -129l-135 151q-106 -53 -207 -53q-106 0 -194 57l-172 -155l-113 129l170 158q-43 92 -27 198q16 113 86 203l-131 156l152 131l133 -156q98 55 205 55q111 0 192 -57l178 158zM866 436
q12 88 -40 148.5t-138 60.5q-96 0 -167.5 -71.5t-71.5 -165.5q0 -76 51 -127.5t131 -51.5q86 0 154.5 60.5t80.5 146.5z" />
    <glyph glyph-name="yen" unicode="&#xa5;" horiz-adv-x="1357" 
d="M1327 948q-35 -246 -371 -471q-2 -8 -12 -47h178l-14 -61h-182q-4 -20 -17 -62h193l-15 -63h-192q0 -14 -2 -21q-8 -63 17.5 -114.5t68.5 -51.5q66 0 78 56q2 29 -33 47q106 -12 92 -111q-16 -111 -137 -110q-43 0 -122 30.5t-122 30.5q-238 0 -237 -111q0 -12 4 -26
q-74 43 -74 90q0 10 2 20q12 61 94 103q92 49 103 63q18 27 39 105h-222l15 63h219l12 62h-225l14 61h217q0 6 2 16v15q-61 106 -120 190q-143 199 -248 244q-84 35 -140 35q-47 0 -84 -23q31 193 277 193q94 0 211 -94q-10 33 -4 77q4 39 47 72t94 31q43 -2 78 -29
q43 -33 43 -86q0 -51 -43 -119q10 106 -61 107q-49 0 -58 -72q-6 -59 66 -174q18 -29 106 -151q49 39 88 86q92 109 109 229q4 31 4 57q0 219 -250 219q-39 0 -72 -6q150 68 279 60q109 -6 194 -70q117 -84 117 -233q0 -27 -4 -56z" />
    <glyph glyph-name="brokenbar" unicode="&#xa6;" horiz-adv-x="552" 
d="M477 1276l-88 -629h-178l88 629h178zM373 539l-103 -738h-178l103 738h178z" />
    <glyph glyph-name="section" unicode="&#xa7;" horiz-adv-x="978" 
d="M936 1018q-33 -109 -141 -109q-47 0 -80 23q-39 25 -39 69q0 63 53 109q2 2 25 16q14 8 14 15q0 6 -10 12q-37 20 -80 21q-78 0 -126 -46.5t-48 -95.5q0 -70 110 -172q100 -92 203 -184q109 -115 109 -213q0 -84 -74 -170q-63 -72 -186 -88q78 -98 98 -176q8 -35 8 -66
q0 -125 -139 -225q-86 -61 -230 -62q-78 0 -129 27q-125 63 -124 160q0 27 10 57q35 106 139 107q47 0 84 -23.5t37 -69.5q0 -61 -53 -106l-25 -16q-14 -10 -14 -17q0 -6 8 -12q39 -20 84 -21q80 0 120 45.5t40 94.5q0 72 -105 174l-196 180q-106 113 -107 213q0 86 76 174
q57 68 180 88q-78 98 -96 176q-8 35 -8 68q0 125 137 223q88 63 231 64q76 0 127 -27q125 -66 125 -162q0 -26 -8 -55zM735 381q0 66 -104.5 170t-171.5 104q-41 0 -76 -34.5t-35 -75.5q0 -55 107 -162q96 -96 168 -96q41 0 76.5 26.5t35.5 67.5z" />
    <glyph glyph-name="dieresis" unicode="&#xa8;" horiz-adv-x="712" 
d="M692 1192q-4 -43 -45 -78q-47 -43 -117 -43q-94 0 -84 82q6 45 60.5 84t114.5 39q37 0 58 -27.5t13 -56.5zM375 1192q-6 -43 -47 -80q-47 -41 -117 -41q-94 0 -82 82q6 43 59.5 83t112.5 40q37 0 57.5 -26.5t16.5 -57.5z" />
    <glyph glyph-name="copyright" unicode="&#xa9;" horiz-adv-x="1495" 
d="M1380 631q0 -262 -185 -447.5t-447 -185.5t-446.5 185.5t-184.5 447.5t185 446.5t446 184.5q262 0 447 -184.5t185 -446.5zM1335 631q0 242 -172 414t-415 172q-242 0 -414 -171.5t-172 -414.5q0 -244 172 -416t414 -172q244 0 415.5 173t171.5 415zM1102 420
q-121 -201 -336 -201q-178 0 -295 115t-117 289t118 289.5t298 115.5q78 0 146.5 -30.5t70.5 -30.5q37 0 45 57h51l4 -309h-53q-61 248 -239 248q-193 0 -193 -328q0 -342 211 -342q129 0 240 162z" />
    <glyph glyph-name="ordfeminine" unicode="&#xaa;" horiz-adv-x="780" 
d="M827 938q-37 -70 -102 -125q-88 -78 -178 -78q-88 0 -82 90q-86 -86 -209 -86q-76 0 -104 62q-23 43 -17 106q8 92 78 183q90 117 238 139q25 4 51 4q127 0 160 -57q-16 -45 -25 -74q-16 -70 -21 -162q-2 -63 46 -63q59 0 141 96zM487 1063q2 27 -4 39t-28 12
q-53 -2 -99.5 -66.5t-48.5 -107.5q-2 -57 39 -57q47 0 94 69q45 62 47 111z" />
    <glyph glyph-name="guillemotleft" unicode="&#xab;" horiz-adv-x="882" 
d="M813 813l-162 -328l72 -323l-47 -33l-232 356l332 361zM489 813l-161 -328l71 -323l-47 -33l-231 356l332 361z" />
    <glyph glyph-name="logicalnot" unicode="&#xac;" horiz-adv-x="1116" 
d="M1059 735l-78 -551h-305l57 406h-616l20 145h922z" />
    <glyph glyph-name="uni00AD" unicode="&#xad;" horiz-adv-x="780" 
d="M860 739q-16 -127 -80 -231q-74 -119 -159 -119q-74 0 -144 35q-80 41 -117 47q-16 2 -32 2q-59 0 -133 -35q-51 -27 -101 -53q33 104 107 193q88 104 172 104q70 0 127 -31q68 -35 116 -41q16 -2 33 -2q137 0 211 131z" />
    <glyph glyph-name="registered" unicode="&#xae;" horiz-adv-x="993" 
d="M958 838q0 -174 -122.5 -298t-296.5 -124t-296 124t-122 298t122 294.5t296 120.5q176 0 297.5 -120.5t121.5 -294.5zM920 838q0 156 -112 266t-269 110q-158 0 -268.5 -110.5t-110.5 -265.5q0 -158 110.5 -269.5t268.5 -111.5t269.5 112.5t111.5 268.5zM799 711
q0 -100 -105 -101q-68 0 -88 33q-10 18 -14 98q-4 94 -70 95h-6v-134q0 -39 39 -49v-32h-219v32q51 6 51 49v289q0 41 -51 47v33h225q84 0 133 -30.5t49 -77.5q0 -96 -149 -117q123 -18 123 -129v-27q0 -33 20 -33q29 0 29 64v8h33v-18zM612 963q0 76 -63 75q-33 0 -33 -34
v-138h16q80 1 80 97z" />
    <glyph glyph-name="macron" unicode="&#xaf;" horiz-adv-x="673" 
d="M631 1237l-23 -98h-491l22 98h492z" />
    <glyph glyph-name="degree" unicode="&#xb0;" horiz-adv-x="694" 
d="M629 1044q-6 -117 -89 -203.5t-206 -86.5q-100 0 -154 65q-39 51 -43 123q-6 109 80 203q94 104 234 104q90 0 139 -61q43 -58 39 -144zM481 1049q2 94 -39 94q-68 0 -110 -70q-37 -59 -39 -125q-4 -84 53 -84t98 68q35 58 37 117z" />
    <glyph glyph-name="plusminus" unicode="&#xb1;" horiz-adv-x="956" 
d="M866 608l-26 -123h-289l-43 -309h-123l43 309h-299l25 123h290l41 281h123l-41 -281h299zM772 123l-24 -123h-713l26 123h711z" />
    <glyph glyph-name="uni00B2" unicode="&#xb2;" horiz-adv-x="770" 
d="M690 649q-8 -76 -74 -114q-49 -31 -106 -31q-49 0 -128 37t-136 37q-131 0 -127 -82q-23 18 -17 57q10 57 142 174q-20 -10 -37 -10q-31 0 -27 41q4 27 38 58.5t81 45.5q-14 -8 -25 -16q-25 -20 -26 -41q0 -27 33 -27q63 2 137 110.5t74 178.5q0 78 -58 78q-84 0 -92 -76
q-6 -57 47 -57q37 0 64 28q-16 -39 -39 -65q-53 -66 -129 -68q-106 -2 -107 115q0 27 6 51q14 59 78 117q84 76 205 76q90 0 145 -43q59 -49 60 -138q0 -20 -2 -41q-14 -98 -148 -206q-104 -74 -209 -148q53 23 99 17q33 -4 63.5 -24.5t54.5 -20.5q39 0 48 40q2 39 -41 64
q165 8 153 -117z" />
    <glyph glyph-name="uni00B3" unicode="&#xb3;" horiz-adv-x="743" 
d="M696 1133q-29 -12 -57 -31q-70 -45 -127 -113q162 -53 162 -196q0 -16 -2 -33q-16 -125 -125 -199q-94 -63 -213 -63q-100 0 -161.5 58t-55.5 136q6 76 67 127q55 47 121 47q61 0 90 -45t21 -102q-23 41 -54 41q-25 0 -47 -20.5t-26 -49.5q-10 -68 73 -67q41 0 80 44
t47 105q8 57 -18 96q-25 33 -68 39q-76 10 -90 15q-49 14 -43 49q6 43 70 57q-8 -6 -18 -31q0 -18 20 -18q61 0 131 121q-70 -20 -115 -21q-49 0 -88 33q-49 39 -41 105q14 100 119 118q-14 -12 -35 -65q-6 -37 39 -53q39 -14 113 -13q94 2 197 56q-8 -25 -9 -50
q0 -57 43 -77z" />
    <glyph glyph-name="acute" unicode="&#xb4;" horiz-adv-x="501" 
d="M457 1159l-29 -29l-291 -239l-22 14l151 320q6 12 19 35q35 45 96 45q39 0 67.5 -25t28.5 -63q0 -33 -20 -58z" />
    <glyph glyph-name="mu" unicode="&#xb5;" horiz-adv-x="972" 
d="M1192 281q-57 -106 -160 -197q-135 -119 -274 -119q-53 0 -91 41t-38 105q0 23 6 47q-51 -47 -103 -82q-127 -86 -245 -94q-43 -4 -78 8q-25 -33 -27 -129q0 -119 -10 -152q-20 -72 -92 -71q-45 0 -70.5 33.5t-19.5 80.5q8 55 39 103q39 61 51 96q27 76 33 207
q2 59 35.5 180t33.5 135q2 53 -37 53q-12 0 -69 -43l-47 56q66 59 131 118q88 78 133 82q66 6 101.5 -35.5t33.5 -109.5q-2 -51 -23.5 -160.5t-21.5 -148.5q-2 -74 41 -74q61 0 140 91t81 171q2 31 -16.5 54.5t-48.5 23.5q-33 0 -68 -14q61 219 252 213q156 -4 151 -170
q-2 -53 -24 -160q-25 -113 -27 -139q-6 -96 72 -97q84 0 217 148z" />
    <glyph glyph-name="paragraph" unicode="&#xb6;" horiz-adv-x="1058" 
d="M1085 1249l-18 -131h-109l-198 -1403h-127l194 1401h-135l-196 -1403h-131l102 717q-127 0 -223 86q-104 96 -105 256q0 33 4 68q27 188 170 305q125 104 269 104h503z" />
    <glyph glyph-name="periodcentered" unicode="&#xb7;" horiz-adv-x="765" 
d="M567 649q-10 -57 -61 -104q-61 -55 -150 -56q-63 0 -88.5 33t-19.5 76q8 57 77.5 108.5t147.5 51.5q47 0 73.5 -35t20.5 -74z" />
    <glyph glyph-name="cedilla" unicode="&#xb8;" horiz-adv-x="604" 
d="M543 -270q-14 -106 -107 -170q-78 -53 -176 -54q-86 0 -138 48.5t-46 115.5q6 63 57 107q45 39 100 39q51 0 76 -37t19 -86q-20 37 -45 37q-53 0 -64 -60q-10 -59 64 -59q33 0 66.5 38t39.5 89t-43 92t-121 41l86 256l92 2l-57 -190q63 6 129 -45q82 -64 68 -164z" />
    <glyph glyph-name="uni00B9" unicode="&#xb9;" horiz-adv-x="555" 
d="M502 555q-14 -72 -121 -74q-39 0 -97.5 29t-80.5 29q-49 0 -53 -33q-2 -20 28 -39q-82 4 -76 59q6 41 50 68q63 39 71 49q27 33 53 178q25 135 23 219q-35 -31 -72 -30q-72 0 -71 102q0 16 2 35q31 -29 71 -29q98 0 193 158q14 -55 70 -80q-27 -80 -80 -348
q-27 -188 -27 -221q0 -80 51 -80q43 0 49 49q21 -18 17 -41z" />
    <glyph glyph-name="ordmasculine" unicode="&#xba;" horiz-adv-x="641" 
d="M610 1030q-4 -121 -90 -210t-213 -89q-104 0 -160 68q-41 51 -45 127q-6 113 84 211q96 106 242 106q92 0 141 -63q43 -58 41 -150zM459 1036q4 96 -43 97q-66 0 -111 -74q-37 -59 -39 -127q-4 -88 53 -88q59 0 101 69q37 60 39 123z" />
    <glyph glyph-name="guillemotright" unicode="&#xbb;" horiz-adv-x="843" 
d="M778 467l-317 -346l-35 33l154 313l-68 307l45 33zM469 467l-317 -346l-35 33l153 313l-67 307l45 33z" />
    <glyph glyph-name="onequarter" unicode="&#xbc;" horiz-adv-x="1339" 
d="M1184 416l-2 2zM1270 315q-18 -117 -166 -116h-19q0 -51 25 -80q20 -18 42 -39t17 -53q-6 -53 -75 -62q8 8 18 43q4 29 -51 29q-8 0 -78 -23.5t-104 -23.5q-92 0 -80 76q8 49 55 63q-8 -12 -18 -41q-4 -27 28 -27q66 0 101 158q-35 8 -78 8q-68 0 -185 -61
q-33 59 -84 135q102 78 185 156q195 186 248 336q16 -27 34 -48q41 -49 82 -59q-25 -111 -71 -358q35 -4 43 -4q57 2 63 57q8 35 -18 35q27 -8 51 -29q41 -31 35 -72zM1100 1239l-789 -1245h-102l786 1245h105zM502 555q-14 -72 -121 -74q-39 0 -97.5 29t-80.5 29
q-49 0 -53 -33q-2 -20 28 -39q-82 4 -76 59q6 41 50 68q63 39 71 49q27 33 53 178q25 135 23 219q-35 -31 -72 -30q-72 0 -71 102q0 16 2 35q31 -29 71 -29q98 0 193 158q14 -55 70 -80q-27 -80 -80 -348q-27 -188 -27 -221q0 -80 51 -80q43 0 49 49q21 -18 17 -41zM989 496
q-37 -43 -172 -166q25 8 129 22q25 0 37 -4q14 113 6 148z" />
    <glyph glyph-name="onehalf" unicode="&#xbd;" horiz-adv-x="1339" 
d="M1239 117q-6 -74 -72 -113q-51 -31 -108 -31q-49 0 -128 37t-136 37q-131 0 -127 -82q-25 18 -19 58q10 55 144 174q-20 -10 -37 -11q-33 0 -27 39q4 29 38 60.5t81 46.5q-14 -8 -25 -17q-25 -20 -26 -41q0 -27 30 -26q66 2 142 112q72 104 71 177q0 78 -57 77
q-82 0 -92 -75q-8 -57 47 -58q37 0 63 29q-16 -39 -38 -66q-53 -68 -129 -69q-106 -2 -107 119q0 25 6 49q14 59 76 116q86 76 207 76q90 0 145 -43q59 -49 60 -137q0 -20 -2 -41q-14 -98 -148 -207q-104 -74 -209 -147q53 23 99 16q33 -4 63.5 -25.5t54.5 -21.5q39 0 47 41
q2 41 -41 66q166 6 154 -119zM1100 1239l-789 -1245h-102l786 1245h105zM502 555q-14 -72 -121 -74q-39 0 -97.5 29t-80.5 29q-49 0 -53 -33q-2 -20 28 -39q-82 4 -76 59q6 41 50 68q63 39 71 49q27 33 53 178q25 135 23 219q-35 -31 -72 -30q-72 0 -71 102q0 16 2 35
q31 -29 71 -29q98 0 193 158q14 -55 70 -80q-27 -80 -80 -348q-27 -188 -27 -221q0 -80 51 -80q43 0 49 49q21 -18 17 -41z" />
    <glyph glyph-name="threequarters" unicode="&#xbe;" horiz-adv-x="1339" 
d="M1247 416l-4 2zM1331 315q-18 -117 -164 -116h-20q2 -55 23.5 -77t44 -42.5t18.5 -52.5q-6 -49 -78 -62q8 8 19 43q6 29 -50 29q-8 0 -78.5 -23.5t-105.5 -23.5q-92 0 -80 76q8 49 58 63q-8 -12 -21 -41q-4 -27 29 -27q68 0 102 158q-35 8 -80 8q-68 0 -184 -61
q-33 59 -84 135q104 78 186 156q195 186 246 336q16 -27 35 -48q41 -49 84 -59q-25 -111 -74 -358q35 -4 43 -4q59 2 64 57q8 35 -17 35q27 -8 51 -29q39 -31 33 -72zM1161 1239l-786 -1245h-105l789 1245h102zM639 1133q-29 -12 -57 -31q-70 -45 -125 -113
q160 -53 159 -196q0 -16 -2 -33q-16 -125 -125 -199q-94 -63 -210 -63q-102 0 -163 57t-55 137q6 76 68 127q53 47 119 47q61 0 90 -45t22 -102q-25 41 -53 41q-66 0 -76 -70q-10 -68 76 -67q39 0 78 44t47 105q8 57 -18 96q-25 33 -66 39q-78 10 -90 15q-51 14 -45 49
q6 43 70 57q-6 -8 -17 -31q-2 -18 19 -18q61 0 131 121q-70 -20 -115 -21q-49 0 -88 33q-49 39 -41 105q14 100 121 118q-16 -12 -37 -65q-6 -37 39 -53q39 -14 113 -13q96 2 196 56q-8 -25 -8 -50q0 -57 43 -77zM1051 496q-37 -43 -170 -166q25 8 127 22q25 0 36 -4
q15 113 7 148z" />
    <glyph glyph-name="questiondown" unicode="&#xbf;" horiz-adv-x="1036" 
d="M895 1249q-8 -57 -80 -110.5t-147 -53.5q-47 0 -74 39q-25 33 -21 70q8 57 66 109q66 55 145 55q61 0 93 -37q24 -29 18 -72zM537 -119q-168 0 -258 82q-84 76 -84 205q0 29 4 57q16 115 135 238q33 35 215 184q119 98 131 156q12 51 -49 51q-29 0 -55.5 -35t-26.5 -76
q-37 61 -37 131q0 66 54.5 122.5t135.5 56.5q162 0 162 -135q0 -102 -96 -226q-92 -104 -186 -209q-104 -123 -117 -217q-2 -20 -2 -39q0 -76 39 -113.5t92 -37.5q51 0 98 33.5t53 76.5q6 39 -12 60.5t-59 21.5q-59 -2 -88 -67q-31 45 -23 110q8 70 58 117q61 63 176 64
q96 0 153.5 -63.5t57.5 -160.5q0 -166 -158 -280q-141 -107 -313 -107z" />
    <glyph glyph-name="Agrave" unicode="&#xc0;" horiz-adv-x="1378" 
d="M922 1327l-25 -16l-205 293q-16 29 -16 32q-8 20 -8 43q0 45 27.5 79t70.5 34q76 0 92 -94zM1772 -322q-14 -111 -99 -172q-76 -55 -176 -55q-217 0 -369.5 268.5t-193.5 708.5q-125 -51 -217 -139t-105 -178q-10 -78 56 -78q45 0 51 33q4 18 -25 61q-4 6 0 12q2 4 11 2
q29 -10 53 -37q29 -35 24 -71q-14 -113 -166 -113q-80 0 -172 53.5t-151 53.5q-57 0 -98 -25t-43 -47q-4 -43 30 -43q27 0 60 22q8 4 12 0q6 -2 0 -10q-12 -18 -27 -30q-33 -33 -69 -39q-47 -8 -90 14q-55 27 -48 86q10 84 177 192q195 125 237 191q27 39 80 133
q-43 -16 -106 -10q-125 10 -193 100q-57 80 -57 205q0 35 4 72q20 150 137 270q137 143 332 141q100 0 219 -8q113 -8 149 -8q131 0 142 70q6 41 -31 40q-29 0 -76 -24q-6 -4 -10 0q-6 6 0 12q20 23 41 41q51 41 98 47q51 6 86 -20q41 -33 31 -99q-8 -57 -76.5 -133.5
t-73.5 -101.5q-27 -193 -14 -397q86 20 160 20q98 0 156.5 -53t58.5 -141t-71.5 -160t-164.5 -88q20 33 27 82q8 57 -37 96t-108 43q45 -313 153 -520q113 -217 250 -217q88 0 100 90q8 53 -81 78q215 8 215 -181q0 -19 -2 -39zM743 1004q8 51 -59 86q-55 29 -121 28
q-82 0 -145 -47q-80 -61 -92 -176q-8 -68 30.5 -115t96.5 -47q59 0 98 36t39 93q0 84 -101 78q68 47 132 43q61 -4 92 -57q24 41 30 78zM924 899q-78 -154 -242 -528q86 129 240 221q-4 123 2 307z" />
    <glyph glyph-name="Aacute" unicode="&#xc1;" horiz-adv-x="1378" 
d="M1237 1597l-29 -28l-290 -240l-23 14l152 320q6 12 18 35q37 43 94 43q41 0 69.5 -23.5t28.5 -64.5q0 -31 -20 -56zM1772 -322q-14 -111 -99 -172q-76 -55 -176 -55q-217 0 -369.5 268.5t-193.5 708.5q-125 -51 -217 -139t-105 -178q-10 -78 56 -78q45 0 51 33
q4 18 -25 61q-4 6 0 12q2 4 11 2q29 -10 53 -37q29 -35 24 -71q-14 -113 -166 -113q-80 0 -172 53.5t-151 53.5q-57 0 -98 -25t-43 -47q-4 -43 30 -43q27 0 60 22q8 4 12 0q6 -2 0 -10q-12 -18 -27 -30q-33 -33 -69 -39q-47 -8 -90 14q-55 27 -48 86q10 84 177 192
q195 125 237 191q27 39 80 133q-43 -16 -106 -10q-125 10 -193 100q-57 80 -57 205q0 35 4 72q20 150 137 270q137 143 332 141q100 0 219 -8q113 -8 149 -8q131 0 142 70q6 41 -31 40q-29 0 -76 -24q-6 -4 -10 0q-6 6 0 12q20 23 41 41q51 41 98 47q51 6 86 -20
q41 -33 31 -99q-8 -57 -76.5 -133.5t-73.5 -101.5q-27 -193 -14 -397q86 20 160 20q98 0 156.5 -53t58.5 -141t-71.5 -160t-164.5 -88q20 33 27 82q8 57 -37 96t-108 43q45 -313 153 -520q113 -217 250 -217q88 0 100 90q8 53 -81 78q215 8 215 -181q0 -19 -2 -39zM743 1004
q8 51 -59 86q-55 29 -121 28q-82 0 -145 -47q-80 -61 -92 -176q-8 -68 30.5 -115t96.5 -47q59 0 98 36t39 93q0 84 -101 78q68 47 132 43q61 -4 92 -57q24 41 30 78zM924 899q-78 -154 -242 -528q86 129 240 221q-4 123 2 307z" />
    <glyph glyph-name="Acircumflex" unicode="&#xc2;" horiz-adv-x="1378" 
d="M1772 -322q-14 -111 -99 -172q-76 -55 -176 -55q-217 0 -369.5 268.5t-193.5 708.5q-125 -51 -217 -139t-105 -178q-10 -78 56 -78q45 0 51 33q4 18 -25 61q-4 6 0 12q2 4 11 2q29 -10 53 -37q29 -35 24 -71q-14 -113 -166 -113q-80 0 -172 53.5t-151 53.5q-57 0 -98 -25
t-43 -47q-4 -43 30 -43q27 0 60 22q8 4 12 0q6 -2 0 -10q-12 -18 -27 -30q-33 -33 -69 -39q-47 -8 -90 14q-55 27 -48 86q10 84 177 192q195 125 237 191q27 39 80 133q-43 -16 -106 -10q-125 10 -193 100q-57 80 -57 205q0 35 4 72q20 150 137 270q137 143 332 141
q100 0 219 -8q113 -8 149 -8q131 0 142 70q6 41 -31 40q-29 0 -76 -24q-6 -4 -12 0q-4 6 2 12q10 14 53 51l-141 99l-264 -156l-41 47l336 289l204 -242q49 4 83 -26.5t26 -92.5q-8 -57 -76.5 -133.5t-73.5 -101.5q-27 -193 -14 -397q86 20 160 20q98 0 156.5 -53t58.5 -141
t-71.5 -160t-164.5 -88q20 33 27 82q8 57 -37 96t-108 43q45 -313 153 -520q113 -217 250 -217q88 0 100 90q8 53 -81 78q215 8 215 -181q0 -19 -2 -39zM743 1004q8 51 -59 86q-55 29 -121 28q-82 0 -145 -47q-80 -61 -92 -176q-8 -68 30.5 -115t96.5 -47q59 0 98 36t39 93
q0 84 -101 78q68 47 132 43q61 -4 92 -57q24 41 30 78zM924 899q-78 -154 -242 -528q86 129 240 221q-4 123 2 307z" />
    <glyph glyph-name="Atilde" unicode="&#xc3;" horiz-adv-x="1378" 
d="M1772 -322q-14 -111 -99 -172q-76 -55 -176 -55q-217 0 -369.5 268.5t-193.5 708.5q-125 -51 -217 -139t-105 -178q-10 -78 56 -78q45 0 51 33q4 18 -25 61q-4 6 0 12q2 4 11 2q29 -10 53 -37q29 -35 24 -71q-14 -113 -166 -113q-80 0 -172 53.5t-151 53.5q-57 0 -98 -25
t-43 -47q-4 -43 30 -43q27 0 60 22q8 4 12 0q6 -2 0 -10q-12 -18 -27 -30q-33 -33 -69 -39q-47 -8 -90 14q-55 27 -48 86q10 84 177 192q195 125 237 191q27 39 80 133q-43 -16 -106 -10q-125 10 -193 100q-57 80 -57 205q0 35 4 72q20 150 137 270q137 143 332 141
q100 0 219 -8q113 -8 149 -8q131 0 142 70v22q-70 -35 -140 -6l-120 51q-47 20 -88 21q-100 0 -158 -99l-10 6q8 76 71 152q72 84 158 84q31 0 61 -12l123 -52q41 -16 80 -16q98 0 168 94l6 -8q-6 -57 -59 -131q57 -33 47 -109q-8 -57 -76.5 -133.5t-73.5 -101.5
q-27 -193 -14 -397q86 20 160 20q98 0 156.5 -53t58.5 -141t-71.5 -160t-164.5 -88q20 33 27 82q8 57 -37 96t-108 43q45 -313 153 -520q113 -217 250 -217q88 0 100 90q8 53 -81 78q215 8 215 -181q0 -19 -2 -39zM743 1004q8 51 -59 86q-55 29 -121 28q-82 0 -145 -47
q-80 -61 -92 -176q-8 -68 30.5 -115t96.5 -47q59 0 98 36t39 93q0 84 -101 78q68 47 132 43q61 -4 92 -57q24 41 30 78zM924 899q-78 -154 -242 -528q86 129 240 221q-4 123 2 307z" />
    <glyph glyph-name="Adieresis" unicode="&#xc4;" horiz-adv-x="1378" 
d="M1202 1534q-6 -43 -45 -78q-47 -43 -117 -43q-96 0 -84 82q6 43 59.5 83t114.5 40q37 0 57.5 -27.5t14.5 -56.5zM883 1534q-6 -43 -47 -78q-47 -43 -117 -43q-94 0 -82 82q6 43 60.5 83t113.5 40q37 0 56.5 -26.5t15.5 -57.5zM1772 -322q-14 -111 -99 -172
q-76 -55 -176 -55q-217 0 -369.5 268.5t-193.5 708.5q-125 -51 -217 -139t-105 -178q-10 -78 56 -78q45 0 51 33q4 18 -25 61q-4 6 0 12q2 4 11 2q29 -10 53 -37q29 -35 24 -71q-14 -113 -166 -113q-80 0 -172 53.5t-151 53.5q-57 0 -98 -25t-43 -47q-4 -43 30 -43
q27 0 60 22q8 4 12 0q6 -2 0 -10q-12 -18 -27 -30q-33 -33 -69 -39q-47 -8 -90 14q-55 27 -48 86q10 84 177 192q195 125 237 191q27 39 80 133q-43 -16 -106 -10q-125 10 -193 100q-57 80 -57 205q0 35 4 72q20 150 137 270q137 143 332 141q100 0 219 -8q113 -8 149 -8
q131 0 142 70q6 41 -31 40q-29 0 -76 -24q-6 -4 -10 0q-6 6 0 12q20 23 41 41q51 41 98 47q51 6 86 -20q41 -33 31 -99q-8 -57 -76.5 -133.5t-73.5 -101.5q-27 -193 -14 -397q86 20 160 20q98 0 156.5 -53t58.5 -141t-71.5 -160t-164.5 -88q20 33 27 82q8 57 -37 96t-108 43
q45 -313 153 -520q113 -217 250 -217q88 0 100 90q8 53 -81 78q215 8 215 -181q0 -19 -2 -39zM743 1004q8 51 -59 86q-55 29 -121 28q-82 0 -145 -47q-80 -61 -92 -176q-8 -68 30.5 -115t96.5 -47q59 0 98 36t39 93q0 84 -101 78q68 47 132 43q61 -4 92 -57q24 41 30 78z
M924 899q-78 -154 -242 -528q86 129 240 221q-4 123 2 307z" />
    <glyph glyph-name="Aring" unicode="&#xc5;" horiz-adv-x="1378" 
d="M1772 -322q-14 -111 -99 -172q-76 -55 -176 -55q-217 0 -369.5 268.5t-193.5 708.5q-125 -51 -217 -139t-105 -178q-10 -78 56 -78q45 0 51 33q4 18 -25 61q-4 6 0 12q2 4 11 2q29 -10 53 -37q29 -35 24 -71q-14 -113 -166 -113q-80 0 -172 53.5t-151 53.5q-57 0 -98 -25
t-43 -47q-4 -43 30 -43q27 0 60 22q8 4 12 0q6 -2 0 -10q-12 -18 -27 -30q-33 -33 -69 -39q-47 -8 -90 14q-55 27 -48 86q10 84 177 192q195 125 237 191q27 39 80 133q-43 -16 -106 -10q-125 10 -193 100q-57 80 -57 205q0 35 4 72q20 150 137 270q137 143 332 141
q100 0 219 -8q113 -8 149 -8q133 0 142 70q4 41 -33 40q-23 0 -55 -14q-57 -39 -127 -39q-78 0 -128 50.5t-50 123.5q0 94 70.5 165t164.5 71q78 0 128 -50.5t50 -125.5q0 -55 -31 -113q14 6 33 8q51 8 89 -22.5t28 -96.5q-8 -57 -76.5 -133.5t-73.5 -101.5
q-27 -193 -14 -397q86 20 160 20q98 0 156.5 -53t58.5 -141t-71.5 -160t-164.5 -88q20 33 27 82q8 57 -37 96t-108 43q45 -313 153 -520q113 -217 250 -217q88 0 100 90q8 53 -81 78q215 8 215 -181q0 -19 -2 -39zM1071 1495q6 47 -23.5 81t-76.5 34t-86 -34t-45 -81
q-6 -49 22.5 -83t75.5 -34q49 0 88 34t45 83zM743 1004q8 51 -59 86q-55 29 -121 28q-82 0 -145 -47q-80 -61 -92 -176q-8 -68 30.5 -115t96.5 -47q59 0 98 36t39 93q0 84 -101 78q68 47 132 43q61 -4 92 -57q24 41 30 78zM924 899q-78 -154 -242 -528q86 129 240 221
q-4 123 2 307z" />
    <glyph glyph-name="AE" unicode="&#xc6;" horiz-adv-x="1849" 
d="M666 1245q160 0 410.5 -25.5t359.5 -25.5q102 0 116 94q10 72 -65 72q-37 0 -101 -45q68 109 197 108q84 0 129 -61q39 -53 39 -139q0 -123 -79 -202t-202 -79q-94 0 -233 41q-12 -72 -53 -307q94 135 225 135q94 0 94 -92q0 -14 -2 -29q-8 -55 -69 -119
q-76 -78 -175 -90q27 14 46 31q45 39 51 78q4 31 -56 31q-31 0 -71 -74q-47 -84 -64 -199q-2 -20 -2 -39q0 -152 195 -151q205 0 219 153q4 37 -14.5 51.5t-51.5 12.5q-55 -4 -123 -109q70 309 273 303q170 -4 170 -213q0 -137 -80 -252q-86 -119 -215 -149
q-39 -238 -229 -238q-141 0 -125 131q8 -14 18 -26q23 -27 55 -29q53 -4 66 74q8 47 -35 86q-55 47 -166 47q-88 0 -173 -28.5t-138 -28.5q57 100 127 485q-125 -51 -217 -139t-105 -178q-10 -78 56 -78q45 0 51 33q4 18 -25 61q-4 6 0 12q2 4 11 2q29 -10 53 -37
q29 -35 24 -71q-14 -113 -166 -113q-80 0 -172 53.5t-151 53.5q-57 0 -98 -25t-43 -47q-4 -43 30 -43q27 0 60 22q8 4 12 0q6 -2 0 -10q-12 -18 -27 -30q-33 -33 -69 -39q-47 -8 -90 14q-55 27 -48 86q10 84 177 192q195 125 237 191q27 39 80 133q-43 -16 -106 -10
q-125 10 -193 100q-57 80 -57 205q0 35 4 72q20 150 137 270q137 143 332 141zM973 952q-12 -217 -35 -350q-168 -100 -256 -231q72 184 291 581zM743 1004q-6 -37 -30 -78q-31 53 -92 57q-63 4 -132 -43q100 6 101 -78q0 -57 -39 -93t-98 -36q-57 0 -96.5 47t-30.5 115
q12 115 92 176q63 47 145 47q66 0 121 -28q67 -35 59 -86z" />
    <glyph glyph-name="Ccedilla" unicode="&#xc7;" horiz-adv-x="1511" 
d="M1565 1126q-8 -117 -105.5 -194.5t-238.5 -77.5q-147 0 -322 61q-119 -143 -151 -362q-6 -37 -7 -72q0 -119 66 -184q59 -61 156 -61q201 0 219 145q8 63 -20.5 96t-69.5 33q-39 0 -76 -29q-45 -33 -45 -86q0 -16 6 -35q-70 70 -57 152q10 76 90 141q94 78 221 78
q123 0 200.5 -69.5t77.5 -194.5q0 -49 -12 -105q-47 -197 -197.5 -311t-367.5 -114q-29 0 -60 2l-18 -64q61 6 129 -45q82 -63 68 -164q-14 -106 -105 -170q-80 -53 -178 -53q-86 0 -139.5 49t-46.5 115q6 61 55 103t104 42q51 0 75 -37t20 -86q-20 37 -45 37q-53 0 -64 -59
q-10 -59 64 -60q33 0 65.5 38t38.5 89q6 53 -43 93t-121 40l53 148q-121 39 -192 135q-90 117 -90 299q0 59 10 123l10 51q-92 -82 -209 -71q-100 8 -160.5 80.5t-60.5 187.5q0 27 4 55q20 154 154 250q123 88 276 88q123 0 318 -76q262 254 504 254q98 0 157 -47
q66 -54 60 -158zM1305 1073q8 68 -82 68q-23 0 -80 -25q-80 -33 -150 -92q92 -35 174 -35q128 0 138 84zM745 963q-102 25 -170 24q-106 0 -169 -51q-55 -45 -64 -109q-8 -53 19.5 -84.5t76.5 -31.5q78 0 88 75q4 37 -34 99q27 -10 49 -25q49 -37 61 -92q49 84 143 195z" />
    <glyph glyph-name="Egrave" unicode="&#xc8;" horiz-adv-x="1468" 
d="M922 1317l-25 -17l-205 293q-16 23 -16 33q-8 20 -8 43q0 45 28.5 79t71.5 34q74 0 90 -96zM1192 -45q-39 -238 -229 -238q-139 0 -125 131q8 -14 18 -26q23 -27 55 -29q53 -4 66 74q8 47 -35 86q-55 47 -166 47q-88 0 -223 -41t-191 -41q-131 0 -131 139q0 23 7 45
q14 61 62 113.5t106 52.5q27 0 51 -14q-23 -2 -39 -12q-39 -23 -47 -76t45 -53q70 0 110 147q14 53 62 328q-80 -139 -242 -127q-119 10 -180 98q-57 80 -57 203q0 37 6 76q20 143 135 266q133 143 303 143q37 0 76 -8q270 -53 465 -45q102 4 116 94q10 72 -65 72
q-37 0 -101 -45q68 109 197 108q168 0 168 -202q0 -121 -79 -200t-202 -79q-94 0 -233 41q-12 -72 -53 -307q94 135 225 135q94 0 94 -92q0 -14 -2 -29q-8 -55 -69 -119q-76 -78 -175 -90q27 14 46 31q45 39 51 78q4 31 -56 31q-31 0 -71 -74q-47 -84 -64 -199
q-2 -20 -2 -39q0 -152 195 -151q205 0 219 153q4 37 -14.5 51.5t-51.5 12.5q-55 -4 -123 -109q72 309 273 303q170 -4 170 -213q0 -137 -80 -252q-86 -118 -215 -149zM637 926q-10 193 -139 192q-78 0 -140 -47q-76 -61 -88 -176q-8 -68 29 -115t90 -47q57 0 94 37t37 94
q0 82 -94 76q66 47 127 43q59 -4 84 -57z" />
    <glyph glyph-name="Eacute" unicode="&#xc9;" horiz-adv-x="1468" 
d="M1174 1554q-6 -8 -31 -28l-289 -240l-25 14l154 320q4 12 18 35q35 45 95 45q31 0 55 -14q41 -25 41 -74q0 -33 -18 -58zM1192 -45q-39 -238 -229 -238q-139 0 -125 131q8 -14 18 -26q23 -27 55 -29q53 -4 66 74q8 47 -35 86q-55 47 -166 47q-88 0 -223 -41t-191 -41
q-131 0 -131 139q0 23 7 45q14 61 62 113.5t106 52.5q27 0 51 -14q-23 -2 -39 -12q-39 -23 -47 -76t45 -53q70 0 110 147q14 53 62 328q-80 -139 -242 -127q-119 10 -180 98q-57 80 -57 203q0 37 6 76q20 143 135 266q133 143 303 143q37 0 76 -8q270 -53 465 -45
q102 4 116 94q10 72 -65 72q-37 0 -101 -45q68 109 197 108q168 0 168 -202q0 -121 -79 -200t-202 -79q-94 0 -233 41q-12 -72 -53 -307q94 135 225 135q94 0 94 -92q0 -14 -2 -29q-8 -55 -69 -119q-76 -78 -175 -90q27 14 46 31q45 39 51 78q4 31 -56 31q-31 0 -71 -74
q-47 -84 -64 -199q-2 -20 -2 -39q0 -152 195 -151q205 0 219 153q4 37 -14.5 51.5t-51.5 12.5q-55 -4 -123 -109q72 309 273 303q170 -4 170 -213q0 -137 -80 -252q-86 -118 -215 -149zM637 926q-10 193 -139 192q-78 0 -140 -47q-76 -61 -88 -176q-8 -68 29 -115t90 -47
q57 0 94 37t37 94q0 82 -94 76q66 47 127 43q59 -4 84 -57z" />
    <glyph glyph-name="Ecircumflex" unicode="&#xca;" horiz-adv-x="1468" 
d="M1192 -45q-39 -238 -229 -238q-139 0 -125 131q8 -14 18 -26q23 -27 55 -29q53 -4 66 74q8 47 -35 86q-55 47 -166 47q-88 0 -223 -41t-191 -41q-131 0 -131 139q0 23 7 45q14 61 62 113.5t106 52.5q27 0 51 -14q-23 -2 -39 -12q-39 -23 -47 -76t45 -53q70 0 110 147
q14 53 62 328q-80 -139 -242 -127q-119 10 -180 98q-57 80 -57 203q0 37 6 76q20 143 135 266q133 143 303 143q37 0 76 -8q270 -53 465 -45q102 4 116 94q8 49 -28 66l-31 -29l-39 29q-33 -12 -68 -39q8 14 46 53l-164 113l-264 -156l-41 47l335 289l211 -248q35 10 74 10
q168 0 168 -202q0 -121 -79 -200t-202 -79q-94 0 -233 41q-12 -72 -53 -307q94 135 225 135q94 0 94 -92q0 -14 -2 -29q-8 -55 -69 -119q-76 -78 -175 -90q27 14 46 31q45 39 51 78q4 31 -56 31q-31 0 -71 -74q-47 -84 -64 -199q-2 -20 -2 -39q0 -152 195 -151
q205 0 219 153q4 37 -14.5 51.5t-51.5 12.5q-55 -4 -123 -109q72 309 273 303q170 -4 170 -213q0 -137 -80 -252q-86 -118 -215 -149zM637 926q-10 193 -139 192q-78 0 -140 -47q-76 -61 -88 -176q-8 -68 29 -115t90 -47q57 0 94 37t37 94q0 82 -94 76q66 47 127 43
q59 -4 84 -57z" />
    <glyph glyph-name="Edieresis" unicode="&#xcb;" horiz-adv-x="1468" 
d="M899 1421q-6 -43 -47 -78q-47 -43 -117 -43q-94 0 -82 82q6 45 59.5 84t112.5 39q37 0 57.5 -26.5t16.5 -57.5zM1192 -45q-39 -238 -229 -238q-139 0 -125 131q8 -14 18 -26q23 -27 55 -29q53 -4 66 74q8 47 -35 86q-55 47 -166 47q-88 0 -223 -41t-191 -41
q-131 0 -131 139q0 23 7 45q14 61 62 113.5t106 52.5q27 0 51 -14q-23 -2 -39 -12q-39 -23 -47 -76t45 -53q70 0 110 147q14 53 62 328q-80 -139 -242 -127q-119 10 -180 98q-57 80 -57 203q0 37 6 76q20 143 135 266q133 143 303 143q37 0 76 -8q270 -53 465 -45
q102 4 116 94q8 49 -28 66q-47 -53 -125 -54q-94 0 -84 82q6 45 59 84t115 39q35 0 56.5 -27.5t15.5 -56.5q6 2 22 2q168 0 168 -202q0 -121 -79 -200t-202 -79q-94 0 -233 41q-12 -72 -53 -307q94 135 225 135q94 0 94 -92q0 -14 -2 -29q-8 -55 -69 -119q-76 -78 -175 -90
q27 14 46 31q45 39 51 78q4 31 -56 31q-31 0 -71 -74q-47 -84 -64 -199q-2 -20 -2 -39q0 -152 195 -151q205 0 219 153q4 37 -14.5 51.5t-51.5 12.5q-55 -4 -123 -109q72 309 273 303q170 -4 170 -213q0 -137 -80 -252q-86 -118 -215 -149zM637 926q-10 193 -139 192
q-78 0 -140 -47q-76 -61 -88 -176q-8 -68 29 -115t90 -47q57 0 94 37t37 94q0 82 -94 76q66 47 127 43q59 -4 84 -57z" />
    <glyph glyph-name="Igrave" unicode="&#xcc;" horiz-adv-x="1122" 
d="M866 1305l-22 -15l-205 293q-8 10 -17.5 30.5t-9.5 43.5q0 45 30 80t73 35q74 0 90 -97zM1231 1278q-10 -76 -133 -199q-98 -98 -162 -544q-25 -170 -25 -285q0 -221 90 -217q41 2 48 33q4 18 -25 61q-4 6 0 12q2 4 10 2q29 -10 53 -37q29 -35 25 -71q-14 -113 -166 -113
q-80 0 -155.5 53.5t-135.5 53.5q-59 0 -100 -25t-43 -47q-6 -43 31 -43q27 0 61 22q6 4 12 0q4 -2 0 -10q-12 -18 -26 -30q-33 -33 -72 -39q-47 -8 -90 14q-53 27 -45 86q6 49 86 121q94 88 127 151q72 137 94 348q-37 -57 -104 -96q-84 -47 -178 -39q-127 10 -195 101
q-57 78 -57 202q0 35 4 72q20 152 137 272q137 141 332 140q100 -2 196 -8q88 -8 125 -9q131 0 142 70q6 41 -31 41q-31 0 -76 -23q-6 -6 -10 0q-6 6 0 13q20 23 41 41q51 41 96 47q51 6 89 -24.5t30 -96.5zM711 905q-10 193 -148 193q-82 0 -147 -47q-80 -61 -92 -179
q-6 -68 31.5 -113.5t95.5 -45.5q59 0 98 34.5t39 94.5q0 84 -99 78q68 45 132 43q55 -3 90 -58z" />
    <glyph glyph-name="Iacute" unicode="&#xcd;" horiz-adv-x="1122" 
d="M1184 1587q-6 -8 -31 -28l-289 -242l-24 14l153 322q4 12 19 33q35 45 96 45q39 0 67.5 -24t28.5 -62q0 -31 -20 -58zM1231 1278q-10 -76 -133 -199q-98 -98 -162 -544q-25 -170 -25 -285q0 -221 90 -217q41 2 48 33q4 18 -25 61q-4 6 0 12q2 4 10 2q29 -10 53 -37
q29 -35 25 -71q-14 -113 -166 -113q-80 0 -155.5 53.5t-135.5 53.5q-59 0 -100 -25t-43 -47q-6 -43 31 -43q27 0 61 22q6 4 12 0q4 -2 0 -10q-12 -18 -26 -30q-33 -33 -72 -39q-47 -8 -90 14q-53 27 -45 86q6 49 86 121q94 88 127 151q72 137 94 348q-37 -57 -104 -96
q-84 -47 -178 -39q-127 10 -195 101q-57 78 -57 202q0 35 4 72q20 152 137 272q137 141 332 140q100 -2 196 -8q88 -8 125 -9q131 0 142 70q6 41 -31 41q-31 0 -76 -23q-6 -6 -10 0q-6 6 0 13q20 23 41 41q51 41 96 47q51 6 89 -24.5t30 -96.5zM711 905q-10 193 -148 193
q-82 0 -147 -47q-80 -61 -92 -179q-6 -68 31.5 -113.5t95.5 -45.5q59 0 98 34.5t39 94.5q0 84 -99 78q68 45 132 43q55 -3 90 -58z" />
    <glyph glyph-name="Icircumflex" unicode="&#xce;" horiz-adv-x="1122" 
d="M1231 1278q-10 -76 -133 -199q-98 -98 -162 -544q-25 -170 -25 -285q0 -221 90 -217q41 2 48 33q4 18 -25 61q-4 6 0 12q2 4 10 2q29 -10 53 -37q29 -35 25 -71q-14 -113 -166 -113q-80 0 -155.5 53.5t-135.5 53.5q-59 0 -100 -25t-43 -47q-6 -43 31 -43q27 0 61 22
q6 4 12 0q4 -2 0 -10q-12 -18 -26 -30q-33 -33 -72 -39q-47 -8 -90 14q-53 27 -45 86q6 49 86 121q94 88 127 151q72 137 94 348q-37 -57 -104 -96q-84 -47 -178 -39q-127 10 -195 101q-57 78 -57 202q0 35 4 72q20 152 137 272q137 141 332 140q100 -2 196 -8q88 -8 125 -9
q131 0 142 70q6 41 -31 41q-31 0 -76 -23q-6 -6 -12 0q-4 6 2 13q12 14 55 49l-158 110l-264 -155l-41 45l336 291l213 -252q51 4 87 -25.5t28 -95.5zM711 905q-10 193 -148 193q-82 0 -147 -47q-80 -61 -92 -179q-6 -68 31.5 -113.5t95.5 -45.5q59 0 98 34.5t39 94.5
q0 84 -99 78q68 45 132 43q55 -3 90 -58z" />
    <glyph glyph-name="Idieresis" unicode="&#xcf;" horiz-adv-x="1122" 
d="M885 1436q-6 -43 -47 -78q-47 -43 -117 -43q-94 0 -82 82q6 43 60.5 83t113.5 40q37 0 56.5 -26.5t15.5 -57.5zM1231 1278q-10 -76 -133 -199q-98 -98 -162 -544q-25 -170 -25 -285q0 -221 90 -217q41 2 48 33q4 18 -25 61q-4 6 0 12q2 4 10 2q29 -10 53 -37
q29 -35 25 -71q-14 -113 -166 -113q-80 0 -155.5 53.5t-135.5 53.5q-59 0 -100 -25t-43 -47q-6 -43 31 -43q27 0 61 22q6 4 12 0q4 -2 0 -10q-12 -18 -26 -30q-33 -33 -72 -39q-47 -8 -90 14q-53 27 -45 86q6 49 86 121q94 88 127 151q72 137 94 348q-37 -57 -104 -96
q-84 -47 -178 -39q-127 10 -195 101q-57 78 -57 202q0 35 4 72q20 152 137 272q137 141 332 140q100 -2 196 -8q88 -8 125 -9q133 0 142 70q4 27 -7 39q-25 -4 -43 -4q-94 0 -84 82q6 45 59.5 84t115.5 39q35 0 56 -28t15 -56q-4 -25 -20 -50q57 -28 47 -108zM711 905
q-10 193 -148 193q-82 0 -147 -47q-80 -61 -92 -179q-6 -68 31.5 -113.5t95.5 -45.5q59 0 98 34.5t39 94.5q0 84 -99 78q68 45 132 43q55 -3 90 -58z" />
    <glyph glyph-name="Eth" unicode="&#xd0;" horiz-adv-x="1591" 
d="M1622 375q-31 -195 -197 -318q-147 -111 -335 -118q-80 -4 -185 18q-113 23 -153 23q-133 0 -148 -105q-8 -66 86 -100q-43 -29 -88 -27q-51 2 -90 41t-31 92q4 35 17 70q-31 -37 -103 -37q-49 0 -90 43t-41 119q0 90 53.5 164.5t141.5 74.5q27 0 53 -8q-25 -12 -45 -26
q-45 -37 -51 -80q-6 -39 15.5 -57.5t62.5 -14.5q145 10 204 440q6 39 9 70q-78 -182 -295 -182q-92 0 -154 51l-143 -47l14 90l72 22q-43 80 -43 189q0 59 12 117q29 131 139 235q129 121 299 121q133 0 176 -66q-23 43 -22 101q0 20 4 43q10 70 70 112q49 35 108 35
q94 0 105 -133q-27 51 -72 51q-49 0 -57 -59q-10 -80 172 -174q264 -135 350 -211q190 -170 190 -428q0 -61 -10 -131zM1339 475q12 209 -133 356q-68 66 -217 146q-16 -49 -35 -162l129 41l-14 -88l-131 -43l-35 -215q43 90 135 90q66 0 97 -59q23 -45 16 -95
q-6 -41 -29 -84q-6 127 -75 127q-94 0 -109 -139q-8 -80 39 -123q39 -37 98 -37q84 0 152 48q102 71 112 237zM723 911q-12 199 -143 203q-106 2 -169 -75.5t-63 -184.5q0 -139 109 -139q104 0 123 127q14 94 -52 94q-29 0 -63 -25q49 86 135 86q82 0 123 -86z" />
    <glyph glyph-name="Ntilde" unicode="&#xd1;" horiz-adv-x="1521" 
d="M1378 1616q-10 -76 -71 -148q-72 -86 -158 -86q-31 0 -64 13l-120 49q-47 18 -88 18q-100 0 -158 -94l-8 4q6 76 74.5 157t154.5 81q31 0 61 -13l123 -51q41 -16 80 -16q100 0 168 92zM1630 1415q-143 -195 -278 -1159q-18 -129 -19 -227q0 -270 129 -271q49 0 101 29
q-43 -80 -164 -80q-180 0 -266 152q-63 -68 -144 -68q-63 0 -100 57q20 -6 41 -6q51 0 86 45q29 41 37 97q6 47 -31 153q-12 31 -84 209q-55 135 -182 316q-16 -55 -49 -232q-6 -41 -7 -90q0 -98 23 -168q27 -82 76 -82q51 0 51 47q0 33 -21 74q86 -45 74 -121
q-8 -61 -53 -98t-111 -37q-49 0 -136 38t-107 38q-92 0 -101 -58q-6 -51 49 -51q23 0 45 6q-66 -70 -118 -69q-117 0 -107 104q4 41 82 182q92 170 146 349q-76 -86 -173 -88q-100 -2 -172 43q-106 68 -106 227q0 35 6 74q33 244 252 364q137 76 252 76q51 0 96 -6
q16 66 94 108q72 39 133 33q66 -6 80 -47q-27 12 -53 12q-27 0 -53 -24q-31 -31 -39 -84q-14 -109 123 -353q47 -84 188 -276q12 76 37 246q8 59 8 116q0 221 -106 222q-61 0 -62 -70q0 -37 17 -84q-86 102 -78 170q18 156 188 156q119 0 154 -133q100 176 352 239zM541 797
q4 49 4 86q0 154 -88 153q-92 0 -161 -79.5t-69 -174.5q0 -133 121 -133q43 0 79 33t42 68q10 63 -55 63q-41 0 -78 -39q43 74 110 74q70 0 95 -51z" />
    <glyph glyph-name="Ograve" unicode="&#xd2;" horiz-adv-x="1656" 
d="M1231 1370l-23 -16l-204 293q-8 10 -17.5 31.5t-9.5 43.5q0 45 28.5 79t71.5 34q74 0 90 -94zM1634 457q-41 -274 -243 -432q-174 -137 -379 -138q-170 0 -293 111q-145 131 -166 373q-100 -84 -225 -84q-113 0 -186.5 82t-73.5 217q0 43 8 90q31 178 209 307t391 129
q70 0 143 -18q111 96 254 151q113 45 193 47q141 4 241 -53q121 -72 121 -213q0 -31 -6 -63q-12 -70 -68 -138q86 -84 86 -280q0 -45 -6 -88zM1350 1016q8 43 -21 70.5t-86 25.5q-104 -4 -225 -119q117 -82 190 -84q124 -2 142 107zM1358 524q0 131 -92 131
q-31 0 -58.5 -23.5t-33.5 -51.5q-6 -29 8 -70q-74 25 -74 100q0 41 22 92q-53 20 -109 68.5t-110 95.5q-66 -115 -82 -219q-10 -63 -10 -119q0 -168 92 -254q70 -63 158 -63q117 0 205 100q84 94 84 213zM715 977q-45 8 -56 8q-145 0 -256 -67q-121 -74 -145 -197
q-4 -23 -4 -41q0 -96 96 -96q49 0 92 33.5t52 82.5q10 70 -45 93q-23 10 -58 8q66 39 144 39q39 0 81 -37q33 92 99 174z" />
    <glyph glyph-name="Oacute" unicode="&#xd3;" horiz-adv-x="1656" 
d="M1559 1630q-6 -8 -31 -28l-291 -242l-23 14l154 322q4 12 18 33q35 45 95 45q31 0 55 -15q41 -25 41 -73q0 -31 -18 -56zM1634 457q-41 -274 -243 -432q-174 -137 -379 -138q-170 0 -293 111q-145 131 -166 373q-100 -84 -225 -84q-113 0 -186.5 82t-73.5 217q0 43 8 90
q31 178 209 307t391 129q70 0 143 -18q111 96 254 151q113 45 193 47q141 4 241 -53q121 -72 121 -213q0 -31 -6 -63q-12 -70 -68 -138q86 -84 86 -280q0 -45 -6 -88zM1350 1016q8 43 -21 70.5t-86 25.5q-104 -4 -225 -119q117 -82 190 -84q124 -2 142 107zM1358 524
q0 131 -92 131q-31 0 -58.5 -23.5t-33.5 -51.5q-6 -29 8 -70q-74 25 -74 100q0 41 22 92q-53 20 -109 68.5t-110 95.5q-66 -115 -82 -219q-10 -63 -10 -119q0 -168 92 -254q70 -63 158 -63q117 0 205 100q84 94 84 213zM715 977q-45 8 -56 8q-145 0 -256 -67
q-121 -74 -145 -197q-4 -23 -4 -41q0 -96 96 -96q49 0 92 33.5t52 82.5q10 70 -45 93q-23 10 -58 8q66 39 144 39q39 0 81 -37q33 92 99 174z" />
    <glyph glyph-name="Ocircumflex" unicode="&#xd4;" horiz-adv-x="1656" 
d="M1534 1372l-53 -47l-224 156l-266 -156l-41 47l338 289zM1634 457q-41 -274 -243 -432q-174 -137 -379 -138q-170 0 -293 111q-145 131 -166 373q-100 -84 -225 -84q-113 0 -186.5 82t-73.5 217q0 43 8 90q31 178 209 307t391 129q70 0 143 -18q111 96 254 151
q113 45 193 47q141 4 241 -53q121 -72 121 -213q0 -31 -6 -63q-12 -70 -68 -138q86 -84 86 -280q0 -45 -6 -88zM1350 1016q8 43 -21 70.5t-86 25.5q-104 -4 -225 -119q117 -82 190 -84q124 -2 142 107zM1358 524q0 131 -92 131q-31 0 -58.5 -23.5t-33.5 -51.5q-6 -29 8 -70
q-74 25 -74 100q0 41 22 92q-53 20 -109 68.5t-110 95.5q-66 -115 -82 -219q-10 -63 -10 -119q0 -168 92 -254q70 -63 158 -63q117 0 205 100q84 94 84 213zM715 977q-45 8 -56 8q-145 0 -256 -67q-121 -74 -145 -197q-4 -23 -4 -41q0 -96 96 -96q49 0 92 33.5t52 82.5
q10 70 -45 93q-23 10 -58 8q66 39 144 39q39 0 81 -37q33 92 99 174z" />
    <glyph glyph-name="Otilde" unicode="&#xd5;" horiz-adv-x="1656" 
d="M1577 1573q-10 -74 -72 -148q-72 -86 -155 -86q-33 0 -64 13l-121 49q-47 18 -90 18q-100 0 -155 -94l-11 6q8 76 72 152q72 84 158 84q31 0 61 -13l123 -51q41 -16 82 -16q98 0 166 92zM1634 457q-41 -274 -243 -432q-174 -137 -379 -138q-170 0 -293 111
q-145 131 -166 373q-100 -84 -225 -84q-113 0 -186.5 82t-73.5 217q0 43 8 90q31 178 209 307t391 129q70 0 143 -18q111 96 254 151q113 45 193 47q141 4 241 -53q121 -72 121 -213q0 -31 -6 -63q-12 -70 -68 -138q86 -84 86 -280q0 -45 -6 -88zM1350 1016q8 43 -21 70.5
t-86 25.5q-104 -4 -225 -119q117 -82 190 -84q124 -2 142 107zM1358 524q0 131 -92 131q-31 0 -58.5 -23.5t-33.5 -51.5q-6 -29 8 -70q-74 25 -74 100q0 41 22 92q-53 20 -109 68.5t-110 95.5q-66 -115 -82 -219q-10 -63 -10 -119q0 -168 92 -254q70 -63 158 -63
q117 0 205 100q84 94 84 213zM715 977q-45 8 -56 8q-145 0 -256 -67q-121 -74 -145 -197q-4 -23 -4 -41q0 -96 96 -96q49 0 92 33.5t52 82.5q10 70 -45 93q-23 10 -58 8q66 39 144 39q39 0 81 -37q33 92 99 174z" />
    <glyph glyph-name="Odieresis" unicode="&#xd6;" horiz-adv-x="1656" 
d="M1528 1460q-6 -43 -45 -78q-49 -43 -117 -43q-94 0 -84 82q6 45 59.5 84t114.5 39q37 0 57.5 -27.5t14.5 -56.5zM1208 1460q-6 -43 -47 -78q-47 -43 -117 -43q-94 0 -81 82q6 45 60 84t114 39q37 0 56 -26.5t15 -57.5zM1634 457q-41 -274 -243 -432q-174 -137 -379 -138
q-170 0 -293 111q-145 131 -166 373q-100 -84 -225 -84q-113 0 -186.5 82t-73.5 217q0 43 8 90q31 178 209 307t391 129q70 0 143 -18q111 96 254 151q113 45 193 47q141 4 241 -53q121 -72 121 -213q0 -31 -6 -63q-12 -70 -68 -138q86 -84 86 -280q0 -45 -6 -88zM1350 1016
q8 43 -21 70.5t-86 25.5q-104 -4 -225 -119q117 -82 190 -84q124 -2 142 107zM1358 524q0 131 -92 131q-31 0 -58.5 -23.5t-33.5 -51.5q-6 -29 8 -70q-74 25 -74 100q0 41 22 92q-53 20 -109 68.5t-110 95.5q-66 -115 -82 -219q-10 -63 -10 -119q0 -168 92 -254
q70 -63 158 -63q117 0 205 100q84 94 84 213zM715 977q-45 8 -56 8q-145 0 -256 -67q-121 -74 -145 -197q-4 -23 -4 -41q0 -96 96 -96q49 0 92 33.5t52 82.5q10 70 -45 93q-23 10 -58 8q66 39 144 39q39 0 81 -37q33 92 99 174z" />
    <glyph glyph-name="multiply" unicode="&#xd7;" horiz-adv-x="956" 
d="M809 758l-242 -211l178 -209l-96 -88l-180 209l-236 -207l-75 84l235 211l-178 207l98 88l181 -209l237 207z" />
    <glyph glyph-name="Oslash" unicode="&#xd8;" horiz-adv-x="1656" 
d="M1673 1446l-137 -225q92 -72 92 -197q0 -29 -6 -61q-10 -68 -68 -138q86 -84 86 -280q0 -45 -6 -88q-41 -274 -243 -432q-174 -137 -379 -138q-127 0 -240 70l-106 -178h-115l145 241q-123 127 -143 351q-100 -84 -225 -84q-113 0 -186.5 82t-73.5 217q0 43 8 90
q31 178 209 307t391 129q70 0 143 -18q111 96 254 151q115 45 193 47q106 2 184 -26l109 180h114zM1350 1016q8 43 -21 70.5t-86 25.5q-104 -4 -225 -119q117 -82 190 -84q124 -2 142 107zM1358 524q0 131 -92 131q-31 0 -58.5 -23.5t-33.5 -51.5q-6 -29 8 -70
q-74 25 -74 100q0 41 22 92q-53 20 -109 68.5t-110 95.5q-66 -115 -82 -219q-10 -63 -10 -119q0 -168 92 -254q70 -63 158 -63q117 0 205 100q84 94 84 213zM715 977q-45 8 -56 8q-145 0 -256 -67q-121 -74 -145 -197q-4 -23 -4 -41q0 -96 96 -96q49 0 92 33.5t52 82.5
q10 70 -45 93q-23 10 -58 8q66 39 144 39q39 0 81 -37q33 92 99 174z" />
    <glyph glyph-name="Ugrave" unicode="&#xd9;" horiz-adv-x="1660" 
d="M1221 1251l-25 -16l-205 295q-6 10 -15 31.5t-9 44.5q0 43 28.5 77.5t71.5 34.5q74 0 90 -96zM1696 1282q-98 -127 -174 -401q-90 -332 -90 -574q0 -258 131 -258q51 0 110 53q-106 -233 -276 -233q-102 0 -158 80q-47 66 -47 149q0 33 8 56q-43 -74 -94 -127
q-125 -131 -281 -144q-170 -14 -256 78q-63 70 -67 180q-2 86 28 211q25 92 52 185q-109 -154 -316 -142q-238 14 -237 287q0 51 8 109q25 172 176 278q121 86 248 92q162 8 282 -78q35 55 84 97q119 98 295 102q-51 -57 -96 -143q-109 -209 -168 -525q-31 -166 -31 -249
q0 -131 74 -132q80 0 143 93q49 70 58 127q8 49 -10.5 82.5t-51.5 33.5q-72 0 -100 -39q6 57 51 111q47 61 103 61q66 0 96 -57q14 63 14 137q0 195 -108 289q63 35 129 35q76 0 129 -51q123 211 342 227zM608 825q4 84 -34.5 144.5t-100.5 60.5q-106 0 -174 -63
q-61 -55 -74 -142q-8 -63 19.5 -99t77.5 -36q133 0 149 109q6 47 -27.5 76.5t-91.5 25.5q25 12 97 29q108 8 159 -105z" />
    <glyph glyph-name="Uacute" unicode="&#xda;" horiz-adv-x="1660" 
d="M1505 1544q-6 -8 -30 -28l-291 -240l-23 14l154 320q4 12 16 35q37 43 94 43q41 0 70 -25t29 -64q-1 -30 -19 -55zM1696 1282q-98 -127 -174 -401q-90 -332 -90 -574q0 -258 131 -258q51 0 110 53q-106 -233 -276 -233q-102 0 -158 80q-47 66 -47 149q0 33 8 56
q-43 -74 -94 -127q-125 -131 -281 -144q-170 -14 -256 78q-63 70 -67 180q-2 86 28 211q25 92 52 185q-109 -154 -316 -142q-238 14 -237 287q0 51 8 109q25 172 176 278q121 86 248 92q162 8 282 -78q35 55 84 97q119 98 295 102q-51 -57 -96 -143q-109 -209 -168 -525
q-31 -166 -31 -249q0 -131 74 -132q80 0 143 93q49 70 58 127q8 49 -10.5 82.5t-51.5 33.5q-72 0 -100 -39q6 57 51 111q47 61 103 61q66 0 96 -57q14 63 14 137q0 195 -108 289q63 35 129 35q76 0 129 -51q123 211 342 227zM608 825q4 84 -34.5 144.5t-100.5 60.5
q-106 0 -174 -63q-61 -55 -74 -142q-8 -63 19.5 -99t77.5 -36q133 0 149 109q6 47 -27.5 76.5t-91.5 25.5q25 12 97 29q108 8 159 -105z" />
    <glyph glyph-name="Ucircumflex" unicode="&#xdb;" horiz-adv-x="1660" 
d="M1372 1317l-51 -45l-223 155l-267 -155l-40 45l335 291zM1696 1282q-98 -127 -174 -401q-90 -332 -90 -574q0 -258 131 -258q51 0 110 53q-106 -233 -276 -233q-102 0 -158 80q-47 66 -47 149q0 33 8 56q-43 -74 -94 -127q-125 -131 -281 -144q-170 -14 -256 78
q-63 70 -67 180q-2 86 28 211q25 92 52 185q-109 -154 -316 -142q-238 14 -237 287q0 51 8 109q25 172 176 278q121 86 248 92q162 8 282 -78q35 55 84 97q119 98 295 102q-51 -57 -96 -143q-109 -209 -168 -525q-31 -166 -31 -249q0 -131 74 -132q80 0 143 93q49 70 58 127
q8 49 -10.5 82.5t-51.5 33.5q-72 0 -100 -39q6 57 51 111q47 61 103 61q66 0 96 -57q14 63 14 137q0 195 -108 289q63 35 129 35q76 0 129 -51q123 211 342 227zM608 825q4 84 -34.5 144.5t-100.5 60.5q-106 0 -174 -63q-61 -55 -74 -142q-8 -63 19.5 -99t77.5 -36
q133 0 149 109q6 47 -27.5 76.5t-91.5 25.5q25 12 97 29q108 8 159 -105z" />
    <glyph glyph-name="Udieresis" unicode="&#xdc;" horiz-adv-x="1660" 
d="M1468 1456q-6 -43 -47 -78q-49 -43 -116 -43q-92 0 -82 82q6 45 59 84t115 39q35 0 56 -26.5t15 -57.5zM1149 1456q-6 -43 -47 -78q-49 -43 -117 -43q-94 0 -82 82q6 45 59.5 84t112.5 39q37 0 58.5 -26.5t15.5 -57.5zM1696 1282q-98 -127 -174 -401q-90 -332 -90 -574
q0 -258 131 -258q51 0 110 53q-106 -233 -276 -233q-102 0 -158 80q-47 66 -47 149q0 33 8 56q-43 -74 -94 -127q-125 -131 -281 -144q-170 -14 -256 78q-63 70 -67 180q-2 86 28 211q25 92 52 185q-109 -154 -316 -142q-238 14 -237 287q0 51 8 109q25 172 176 278
q121 86 248 92q162 8 282 -78q35 55 84 97q119 98 295 102q-51 -57 -96 -143q-109 -209 -168 -525q-31 -166 -31 -249q0 -131 74 -132q80 0 143 93q49 70 58 127q8 49 -10.5 82.5t-51.5 33.5q-72 0 -100 -39q6 57 51 111q47 61 103 61q66 0 96 -57q14 63 14 137
q0 195 -108 289q63 35 129 35q76 0 129 -51q123 211 342 227zM608 825q4 84 -34.5 144.5t-100.5 60.5q-106 0 -174 -63q-61 -55 -74 -142q-8 -63 19.5 -99t77.5 -36q133 0 149 109q6 47 -27.5 76.5t-91.5 25.5q25 12 97 29q108 8 159 -105z" />
    <glyph glyph-name="Yacute" unicode="&#xdd;" horiz-adv-x="1548" 
d="M1473 1767q-18 -18 -31 -26l-289 -242l-25 14l154 322q6 10 18 33q35 45 95 45q31 0 55 -15q43 -23 43 -71q0 -33 -20 -60zM1657 1073q-39 -274 -410 -522q-29 -96 -69 -285q-2 -16 -2 -30q0 -61 27.5 -105.5t70.5 -44.5q76 0 84 59q4 35 -35 54q119 -10 102 -123
q-18 -123 -151 -123q-16 0 -31 2q-35 6 -119 39q-68 27 -120 26q-49 0 -90.5 -33.5t-47.5 -72.5q-14 -94 78 -98q39 -2 64.5 24.5t25.5 59.5q0 10 -2 18q37 -37 31 -78t-49 -78q-51 -47 -125 -53q-94 -8 -172 41q-86 57 -72 156q12 84 111 166q63 51 125 102q37 51 41 133
q-45 -68 -119 -67q-102 0 -86 116q16 109 155 201q-53 -96 -53 -147q0 -39 37 -39q63 0 82 39q12 23 25 122q-246 473 -424 474q-82 0 -144 -48q-78 -59 -90 -174q-6 -68 31 -112.5t94 -44.5q59 0 97 34.5t38 92.5q0 82 -98 75q31 18 129 43q70 4 113 -64.5t32 -139.5
q-20 -160 -137 -246q-100 -74 -217 -66q-125 10 -190 99q-59 80 -60 202q0 35 6 72q25 170 140 324q139 188 327 188q106 0 236 -104q-12 35 -6 86q6 43 54 78.5t105 33.5q47 -2 84 -30q49 -35 50 -95q0 -59 -50 -133q12 117 -67 117q-51 0 -64 -80q-8 -63 72 -192
q8 -12 119 -166q55 43 96 94q102 121 121 256q4 33 4 63q0 240 -277 240q-43 0 -79 -6q166 78 309 67q119 -8 215 -77q129 -92 129 -256q0 -31 -4 -64z" />
    <glyph glyph-name="Thorn" unicode="&#xde;" horiz-adv-x="1495" 
d="M1569 936q14 -55 14 -119q0 -219 -145 -391q-158 -186 -379 -172q-102 6 -164 86q-8 -51 -8 -96q0 -102 32.5 -157.5t81.5 -53.5q41 2 48 33q4 18 -25 61q-4 6 0 12q2 4 10 2q29 -10 53 -37q29 -35 25 -71q-14 -113 -166 -113q-80 0 -155.5 53.5t-135.5 53.5
q-59 0 -100 -25t-43 -47q-6 -43 31 -43q27 0 61 22q6 4 12 0q4 -2 0 -10q-12 -18 -26 -30q-33 -33 -72 -39q-47 -8 -90 14q-53 27 -45 86q6 49 88 121q98 86 131 151q27 53 31 62q10 27 24 106q-104 -158 -280 -143q-125 10 -193 100q-59 80 -59 205q0 35 6 72
q20 152 137 278q137 152 328 152q37 0 74 -6q-4 137 -146 155q72 72 150 74q119 4 184 -90q47 -66 55 -156q84 96 332 109q117 6 207 -50.5t117 -158.5zM1319 866q-10 117 -111 117q-223 0 -276 -352l2 2q2 4 2 2q68 68 145 67q-49 -41 -55 -84q-4 -35 13.5 -60.5
t47.5 -25.5q84 0 163 112.5t69 221.5zM682 717q-12 193 -150 192q-82 0 -145 -47q-82 -61 -94 -176q-8 -68 32 -114t97 -46q59 0 98 35t39 92q0 84 -100 78q70 47 133 43q59 -4 90 -57z" />
    <glyph glyph-name="germandbls" unicode="&#xdf;" horiz-adv-x="1089" 
d="M993 922q-23 -90 -88 -140q-43 -33 -170 -82q188 -59 236 -176q23 -53 22 -125q0 -145 -98 -274q-131 -174 -301 -174q-74 0 -121 29l14 34q76 -2 120 46.5t59 97.5q57 205 47 354q-6 88 -41 125q-27 27 -84 39l4 37q29 14 49 30q53 39 64 82q35 133 28 246q-4 78 -71 86
q-96 12 -117 -127l-146 -1036h-346l-4 33q27 12 47 26q47 37 54 80l110 785q12 80 74 159q70 88 172 131q84 35 176 35q129 0 215 -61q104 -76 104 -191q0 -32 -8 -69z" />
    <glyph glyph-name="agrave" unicode="&#xe0;" 
d="M567 829l-22 -16l-205 295q-8 10 -17.5 30.5t-9.5 43.5q0 45 29 79.5t74 34.5q74 0 90 -96zM1126 281q-57 -109 -157 -197q-137 -119 -275 -119q-133 0 -127 137q-53 -51 -141 -90q-98 -43 -178 -41q-117 2 -162 97q-33 68 -25 163q14 145 119 281q139 180 365 215
q39 6 78 6q88 0 157.5 -26.5t87.5 -61.5q-27 -78 -37 -115q-27 -111 -32 -249q-4 -96 71 -97q45 0 119 58q57 43 98 90zM604 471q2 41 -4 57q-12 27 -49 25q-82 -4 -158 -111q-68 -94 -69 -161q-2 -86 61 -86q72 0 145 104q70 98 74 172z" />
    <glyph glyph-name="aacute" unicode="&#xe1;" 
d="M971 1096q-6 -8 -31 -29l-291 -242l-22 15l153 321q4 12 19 33q35 45 94 45q31 0 55 -14q41 -25 41 -74q0 -30 -18 -55zM1126 281q-57 -109 -157 -197q-137 -119 -275 -119q-133 0 -127 137q-53 -51 -141 -90q-98 -43 -178 -41q-117 2 -162 97q-33 68 -25 163
q14 145 119 281q139 180 365 215q39 6 78 6q88 0 157.5 -26.5t87.5 -61.5q-27 -78 -37 -115q-27 -111 -32 -249q-4 -96 71 -97q45 0 119 58q57 43 98 90zM604 471q2 41 -4 57q-12 27 -49 25q-82 -4 -158 -111q-68 -94 -69 -161q-2 -86 61 -86q72 0 145 104q70 98 74 172z
" />
    <glyph glyph-name="acircumflex" unicode="&#xe2;" 
d="M825 825l-53 -45l-223 156l-266 -156l-41 45l338 291zM1126 281q-57 -109 -157 -197q-137 -119 -275 -119q-133 0 -127 137q-53 -51 -141 -90q-98 -43 -178 -41q-117 2 -162 97q-33 68 -25 163q14 145 119 281q139 180 365 215q39 6 78 6q88 0 157.5 -26.5t87.5 -61.5
q-27 -78 -37 -115q-27 -111 -32 -249q-4 -96 71 -97q45 0 119 58q57 43 98 90zM604 471q2 41 -4 57q-12 27 -49 25q-82 -4 -158 -111q-68 -94 -69 -161q-2 -86 61 -86q72 0 145 104q70 98 74 172z" />
    <glyph glyph-name="atilde" unicode="&#xe3;" 
d="M950 1028q-10 -76 -71 -147q-72 -86 -156 -86q-33 0 -64 12l-120 49q-47 18 -90 18q-100 0 -156 -94l-10 4q8 76 71 154q72 84 158 84q31 0 61 -12l123 -52q41 -16 82 -16q98 0 166 92zM1126 281q-57 -109 -157 -197q-137 -119 -275 -119q-133 0 -127 137
q-53 -51 -141 -90q-98 -43 -178 -41q-117 2 -162 97q-33 68 -25 163q14 145 119 281q139 180 365 215q39 6 78 6q88 0 157.5 -26.5t87.5 -61.5q-27 -78 -37 -115q-27 -111 -32 -249q-4 -96 71 -97q45 0 119 58q57 43 98 90zM604 471q2 41 -4 57q-12 27 -49 25
q-82 -4 -158 -111q-68 -94 -69 -161q-2 -86 61 -86q72 0 145 104q70 98 74 172z" />
    <glyph glyph-name="adieresis" unicode="&#xe4;" 
d="M862 930q-6 -43 -47 -78q-47 -43 -115 -43q-94 0 -84 82q6 45 59.5 84t115.5 39q35 0 56 -27.5t15 -56.5zM543 930q-6 -43 -47 -78q-47 -43 -117 -43q-94 0 -82 82q6 45 60.5 84t113.5 39q37 0 56.5 -26.5t15.5 -57.5zM1126 281q-57 -109 -157 -197q-137 -119 -275 -119
q-133 0 -127 137q-53 -51 -141 -90q-98 -43 -178 -41q-117 2 -162 97q-33 68 -25 163q14 145 119 281q139 180 365 215q39 6 78 6q88 0 157.5 -26.5t87.5 -61.5q-27 -78 -37 -115q-27 -111 -32 -249q-4 -96 71 -97q45 0 119 58q57 43 98 90zM604 471q2 41 -4 57
q-12 27 -49 25q-82 -4 -158 -111q-68 -94 -69 -161q-2 -86 61 -86q72 0 145 104q70 98 74 172z" />
    <glyph glyph-name="aring" unicode="&#xe5;" 
d="M563 807q-82 0 -134 52t-52 130q0 98 73.5 172t170.5 74q82 0 135 -52.5t53 -131.5q0 -98 -74 -171t-172 -73zM1126 281q-57 -109 -157 -197q-137 -119 -275 -119q-133 0 -127 137q-53 -51 -141 -90q-98 -43 -178 -41q-117 2 -162 97q-33 68 -25 163q14 145 119 281
q139 180 365 215q39 6 78 6q88 0 157.5 -26.5t87.5 -61.5q-27 -78 -37 -115q-27 -111 -32 -249q-4 -96 71 -97q45 0 119 58q57 43 98 90zM715 1020q6 49 -25 85t-82 36q-49 0 -90 -36t-47 -85q-6 -51 24.5 -86t79.5 -35q51 0 92.5 35t47.5 86zM604 471q2 41 -4 57
q-12 27 -49 25q-82 -4 -158 -111q-68 -94 -69 -161q-2 -86 61 -86q72 0 145 104q70 98 74 172z" />
    <glyph glyph-name="ae" unicode="&#xe6;" horiz-adv-x="1441" 
d="M1530 283q-59 -98 -234 -197q-217 -125 -440 -125q-205 0 -266 168q-53 -70 -153.5 -115t-188.5 -43q-117 2 -162 97q-33 68 -25 163q14 145 119 281q139 180 365 215q45 6 88 6q164 0 217 -65q117 63 244 63q199 0 211 -164q8 -104 -113 -215q-131 -121 -330 -153
q33 -51 111 -52q147 0 321 76q125 53 197 111zM1065 498q2 55 -45 55q-61 0 -125 -85t-66 -163v-26q100 37 172 112q62 66 64 107zM604 471q2 41 -4 57q-12 27 -49 25q-82 -4 -158 -111q-68 -94 -69 -161q-2 -86 61 -86q72 0 145 104q70 98 74 172z" />
    <glyph glyph-name="ccedilla" unicode="&#xe7;" horiz-adv-x="823" 
d="M1059 281q-66 -102 -236 -201q-221 -129 -452 -125l-21 -64q63 6 131 -47q82 -63 68 -163q-14 -106 -107 -168q-78 -53 -176 -54q-88 0 -140 48.5t-46 115.5q6 63 55 104.5t105 41.5q51 0 74.5 -37t19.5 -86q-20 35 -45 35q-53 0 -64 -58q-10 -59 64 -59q33 0 65.5 38
t38.5 89q6 53 -44 93t-120 40l50 141q-225 43 -218 301q6 162 148 305q160 160 375 160q92 0 151.5 -43t61.5 -121q2 -90 -56 -168q-66 -84 -161 -75q-84 8 -84 106q0 27 6 57q14 -37 51 -36q20 0 36.5 21.5t18.5 47.5q4 53 -43 53q-94 0 -172 -96q-70 -86 -71 -172
q-4 -170 174 -170q164 0 335 80q115 53 189 117z" />
    <glyph glyph-name="egrave" unicode="&#xe8;" horiz-adv-x="804" 
d="M514 819l-22 -16l-205 295q-8 10 -17.5 30.5t-9.5 42.5q0 43 28.5 78t71.5 35q76 0 93 -94zM1008 283q-59 -98 -234 -197q-217 -125 -440 -125q-166 0 -238 111q-51 76 -49 180q2 166 148 315q160 164 376 164q201 0 213 -164q8 -104 -114 -215q-131 -121 -330 -153
q37 -51 111 -52q147 0 321 76q125 53 197 111zM543 498q2 55 -45 55q-61 0 -125 -85t-66 -163v-26q100 37 174 112q60 66 62 107z" />
    <glyph glyph-name="eacute" unicode="&#xe9;" horiz-adv-x="804" 
d="M864 1096q-6 -8 -30 -29l-291 -242l-23 15l154 321q4 12 16 33q35 45 96 45q39 0 68 -24.5t29 -63.5q-1 -30 -19 -55zM1008 283q-59 -98 -234 -197q-217 -125 -440 -125q-166 0 -238 111q-51 76 -49 180q2 166 148 315q160 164 376 164q201 0 213 -164q8 -104 -114 -215
q-131 -121 -330 -153q37 -51 111 -52q147 0 321 76q125 53 197 111zM543 498q2 55 -45 55q-61 0 -125 -85t-66 -163v-26q100 37 174 112q60 66 62 107z" />
    <glyph glyph-name="ecircumflex" unicode="&#xea;" horiz-adv-x="804" 
d="M797 825l-54 -45l-223 156l-266 -156l-41 45l338 291zM1008 283q-59 -98 -234 -197q-217 -125 -440 -125q-166 0 -238 111q-51 76 -49 180q2 166 148 315q160 164 376 164q201 0 213 -164q8 -104 -114 -215q-131 -121 -330 -153q37 -51 111 -52q147 0 321 76
q125 53 197 111zM543 498q2 55 -45 55q-61 0 -125 -85t-66 -163v-26q100 37 174 112q60 66 62 107z" />
    <glyph glyph-name="edieresis" unicode="&#xeb;" horiz-adv-x="804" 
d="M819 930q-6 -43 -45 -78q-47 -43 -117 -43q-94 0 -84 82q6 45 59.5 84t115.5 39q37 0 57 -27.5t14 -56.5zM500 930q-6 -43 -47 -78q-47 -43 -117 -43q-94 0 -82 82q6 45 60.5 84t113.5 39q37 0 56.5 -26.5t15.5 -57.5zM1008 283q-59 -98 -234 -197q-217 -125 -440 -125
q-166 0 -238 111q-51 76 -49 180q2 166 148 315q160 164 376 164q201 0 213 -164q8 -104 -114 -215q-131 -121 -330 -153q37 -51 111 -52q147 0 321 76q125 53 197 111zM543 498q2 55 -45 55q-61 0 -125 -85t-66 -163v-26q100 37 174 112q60 66 62 107z" />
    <glyph glyph-name="igrave" unicode="&#xec;" horiz-adv-x="464" 
d="M301 819l-22 -16l-205 295q-8 10 -17.5 30.5t-9.5 42.5q0 45 27.5 79t70.5 34q59 0 82 -55q4 -10 13 -39zM664 281q-57 -109 -158 -197q-137 -119 -275 -119q-63 0 -97 41t-32 107q2 68 42 209t40 151q0 53 -37 53q-12 0 -69 -43l-47 56q66 59 131 118q88 78 131 82
q68 6 99.5 -40t23.5 -119q-27 -125 -58 -318q-2 -88 64 -88q29 0 102 62q61 51 101 96z" />
    <glyph glyph-name="iacute" unicode="&#xed;" horiz-adv-x="464" 
d="M649 1096l-28 -29l-291 -242l-23 15l152 321q4 12 18 33q35 45 96 45q39 0 68 -24.5t29 -61.5q-1 -32 -21 -57zM664 281q-57 -109 -158 -197q-137 -119 -275 -119q-63 0 -97 41t-32 107q2 68 42 209t40 151q0 53 -37 53q-12 0 -69 -43l-47 56q66 59 131 118q88 78 131 82
q68 6 99.5 -40t23.5 -119q-27 -125 -58 -318q-2 -88 64 -88q29 0 102 62q61 51 101 96z" />
    <glyph glyph-name="icircumflex" unicode="&#xee;" horiz-adv-x="464" 
d="M604 825l-51 -45l-225 156l-267 -156l-41 45l338 291zM664 281q-57 -109 -158 -197q-137 -119 -275 -119q-63 0 -97 41t-32 107q2 68 42 209t40 151q0 53 -37 53q-12 0 -69 -43l-47 56q66 59 131 118q88 78 131 82q68 6 99.5 -40t23.5 -119q-27 -125 -58 -318
q-2 -88 64 -88q29 0 102 62q61 51 101 96z" />
    <glyph glyph-name="idieresis" unicode="&#xef;" horiz-adv-x="464" 
d="M627 930q-6 -43 -45 -78q-47 -43 -117 -43q-94 0 -84 82q6 45 59.5 84t114.5 39q37 0 57.5 -27.5t14.5 -56.5zM307 930q-6 -43 -47 -78q-47 -43 -117 -43q-94 0 -82 82q6 45 60.5 84t114.5 39q37 0 56 -26.5t15 -57.5zM664 281q-57 -109 -158 -197q-137 -119 -275 -119
q-63 0 -97 41t-32 107q2 68 42 209t40 151q0 53 -37 53q-12 0 -69 -43l-47 56q66 59 131 118q88 78 131 82q68 6 99.5 -40t23.5 -119q-27 -125 -58 -318q-2 -88 64 -88q29 0 102 62q61 51 101 96z" />
    <glyph glyph-name="eth" unicode="&#xf0;" horiz-adv-x="966" 
d="M860 668q0 -258 -100 -465q-119 -250 -324 -250q-92 0 -198 55q-51 27 -99 103q-59 94 -59 200q0 111 65 219q111 184 301 185q131 0 222 -80q8 70 8 131q0 139 -45 242l-293 -191l-37 82l283 184q-51 63 -119 84q-25 8 -51 9q-88 0 -178 -91l-105 138q154 63 260 63
q53 0 103 -12q111 -29 196 -121l125 82l39 -82l-111 -72q117 -184 117 -413zM647 506q-57 82 -158 82q-150 0 -200 -240q-12 -55 -13 -112q0 -123 56 -154q37 -20 74 -21q92 0 172 150q44 84 69 295z" />
    <glyph glyph-name="ntilde" unicode="&#xf1;" horiz-adv-x="927" 
d="M950 1028q-10 -76 -71 -147q-72 -86 -156 -86q-33 0 -64 12l-120 49q-47 18 -90 18q-100 0 -156 -94l-10 4q8 76 71 154q72 84 158 84q31 0 61 -12l123 -52q41 -16 82 -16q98 0 166 92zM1130 281q-57 -109 -157 -197q-137 -119 -275 -119q-133 0 -129 148q2 68 22.5 161
t22.5 142q4 76 -41 76q-68 0 -147 -109q-88 -119 -92 -252q-4 -131 14 -174q-254 -6 -254 193q0 20 2 43q35 119 70 292q2 41 -19 41q-12 0 -69 -43l-47 56q10 8 129 120q84 80 114 80q94 0 95 -133q0 -31 -7 -61q51 47 105 82q127 82 244 92q98 8 141 -47q37 -45 33 -129
q-2 -57 -28 -167t-26 -126q-2 -43 8.5 -59.5t49.5 -16.5q29 0 102 62q61 51 101 96z" />
    <glyph glyph-name="ograve" unicode="&#xf2;" horiz-adv-x="845" 
d="M514 840l-22 -15l-205 293q-8 10 -17.5 30.5t-9.5 43.5q0 45 29.5 80t72.5 35q74 0 91 -97zM840 420q-8 -188 -139.5 -325.5t-325.5 -137.5q-162 0 -246 104q-61 78 -68 195q-10 176 127 324q147 164 371 163q143 0 217 -96q70 -88 64 -227zM608 428q2 55 -15.5 101
t-49.5 46q-104 0 -172 -112q-57 -92 -62 -197q-2 -51 19 -90q23 -45 63 -45q92 0 158 109q55 90 59 188z" />
    <glyph glyph-name="oacute" unicode="&#xf3;" horiz-adv-x="845" 
d="M885 1096q-6 -8 -31 -29l-289 -242l-24 15l153 321q6 10 19 33q35 45 94 45q31 0 55 -14q43 -23 43 -72q0 -30 -20 -57zM840 420q-8 -188 -139.5 -325.5t-325.5 -137.5q-162 0 -246 104q-61 78 -68 195q-10 176 127 324q147 164 371 163q143 0 217 -96q70 -88 64 -227z
M608 428q2 55 -15.5 101t-49.5 46q-104 0 -172 -112q-57 -92 -62 -197q-2 -51 19 -90q23 -45 63 -45q92 0 158 109q55 90 59 188z" />
    <glyph glyph-name="ocircumflex" unicode="&#xf4;" horiz-adv-x="845" 
d="M786 825l-51 -45l-223 156l-266 -156l-41 45l336 291zM840 420q-8 -188 -139.5 -325.5t-325.5 -137.5q-162 0 -246 104q-61 78 -68 195q-10 176 127 324q147 164 371 163q143 0 217 -96q70 -88 64 -227zM608 428q2 55 -15.5 101t-49.5 46q-104 0 -172 -112
q-57 -92 -62 -197q-2 -51 19 -90q23 -45 63 -45q92 0 158 109q55 90 59 188z" />
    <glyph glyph-name="otilde" unicode="&#xf5;" horiz-adv-x="845" 
d="M918 1028q-10 -76 -72 -147q-72 -86 -158 -86q-31 0 -63 12l-121 49q-47 18 -90 18q-100 0 -156 -94l-8 4q6 76 74.5 157t152.5 81q31 0 62 -12l123 -52q41 -16 81 -16q98 0 166 92zM840 420q-8 -188 -139.5 -325.5t-325.5 -137.5q-162 0 -246 104q-61 78 -68 195
q-10 176 127 324q147 164 371 163q143 0 217 -96q70 -88 64 -227zM608 428q2 55 -15.5 101t-49.5 46q-104 0 -172 -112q-57 -92 -62 -197q-2 -51 19 -90q23 -45 63 -45q92 0 158 109q55 90 59 188z" />
    <glyph glyph-name="odieresis" unicode="&#xf6;" horiz-adv-x="845" 
d="M840 930q-4 -43 -45 -78q-47 -43 -117 -43q-94 0 -84 82q6 45 60.5 84t115.5 39q35 0 56.5 -27.5t13.5 -56.5zM522 930q-6 -43 -47 -80q-47 -41 -117 -41q-94 0 -82 82q6 45 59.5 84t113.5 39q37 0 57 -26.5t16 -57.5zM840 420q-8 -188 -139.5 -325.5t-325.5 -137.5
q-162 0 -246 104q-61 78 -68 195q-10 176 127 324q147 164 371 163q143 0 217 -96q70 -88 64 -227zM608 428q2 55 -15.5 101t-49.5 46q-104 0 -172 -112q-57 -92 -62 -197q-2 -51 19 -90q23 -45 63 -45q92 0 158 109q55 90 59 188z" />
    <glyph glyph-name="divide" unicode="&#xf7;" horiz-adv-x="956" 
d="M694 821q-8 -49 -51 -90q-53 -47 -129 -47q-106 0 -92 92q8 49 67.5 93t124.5 44q39 0 61.5 -29.5t18.5 -62.5zM866 608l-26 -123h-711l25 123h712zM594 307q-8 -51 -51 -90q-51 -47 -127 -47q-109 0 -94 92q8 47 67.5 92t124.5 45q39 0 61.5 -29.5t18.5 -62.5z" />
    <glyph glyph-name="oslash" unicode="&#xf8;" horiz-adv-x="845" 
d="M895 891q-74 -104 -150 -211q100 -86 95 -260q-6 -188 -135 -324q-135 -139 -330 -139q-57 0 -121 18l-123 -174h-115l154 219q-100 82 -109 236q-8 176 127 324q147 164 371 163q63 0 105 -14l114 162h117zM555 573q-2 2 -12 2q-104 0 -172 -112q-57 -92 -62 -197
q0 -23 2 -41zM608 428q0 27 -2 49l-239 -340q12 -6 24 -6q92 0 158 109q55 92 59 188z" />
    <glyph glyph-name="ugrave" unicode="&#xf9;" horiz-adv-x="972" 
d="M547 819l-23 -16l-205 295q-8 10 -17 30.5t-9 42.5q0 45 27.5 79t70.5 34q59 0 82 -55q4 -10 12 -39zM1192 281q-57 -106 -160 -197q-135 -119 -274 -119q-53 0 -91 41t-38 105q0 23 6 47q-51 -47 -103 -82q-127 -86 -245 -94q-100 -8 -144 47q-35 45 -30 129
q2 59 35.5 180t33.5 135q2 53 -37 53q-12 0 -69 -43l-47 56q66 59 131 118q88 78 133 82q66 6 101.5 -35.5t33.5 -109.5q-2 -51 -23.5 -160.5t-21.5 -148.5q-2 -74 41 -74q61 0 140 91t81 171q2 31 -16.5 54.5t-48.5 23.5q-33 0 -68 -14q61 219 252 213q156 -4 151 -170
q-2 -53 -24 -160q-25 -113 -27 -139q-6 -96 72 -97q84 0 217 148z" />
    <glyph glyph-name="uacute" unicode="&#xfa;" horiz-adv-x="972" 
d="M874 1096q-6 -8 -30 -29l-291 -242l-23 15l154 321q4 12 18 33q35 45 95 45q31 0 55 -14q41 -25 41 -74q-1 -30 -19 -55zM1192 281q-57 -106 -160 -197q-135 -119 -274 -119q-53 0 -91 41t-38 105q0 23 6 47q-51 -47 -103 -82q-127 -86 -245 -94q-100 -8 -144 47
q-35 45 -30 129q2 59 35.5 180t33.5 135q2 53 -37 53q-12 0 -69 -43l-47 56q66 59 131 118q88 78 133 82q66 6 101.5 -35.5t33.5 -109.5q-2 -51 -23.5 -160.5t-21.5 -148.5q-2 -74 41 -74q61 0 140 91t81 171q2 31 -16.5 54.5t-48.5 23.5q-33 0 -68 -14q61 219 252 213
q156 -4 151 -170q-2 -53 -24 -160q-25 -113 -27 -139q-6 -96 72 -97q84 0 217 148z" />
    <glyph glyph-name="ucircumflex" unicode="&#xfb;" horiz-adv-x="972" 
d="M817 858l-51 -45l-225 156l-265 -156l-40 45l335 291zM1192 281q-57 -106 -160 -197q-135 -119 -274 -119q-53 0 -91 41t-38 105q0 23 6 47q-51 -47 -103 -82q-127 -86 -245 -94q-100 -8 -144 47q-35 45 -30 129q2 59 35.5 180t33.5 135q2 53 -37 53q-12 0 -69 -43
l-47 56q66 59 131 118q88 78 133 82q66 6 101.5 -35.5t33.5 -109.5q-2 -51 -23.5 -160.5t-21.5 -148.5q-2 -74 41 -74q61 0 140 91t81 171q2 31 -16.5 54.5t-48.5 23.5q-33 0 -68 -14q61 219 252 213q156 -4 151 -170q-2 -53 -24 -160q-25 -113 -27 -139q-6 -96 72 -97
q84 0 217 148z" />
    <glyph glyph-name="udieresis" unicode="&#xfc;" horiz-adv-x="972" 
d="M850 930q-6 -43 -47 -78q-47 -43 -115 -43q-94 0 -84 82q6 45 59.5 84t114.5 39q35 0 56.5 -27.5t15.5 -56.5zM530 930q-6 -43 -47 -78q-47 -43 -116 -43q-94 0 -82 82q6 45 59 84t113 39q37 0 57 -26.5t16 -57.5zM1192 281q-57 -106 -160 -197q-135 -119 -274 -119
q-53 0 -91 41t-38 105q0 23 6 47q-51 -47 -103 -82q-127 -86 -245 -94q-100 -8 -144 47q-35 45 -30 129q2 59 35.5 180t33.5 135q2 53 -37 53q-12 0 -69 -43l-47 56q66 59 131 118q88 78 133 82q66 6 101.5 -35.5t33.5 -109.5q-2 -51 -23.5 -160.5t-21.5 -148.5
q-2 -74 41 -74q61 0 140 91t81 171q2 31 -16.5 54.5t-48.5 23.5q-33 0 -68 -14q61 219 252 213q156 -4 151 -170q-2 -53 -24 -160q-25 -113 -27 -139q-6 -96 72 -97q84 0 217 148z" />
    <glyph glyph-name="yacute" unicode="&#xfd;" horiz-adv-x="940" 
d="M834 1057l-291 -242l-23 14l154 322q4 12 16 33q35 45 96 45q39 0 68 -24.5t29 -63.5q0 -51 -49 -84zM1186 270q-119 -125 -391 -260q-86 -256 -203 -409q-137 -180 -285 -181q-219 0 -201 199q10 115 150 215q98 72 319 172q23 57 39 139q-45 -43 -94 -75
q-119 -80 -237 -88q-100 -8 -144 47q-35 45 -30 129q2 61 37.5 186t35.5 129q2 53 -37 53q-12 0 -69 -43l-47 56q66 59 131 118q88 78 133 82q66 6 100.5 -35.5t34.5 -109.5q0 -39 -22 -152q-25 -119 -27 -157q-2 -74 41 -74q61 0 140 91t81 171q2 31 -16.5 54.5t-46.5 23.5
q-35 0 -68 -14q59 219 250 213q158 -4 151 -175q-8 -211 -82 -454q225 109 324 203zM516 -125q-180 -88 -184 -141q-2 -29 30 -29q60 0 154 170z" />
    <glyph glyph-name="thorn" unicode="&#xfe;" horiz-adv-x="921" 
d="M922 471q-16 -154 -109 -283q-129 -182 -350 -208q-78 -10 -137 10q-12 -96 -15 -189q-2 -102 37 -153q25 -31 49 -31q31 0 64 16q-80 -219 -264 -213q-168 6 -162 205q4 113 83 589t81 564q6 41 -29 41q-14 0 -68 -43l-49 55q10 8 129 121q84 78 115 80q59 4 94 -53
q31 -49 25 -117l-29 -317q174 188 344 186q193 -4 193 -221q0 -21 -2 -39zM653 444q2 78 -63 78q-72 0 -146 -106q-68 -96 -73 -174q-2 -35 12 -56.5t51 -19.5q82 4 156 115q61 93 63 163z" />
    <glyph glyph-name="ydieresis" unicode="&#xff;" horiz-adv-x="940" 
d="M825 930q-4 -43 -45 -78q-47 -43 -116 -43q-94 0 -84 82q6 45 60 84t116 39q35 0 56 -27.5t13 -56.5zM508 930q-6 -43 -47 -80q-47 -41 -117 -41q-94 0 -82 82q6 45 59.5 84t112.5 39q37 0 57.5 -26.5t16.5 -57.5zM1186 270q-119 -125 -391 -260q-86 -256 -203 -409
q-137 -180 -285 -181q-219 0 -201 199q10 115 150 215q98 72 319 172q23 57 39 139q-45 -43 -94 -75q-119 -80 -237 -88q-100 -8 -144 47q-35 45 -30 129q2 61 37.5 186t35.5 129q2 53 -37 53q-12 0 -69 -43l-47 56q66 59 131 118q88 78 133 82q66 6 100.5 -35.5
t34.5 -109.5q0 -39 -22 -152q-25 -119 -27 -157q-2 -74 41 -74q61 0 140 91t81 171q2 31 -16.5 54.5t-46.5 23.5q-35 0 -68 -14q59 219 250 213q158 -4 151 -175q-8 -211 -82 -454q225 109 324 203zM516 -125q-180 -88 -184 -141q-2 -29 30 -29q60 0 154 170z" />
    <glyph glyph-name="OE" unicode="&#x152;" horiz-adv-x="2293" 
d="M1956 -45q-39 -238 -230 -238q-139 0 -124 131q8 -14 18 -26q23 -27 55 -29q55 -4 66 74q6 47 -37 86q-53 47 -164 47q-84 0 -272.5 -56.5t-255.5 -56.5q-170 0 -293 111q-145 131 -166 373q-100 -84 -225 -84q-113 0 -186.5 82t-73.5 217q0 43 8 90q31 178 209 307
t391 129q70 0 143 -18q111 96 254 151q117 47 193 47q84 0 290.5 -49t301.5 -49q102 0 116 94q10 72 -65 72q-37 0 -101 -45q68 109 197 108q168 0 168 -202q0 -121 -79 -200t-202 -79q-94 0 -233 41q-12 -72 -53 -307q94 135 225 135q94 0 94 -92q0 -14 -2 -29
q-8 -55 -70 -119q-76 -78 -174 -90q27 14 45 31q45 39 52 78q4 31 -56 31q-31 0 -71 -74q-47 -84 -64 -199q-2 -20 -2 -39q0 -152 195 -151q205 0 219 153q4 37 -14.5 51.5t-51.5 12.5q-55 -4 -123 -109q72 309 275 303q168 -4 168 -213q0 -137 -80 -252q-86 -118 -215 -149
zM1350 1016q8 43 -21 70.5t-86 25.5q-104 -4 -225 -119q117 -82 190 -84q124 -2 142 107zM1358 524q0 131 -92 131q-31 0 -58.5 -23.5t-33.5 -51.5q-6 -29 8 -70q-74 25 -74 100q0 41 22 92q-53 20 -109 68.5t-110 95.5q-66 -115 -82 -219q-10 -63 -10 -119q0 -168 92 -254
q70 -63 158 -63q117 0 205 100q84 94 84 213zM715 977q-45 8 -56 8q-145 0 -256 -67q-121 -74 -145 -197q-4 -23 -4 -41q0 -96 96 -96q49 0 92 33.5t52 82.5q10 70 -45 93q-23 10 -58 8q66 39 144 39q39 0 81 -37q33 92 99 174z" />
    <glyph glyph-name="oe" unicode="&#x153;" horiz-adv-x="1431" 
d="M1556 283q-59 -98 -233 -197q-217 -125 -440 -125q-154 0 -226 94q-125 -98 -282 -98q-162 0 -246 104q-61 78 -68 195q-10 176 127 324q147 164 371 163q164 0 240 -127q145 115 321 115q199 0 211 -164q8 -104 -112 -215q-131 -121 -330 -153q33 -51 110 -52
q147 0 322 76q125 53 197 111zM1092 498q0 55 -45 55q-61 0 -125 -85t-66 -163v-26q100 37 174 112q62 66 62 107zM608 428q2 55 -15.5 101t-49.5 46q-104 0 -172 -112q-57 -92 -62 -197q-2 -51 19 -90q23 -45 63 -45q92 0 158 109q55 90 59 188z" />
    <glyph glyph-name="Ydieresis" unicode="&#x178;" horiz-adv-x="1548" 
d="M1440 1645q-6 -43 -47 -78q-49 -43 -117 -43q-92 0 -82 82q6 45 59.5 84t114.5 39q35 0 56.5 -26.5t15.5 -57.5zM1120 1645q-6 -43 -45 -78q-49 -43 -119 -43q-94 0 -82 82q6 45 59.5 84t113.5 39q37 0 57 -26.5t16 -57.5zM1657 1073q-39 -274 -410 -522
q-29 -96 -69 -285q-2 -16 -2 -30q0 -61 27.5 -105.5t70.5 -44.5q76 0 84 59q4 35 -35 54q119 -10 102 -123q-18 -123 -151 -123q-16 0 -31 2q-35 6 -119 39q-68 27 -120 26q-49 0 -90.5 -33.5t-47.5 -72.5q-14 -94 78 -98q39 -2 64.5 24.5t25.5 59.5q0 10 -2 18
q37 -37 31 -78t-49 -78q-51 -47 -125 -53q-94 -8 -172 41q-86 57 -72 156q12 84 111 166q63 51 125 102q37 51 41 133q-45 -68 -119 -67q-102 0 -86 116q16 109 155 201q-53 -96 -53 -147q0 -39 37 -39q63 0 82 39q12 23 25 122q-246 473 -424 474q-82 0 -144 -48
q-78 -59 -90 -174q-6 -68 31 -112.5t94 -44.5q59 0 97 34.5t38 92.5q0 82 -98 75q31 18 129 43q70 4 113 -64.5t32 -139.5q-20 -160 -137 -246q-100 -74 -217 -66q-125 10 -190 99q-59 80 -60 202q0 35 6 72q25 170 140 324q139 188 327 188q106 0 236 -104q-12 35 -6 86
q6 43 54 78.5t105 33.5q47 -2 84 -30q49 -35 50 -95q0 -59 -50 -133q12 117 -67 117q-51 0 -64 -80q-8 -63 72 -192q8 -12 119 -166q55 43 96 94q102 121 121 256q4 33 4 63q0 240 -277 240q-43 0 -79 -6q166 78 309 67q119 -8 215 -77q129 -92 129 -256q0 -31 -4 -64z" />
    <glyph glyph-name="circumflex" unicode="&#x2c6;" horiz-adv-x="673" 
d="M668 1030l-52 -47l-225 158l-264 -158l-41 47l336 289z" />
    <glyph glyph-name="tilde" unicode="&#x2dc;" horiz-adv-x="827" 
d="M786 1305q-10 -74 -71 -148q-70 -84 -156 -84q-31 0 -63 12l-121 50q-47 18 -88 18q-102 0 -158 -94l-10 4q8 76 71 154q74 84 158 83q31 0 62 -12l122 -53q41 -18 82 -18q98 0 166 96z" />
    <glyph glyph-name="uni2000" unicode="&#x2000;" horiz-adv-x="956" 
 />
    <glyph glyph-name="uni2001" unicode="&#x2001;" horiz-adv-x="1913" 
 />
    <glyph glyph-name="uni2002" unicode="&#x2002;" horiz-adv-x="956" 
 />
    <glyph glyph-name="uni2003" unicode="&#x2003;" horiz-adv-x="1913" 
 />
    <glyph glyph-name="uni2004" unicode="&#x2004;" horiz-adv-x="637" 
 />
    <glyph glyph-name="uni2005" unicode="&#x2005;" horiz-adv-x="478" 
 />
    <glyph glyph-name="uni2006" unicode="&#x2006;" horiz-adv-x="318" 
 />
    <glyph glyph-name="uni2007" unicode="&#x2007;" horiz-adv-x="318" 
 />
    <glyph glyph-name="uni2008" unicode="&#x2008;" horiz-adv-x="239" 
 />
    <glyph glyph-name="uni2009" unicode="&#x2009;" horiz-adv-x="382" 
 />
    <glyph glyph-name="uni200A" unicode="&#x200a;" horiz-adv-x="106" 
 />
    <glyph glyph-name="uni2010" unicode="&#x2010;" horiz-adv-x="780" 
d="M860 739q-16 -127 -80 -231q-74 -119 -159 -119q-74 0 -144 35q-80 41 -117 47q-16 2 -32 2q-59 0 -133 -35q-51 -27 -101 -53q33 104 107 193q88 104 172 104q70 0 127 -31q68 -35 116 -41q16 -2 33 -2q137 0 211 131z" />
    <glyph glyph-name="uni2011" unicode="&#x2011;" horiz-adv-x="780" 
d="M860 739q-16 -127 -80 -231q-74 -119 -159 -119q-74 0 -144 35q-80 41 -117 47q-16 2 -32 2q-59 0 -133 -35q-51 -27 -101 -53q33 104 107 193q88 104 172 104q70 0 127 -31q68 -35 116 -41q16 -2 33 -2q137 0 211 131z" />
    <glyph glyph-name="figuredash" unicode="&#x2012;" horiz-adv-x="780" 
d="M860 739q-16 -127 -80 -231q-74 -119 -159 -119q-74 0 -144 35q-80 41 -117 47q-16 2 -32 2q-59 0 -133 -35q-51 -27 -101 -53q33 104 107 193q88 104 172 104q70 0 127 -31q68 -35 116 -41q16 -2 33 -2q137 0 211 131z" />
    <glyph glyph-name="endash" unicode="&#x2013;" horiz-adv-x="1036" 
d="M1034 707l-28 -195h-940l28 195h940z" />
    <glyph glyph-name="emdash" unicode="&#x2014;" horiz-adv-x="1859" 
d="M1825 707l-29 -195h-1730l28 195h1731z" />
    <glyph glyph-name="quoteleft" unicode="&#x2018;" horiz-adv-x="651" 
d="M535 1315q-45 -35 -78 -72q-80 -86 -95 -166q70 10 105 -26q29 -33 22 -78q-8 -57 -77.5 -108.5t-147.5 -51.5q-47 0 -72.5 34t-21.5 75q16 135 106 249q96 125 244 168z" />
    <glyph glyph-name="quoteright" unicode="&#x2019;" horiz-adv-x="651" 
d="M547 1227q-16 -135 -107 -250q-98 -125 -243 -168l-15 25q45 35 78 71q80 86 92 166q-70 -10 -104 29q-29 31 -23 76q8 57 79 108t149 51q47 0 72.5 -33.5t21.5 -74.5z" />
    <glyph glyph-name="quotesinglbase" unicode="&#x201a;" horiz-adv-x="765" 
d="M567 84q-16 -137 -106 -252q-96 -123 -244 -166l-14 25q45 35 78 71q80 86 94 164q-70 -10 -105 29q-29 31 -22 78q8 55 77.5 107.5t147.5 52.5q47 0 72.5 -35t21.5 -74z" />
    <glyph glyph-name="quotedblleft" unicode="&#x201c;" horiz-adv-x="1026" 
d="M915 1315q-45 -35 -77 -72q-80 -86 -95 -166q70 10 105 -26q29 -33 22 -78q-8 -57 -77.5 -108.5t-147.5 -51.5q-47 0 -72.5 34t-21.5 75q16 135 106 249q96 125 244 168zM535 1315q-45 -35 -78 -72q-80 -86 -95 -166q70 10 105 -26q29 -33 22 -78q-8 -57 -77.5 -108.5
t-147.5 -51.5q-47 0 -72.5 34t-21.5 75q16 135 106 249q96 125 244 168z" />
    <glyph glyph-name="quotedblright" unicode="&#x201d;" horiz-adv-x="1089" 
d="M932 1227q-16 -135 -107 -250q-100 -125 -245 -168l-13 25q45 35 78 71q80 86 92 166q-70 -10 -104 29q-29 31 -23 76q8 57 79 108t149 51q47 0 72.5 -33.5t21.5 -74.5zM547 1227q-16 -135 -107 -250q-98 -125 -243 -168l-15 25q45 35 78 71q80 86 92 166
q-70 -10 -104 29q-29 31 -23 76q8 57 79 108t149 51q47 0 72.5 -33.5t21.5 -74.5z" />
    <glyph glyph-name="quotedblbase" unicode="&#x201e;" horiz-adv-x="1138" 
d="M942 84q-16 -137 -106 -252q-96 -123 -244 -166l-14 25q45 35 77 71q80 86 93 164q-70 -10 -105 29q-29 31 -22 78q8 55 78.5 107.5t148.5 52.5q47 0 72.5 -35t21.5 -74zM567 84q-16 -137 -106 -252q-96 -123 -244 -166l-14 25q45 35 78 71q80 86 94 164q-70 -10 -105 29
q-29 31 -22 78q8 55 77.5 107.5t147.5 52.5q47 0 72.5 -35t21.5 -74z" />
    <glyph glyph-name="bullet" unicode="&#x2022;" horiz-adv-x="845" 
d="M748 602q-4 -141 -103 -244q-104 -106 -252 -106q-123 0 -184 80q-47 59 -51 147q-8 133 96 246q113 125 283 125q106 0 163 -76q52 -68 48 -172z" />
    <glyph glyph-name="ellipsis" unicode="&#x2026;" horiz-adv-x="1845" 
d="M1626 84q-10 -57 -61 -104q-61 -55 -152 -56q-123 0 -108 109q8 55 78.5 107.5t148.5 52.5q47 0 73.5 -35t20.5 -74zM1092 84q-10 -57 -62 -104q-61 -55 -149 -56q-125 0 -109 109q8 55 78 107.5t147 52.5q47 0 74 -35t21 -74zM567 84q-10 -57 -61 -104q-61 -55 -150 -56
q-125 0 -108 109q8 55 77.5 107.5t147.5 52.5q47 0 73.5 -35t20.5 -74z" />
    <glyph glyph-name="uni202F" unicode="&#x202f;" horiz-adv-x="382" 
 />
    <glyph glyph-name="guilsinglleft" unicode="&#x2039;" horiz-adv-x="559" 
d="M489 813l-161 -328l71 -323l-47 -33l-231 356l332 361z" />
    <glyph glyph-name="guilsinglright" unicode="&#x203a;" horiz-adv-x="534" 
d="M446 467l-317 -346l-35 33l156 313l-68 307l43 33z" />
    <glyph glyph-name="uni205F" unicode="&#x205f;" horiz-adv-x="478" 
 />
    <glyph glyph-name="trademark" unicode="&#x2122;" horiz-adv-x="1148" 
d="M1108 1231q-35 -23 -72 -72l-39 -276q-4 -27 56 -70h-217l-5 16q23 12 52 54l35 237l-183 -321l-104 327l-35 -243q-4 -27 39 -54l-8 -16h-117l-4 16q25 12 51 54l39 274q4 35 -43 55l8 19h156l65 -258l150 258h176zM512 1237l-33 -133h-18q0 45 -22.5 71.5t-63.5 22.5
l-43 -315q-4 -27 61 -70h-256q23 12 39 25q39 27 41 45l45 315q-39 4 -76 -27q-25 -23 -36 -67l-19 2l8 131h373z" />
    <glyph glyph-name="uni25FC" unicode="&#x25fc;" horiz-adv-x="737" 
d="M0 737h737v-737h-737v737z" />
  </font>
</defs>
</svg>
